<?xml version="1.0" standalone="no"?>
<!DOCTYPE svg PUBLIC "-//W3C//DTD SVG 1.1//EN" "http://www.w3.org/Graphics/SVG/1.1/DTD/svg11.dtd" >
<svg xmlns="http://www.w3.org/2000/svg">
<metadata></metadata>
<defs>
<font id="volkhovregular" horiz-adv-x="1214" >
<font-face units-per-em="2048" ascent="1638" descent="-410" />
<missing-glyph horiz-adv-x="473" />
<glyph horiz-adv-x="0" />
<glyph unicode="&#xd;" horiz-adv-x="0" />
<glyph unicode=" "  horiz-adv-x="473" />
<glyph unicode="&#x09;" horiz-adv-x="473" />
<glyph unicode="&#xa0;" horiz-adv-x="473" />
<glyph unicode="!" horiz-adv-x="581" d="M152 111q0 57 40.5 98t98.5 41q57 0 97 -41t40 -98q0 -55 -41 -97.5t-96 -42.5q-57 0 -98 42.5t-41 97.5zM162 1434h258l-41 -1008h-176z" />
<glyph unicode="&#x22;" horiz-adv-x="743" d="M86 1464h217l-61 -481h-95zM440 1464h217l-61 -481h-94z" />
<glyph unicode="#" horiz-adv-x="1208" d="M94 412v131h191l73 391h-211v131h238l74 399h135l-76 -399h275l75 399h136l-78 -399h190v-131h-213l-76 -391h234v-131h-258l-76 -412h-133l76 412h-275l-78 -412h-133l78 412h-168zM418 543h276l76 391h-278z" />
<glyph unicode="$" horiz-adv-x="1224" d="M123 66v376h94l105 -313q98 -31 233 -31v549q-88 35 -153.5 70t-132 87t-102.5 126t-36 164q0 160 117 257t307 111v129h133v-129q186 -8 346 -61v-377h-94l-98 299q-78 14 -154 16v-489q221 -84 327.5 -191.5t110.5 -259.5q0 -188 -121.5 -295.5t-316.5 -128.5v-145 h-133v139q-233 3 -432 97zM352 1122q0 -72 52.5 -124t150.5 -95v430q-94 -12 -148.5 -72.5t-54.5 -138.5zM688 109q207 47 207 237q0 82 -52 137.5t-155 106.5v-481z" />
<glyph unicode="%" horiz-adv-x="1554" d="M82 1112q0 74 20.5 138.5t60.5 112.5t97 74.5t131 26.5t130.5 -27.5t95 -75.5t59 -111.5t20.5 -137.5t-20.5 -138.5t-58 -112.5t-95 -75.5t-131.5 -27.5q-145 0 -227 100t-82 254zM264 1112q0 -274 127 -274q125 0 125 274q0 270 -125 270q-127 0 -127 -270zM346 0 l731 1464h144l-729 -1464h-146zM858 324q0 74 20.5 138t60.5 111.5t96.5 75t129.5 27.5q72 0 129.5 -27.5t97.5 -75t60.5 -112t20.5 -137.5q0 -74 -20.5 -139.5t-60.5 -112.5t-96.5 -75t-130.5 -28q-143 1 -225 101t-82 254zM1040 324q0 -274 125 -275q127 0 127 275 q0 270 -127 270q-125 0 -125 -270z" />
<glyph unicode="&#x26;" horiz-adv-x="1570" d="M104 340q0 248 322 418q-195 211 -195 389q0 158 116 237.5t286 79.5q166 0 282.5 -82t116.5 -229q0 -231 -315 -393l334 -332q49 109 69 234l-123 45v92h420v-92l-176 -45q-23 -174 -96 -322l207 -199l204 -49v-92h-348l-176 168q-178 -199 -450 -199 q-203 0 -340.5 95.5t-137.5 275.5zM336 340q0 -100 65.5 -174t190.5 -74q211 0 350 164l-424 406q-182 -146 -182 -322zM453 1149q0 -49 25.5 -104.5t87 -121t65.5 -69.5q78 47 128 127t50 170q0 92 -51 144.5t-129 52.5q-72 0 -124 -52.5t-52 -146.5z" />
<glyph unicode="'" horiz-adv-x="409" d="M86 1464h238l-62 -481h-115z" />
<glyph unicode="(" horiz-adv-x="679" d="M70 512q0 360 157.5 658t405.5 466l49 -59q-195 -188 -302.5 -471t-107.5 -594q0 -313 106.5 -596t303.5 -469l-49 -59q-248 166 -405.5 464t-157.5 660z" />
<glyph unicode=")" horiz-adv-x="679" d="M-2 -553q197 186 303.5 469t106.5 596q0 311 -107.5 594t-302.5 471l49 59q248 -168 405.5 -466t157.5 -658q0 -362 -157.5 -660t-405.5 -464z" />
<glyph unicode="*" horiz-adv-x="964" d="M90 1210l53 162l289 -135l-37 319h172l-37 -319l291 133l53 -160l-313 -69l217 -234l-137 -100l-160 276l-155 -278l-142 104l217 234z" />
<glyph unicode="+" horiz-adv-x="1112" d="M86 662v137h399v399h138v-399h403v-137h-403v-402h-138v402h-399z" />
<glyph unicode="," horiz-adv-x="487" d="M39 -287q123 129 184 283l-135 104q0 68 46 112t104 44q72 0 112.5 -43t40.5 -127q0 -102 -92 -237.5t-184 -202.5z" />
<glyph unicode="-" horiz-adv-x="702" d="M127 481v158h448v-158h-448z" />
<glyph unicode="." horiz-adv-x="466" d="M94 109q0 57 41 97t98 40t97.5 -40t40.5 -97q0 -55 -41 -97.5t-97 -42.5q-57 0 -98 42.5t-41 97.5z" />
<glyph unicode="/" horiz-adv-x="909" d="M59 0l637 1434h156l-635 -1434h-158z" />
<glyph unicode="0" horiz-adv-x="1294" d="M104 717q0 330 146.5 538.5t396.5 208.5t396.5 -207.5t146.5 -539.5q0 -328 -146.5 -538t-396.5 -210t-396.5 210t-146.5 538zM367 717q0 -262 73.5 -444.5t206.5 -182.5t207 182.5t74 444.5t-74 444t-207 182t-206.5 -182t-73.5 -444z" />
<glyph unicode="1" horiz-adv-x="833" d="M51 1206l432 228h97v-1307l174 -39v-88h-660v88l236 41v1098l-246 -105z" />
<glyph unicode="2" horiz-adv-x="1101" d="M59 0v123l177 188q61 68 143 172.5t143.5 201.5t105.5 208t44 201q0 123 -60.5 196.5t-162.5 73.5l-242 -221q-111 82 -117 219q199 102 434 102q176 0 292 -85t116 -251q0 -119 -56.5 -248.5t-160 -258.5t-190.5 -221.5t-203 -200.5h489l111 221h90l-58 -420h-895z" />
<glyph unicode="3" horiz-adv-x="1103" d="M41 53l43 101q158 -57 309 -58q160 0 256 82t96 213q0 141 -110.5 223t-315.5 82v115q162 2 257.5 88t95.5 219q0 111 -65.5 180.5t-170.5 69.5l-229 -209q-37 25 -72 88.5t-37 118.5q80 47 183.5 72.5t207.5 25.5q225 0 333 -92t108 -239q0 -117 -83 -214.5t-233 -144.5 q193 -29 292.5 -132t99.5 -247q0 -203 -159 -314.5t-390 -111.5q-226 0 -416 84z" />
<glyph unicode="4" horiz-adv-x="1163" d="M16 283v88l789 1063h100v-1008h162v-143h-162v-314h-219v314h-670zM238 426h448v598z" />
<glyph unicode="5" horiz-adv-x="1081" d="M45 55l45 97q129 -57 264 -58q164 0 269.5 94.5t105.5 270.5q0 139 -84 230t-250 91q-72 0 -194 -26l-45 26l59 654h608l86 82l82 -37l-94 -242h-565l-31 -350q104 27 211 26q117 0 210 -39.5t149.5 -104t85 -140.5t28.5 -154q0 -231 -169 -368.5t-396 -137.5 q-229 0 -371 84z" />
<glyph unicode="6" horiz-adv-x="1165" d="M106 614q0 362 225.5 606t612.5 244l-2 -118q-244 -2 -396.5 -163t-193.5 -415q137 125 318 125q203 0 314.5 -129t111.5 -326q0 -199 -123 -334t-348 -135q-250 0 -384.5 177t-134.5 468zM338 596q0 -221 71.5 -367.5t202.5 -146.5q102 0 166 97t64 224q0 143 -70 235.5 t-194 92.5q-129 0 -240 -80v-55z" />
<glyph unicode="7" horiz-adv-x="974" d="M51 1014l58 420h864v-91q-201 -307 -326 -655t-160 -688h-245q37 293 191.5 648.5t311.5 586.5h-499l-105 -221h-90z" />
<glyph unicode="8" horiz-adv-x="1210" d="M135 346q0 223 293 404q-121 82 -188.5 169t-67.5 207q0 160 128 249t304 89q174 0 298 -86t124 -239q0 -193 -221 -351q129 -84 201.5 -181t72.5 -238q0 -184 -145.5 -292t-333.5 -108q-184 0 -324.5 101.5t-140.5 275.5zM342 346q0 -123 76 -191.5t180 -68.5 q100 0 173 65.5t73 180.5q0 57 -22.5 105t-76 94.5t-93.5 74t-117 76.5q-98 -74 -145.5 -165t-47.5 -171zM406 1157q0 -39 18 -77t38.5 -63.5t69 -60t74.5 -51.5l92 -53q61 59 92 135t31 135q0 104 -63.5 162.5t-155.5 58.5q-80 0 -138 -50t-58 -136z" />
<glyph unicode="9" horiz-adv-x="1165" d="M70 993q0 201 122.5 336t348.5 135q250 0 384 -177t134 -468q0 -362 -224.5 -606t-613.5 -244v119q246 2 398.5 163t193.5 415q-137 -125 -317 -125q-203 0 -314.5 127.5t-111.5 324.5zM324 1028q0 -141 69.5 -233.5t194.5 -92.5q133 0 239 78v58q0 221 -71.5 367.5 t-202.5 146.5q-102 0 -165.5 -97.5t-63.5 -226.5z" />
<glyph unicode=":" horiz-adv-x="532" d="M127 109q0 57 41 97t98 40t97 -40t40 -97q0 -55 -40.5 -97.5t-96.5 -42.5q-57 0 -98 42.5t-41 97.5zM127 805q0 57 41 97t98 40t97 -40t40 -97q0 -55 -40.5 -97t-96.5 -42q-57 0 -98 42t-41 97z" />
<glyph unicode=";" horiz-adv-x="563" d="M82 -287q123 129 184 283l-135 104q0 68 46 112t104 44q72 0 112.5 -43t40.5 -127q0 -102 -92 -237.5t-184 -202.5zM139 805q0 57 41 97t99 40q57 0 97 -40t40 -97q0 -55 -41 -97t-96 -42q-57 0 -98.5 42t-41.5 97z" />
<glyph unicode="&#x3c;" horiz-adv-x="1105" d="M78 676v112l878 474v-158l-686 -373l686 -369v-157z" />
<glyph unicode="=" horiz-adv-x="1222" d="M141 494v137h940v-137h-940zM141 831v138h940v-138h-940z" />
<glyph unicode="&#x3e;" horiz-adv-x="1105" d="M150 202v158l686 373l-686 369v157l878 -471v-112z" />
<glyph unicode="?" horiz-adv-x="1005" d="M72 1366q84 45 192.5 71.5t216.5 26.5q201 0 309.5 -93t108.5 -257q0 -80 -26.5 -149.5t-91 -140t-116 -115.5t-153.5 -125l-31 -191h-104l-31 250q137 129 215 245t78 234q0 113 -62.5 174.5t-166.5 61.5l-242 -191q-86 74 -96 199zM289 109q0 57 41 98t98 41t97 -41 t40 -98q0 -55 -41 -97.5t-96 -42.5q-57 0 -98 42.5t-41 97.5z" />
<glyph unicode="@" horiz-adv-x="1861" d="M109 588q0 377 259 626.5t650 249.5q338 0 549 -180t211 -461q0 -135 -63.5 -259t-160 -206t-211 -125t-215.5 -30q-100 14 -100 88l10 82q-143 -170 -317 -170q-84 0 -143.5 61.5t-59.5 188.5q0 266 166 454.5t397 188.5q166 0 312 -80l-181 -699q182 -2 309.5 156 t127.5 367q0 221 -178.5 368.5t-448.5 147.5q-299 0 -513 -218t-214 -552q0 -170 59.5 -305.5t161.5 -219.5t230 -128t274 -44q199 0 381 76l41 -69q-207 -121 -475 -121q-162 0 -312.5 50t-274.5 146.5t-197.5 256t-73.5 360.5zM719 492q0 -74 25.5 -116t72.5 -42 q61 0 136 64.5t132 154.5l117 446q-43 14 -88 15q-162 0 -278.5 -164.5t-116.5 -357.5z" />
<glyph unicode="A" horiz-adv-x="1468" d="M-20 0v94l192 45l498 1305h147l467 -1307l189 -43v-94h-603v94l152 35l-98 277h-502l-107 -271l181 -41v-94h-516zM467 526h412l-201 559z" />
<glyph unicode="B" horiz-adv-x="1390" d="M90 0v94l189 45v1155l-189 45v95h588q500 0 500 -349q0 -113 -67 -196.5t-181 -120.5v-4q168 -31 259 -125t91 -236q0 -184 -137 -293.5t-371 -109.5h-682zM530 125h179q150 0 231.5 71.5t81.5 206.5q0 125 -85 201t-239 76h-168v-555zM530 809h117q119 0 196 68.5 t77 189.5q0 123 -77 182.5t-208 59.5h-105v-500z" />
<glyph unicode="C" horiz-adv-x="1374" d="M104 717q0 362 185.5 554.5t556.5 192.5q238 0 399 -71v-387h-94l-94 303q-80 18 -185 18q-510 0 -510 -610t469 -611q70 0 125.5 4.5t100.5 12.5l119 323h94l-15 -387q-29 -16 -82 -32.5t-115.5 -28.5t-129 -20.5t-121.5 -8.5q-346 0 -524.5 192.5t-178.5 555.5z" />
<glyph unicode="D" horiz-adv-x="1533" d="M90 0v94l189 45v1155l-189 45v95h533q377 0 593 -180.5t216 -536.5q0 -322 -223.5 -519.5t-585.5 -197.5h-533zM530 137h82q272 0 417 137.5t145 442.5q0 283 -148.5 431t-413.5 148h-82v-1159z" />
<glyph unicode="E" horiz-adv-x="1312" d="M90 0v94l189 45v1155l-189 45v95h1067v-420h-96l-88 282l-443 17v-527l443 39v-182l-443 37v-559l482 16l104 305h96l-16 -442h-1106z" />
<glyph unicode="F" horiz-adv-x="1208" d="M90 0v94l189 45v1155l-189 45v95h1057v-420h-94l-86 282l-437 17v-525l443 37v-182l-443 35v-539l230 -45v-94h-670z" />
<glyph unicode="G" horiz-adv-x="1486" d="M104 717q0 356 200 551.5t575 195.5q238 0 397 -69v-389h-94l-97 305q-102 16 -172 16q-262 0 -406.5 -155.5t-144.5 -454.5q0 -301 131.5 -456t378.5 -155q90 0 162 15v428l-233 43v72h637v-72l-152 -43v-479q-188 -100 -440 -101q-360 0 -551 195t-191 553z" />
<glyph unicode="H" horiz-adv-x="1693" d="M90 0v94l189 45v1155l-189 45v95h629v-95l-189 -45v-501h633v501l-188 45v95h629v-95l-189 -45v-1155l189 -45v-94h-629v94l188 45v516h-633v-516l189 -45v-94h-629z" />
<glyph unicode="I" horiz-adv-x="808" d="M90 0v94l191 45v1155l-191 45v95h629v-95l-189 -45v-1155l189 -45v-94h-629z" />
<glyph unicode="J" horiz-adv-x="768" d="M16 -229q246 178 246 536v987l-188 45v95h628v-95l-188 -45v-987q0 -211 -132 -382t-294 -240z" />
<glyph unicode="K" horiz-adv-x="1480" d="M90 0v94l189 35v1176l-189 34v95h629v-95l-189 -34v-1176l189 -35v-94h-629zM575 735l506 570l-147 34v95h491v-95l-182 -45l-440 -489l481 -645l195 -66v-94h-396z" />
<glyph unicode="L" horiz-adv-x="1265" d="M90 0v94l189 45v1155l-189 45v95h629v-95l-189 -45v-1157h482l110 305h95l-21 -442h-1106z" />
<glyph unicode="M" horiz-adv-x="2068" d="M61 0v94l195 47l66 1155l-181 43l2 95h439l460 -1069l465 1069h422v-95l-184 -43l70 -1157l196 -45v-94h-622v94l180 43l-56 971l-485 -1118h-90l-492 1120l-51 -973l183 -43v-94h-517z" />
<glyph unicode="N" horiz-adv-x="1683" d="M90 0v94l189 45v1155l-189 45v95h332l854 -1014v874l-189 45v95h527v-95l-189 -45v-1294h-122l-881 1038v-899l188 -45v-94h-520z" />
<glyph unicode="O" horiz-adv-x="1579" d="M104 723q0 154 41 288t125 235.5t214.5 159.5t306.5 58q166 0 292.5 -55t214.5 -153.5t133.5 -235.5t45.5 -301q0 -166 -44 -303t-131.5 -236.5t-215.5 -155t-295 -55.5q-178 0 -308.5 59.5t-214.5 161t-124 238.5t-40 295zM367 717q0 -293 113.5 -460t310.5 -167 t310 167t113 460q0 276 -107 451t-316 175t-316.5 -175t-107.5 -451z" />
<glyph unicode="P" horiz-adv-x="1298" d="M90 0v94l189 45v1155l-189 45v95h545q602 0 602 -449q0 -227 -156.5 -338.5t-412.5 -111.5q-72 0 -138 10v-406l250 -45v-94h-690zM530 672q31 -4 62 -6t59 -2q70 0 130.5 20.5t104.5 61t68.5 100t24.5 139.5q0 160 -95.5 240t-248.5 80h-105v-633z" />
<glyph unicode="Q" horiz-adv-x="1570" d="M104 717q0 328 172.5 537.5t510 209.5t508.5 -210t171 -537q0 -158 -41 -291t-120.5 -236.5t-212.5 -162.5q-31 -12 -64 -23q74 -92 203 -139q143 -53 321 -53h50l-25 -88q-94 -10 -143.5 -12.5t-85.5 -2.5q-119 2 -223.5 22.5t-196.5 88.5q-82 59 -135 149h-7 q-174 0 -306 58.5t-213 162t-122 236.5t-41 291zM367 717q0 -293 113.5 -462t310.5 -169q221 0 317 169t96 462q0 281 -107 453.5t-306 172.5q-209 0 -316.5 -175t-107.5 -451z" />
<glyph unicode="R" horiz-adv-x="1427" d="M90 0v94l189 45v1155l-189 45v95h580q111 0 203 -17.5t179 -59.5t137 -125t50 -200q0 -272 -283 -368l285 -527l180 -45v-92h-372l-338 633h-181v-494l189 -45v-94h-629zM530 756h119q150 0 241 73.5t91 206.5q0 131 -90 200t-242 69h-119v-549z" />
<glyph unicode="S" horiz-adv-x="1206" d="M125 1106q0 170 135 264t350 94q229 0 420 -47l-10 -393h-92l-103 295q-86 16 -174 16q-141 0 -222 -55t-81 -154q0 -84 73 -140t253 -132q96 -39 158.5 -72.5t134 -89t107.5 -133.5t36 -174q0 -205 -152 -315q-140 -101 -350 -101h-4q-57 0 -189 10.5t-286 55.5v403h94 l105 -307q86 -27 200 -27q160 0 258.5 56.5t98.5 177.5q0 92 -88 159.5t-258 141.5q-233 100 -323.5 194.5t-90.5 272.5z" />
<glyph unicode="T" horiz-adv-x="1341" d="M61 999v435h1219v-435h-96l-92 297l-295 17v-1174l188 -45v-94h-629v94l189 45v1174l-297 -17l-90 -297h-97z" />
<glyph unicode="U" horiz-adv-x="1617" d="M45 1339v95h629v-95l-189 -45v-757q0 -205 101.5 -307.5t273.5 -102.5q170 0 274.5 103.5t104.5 306.5v757l-190 45v95h524v-95l-189 -45v-757q0 -135 -42 -242t-117.5 -178.5t-181 -109.5t-230.5 -38q-127 0 -233.5 37t-183.5 109.5t-120 178t-43 243.5v757z" />
<glyph unicode="V" horiz-adv-x="1437" d="M-14 1339v95h620v-95l-168 -34l348 -983l328 972l-162 45v95h494v-95l-189 -45l-450 -1308h-162l-477 1308z" />
<glyph unicode="W" horiz-adv-x="2099" d="M-23 1339v95h615v-95l-172 -36l293 -930l295 1061h174l342 -1057l241 917l-166 45v95h496v-95l-188 -45l-348 -1308h-162l-357 1069l-301 -1069h-157l-426 1310z" />
<glyph unicode="X" horiz-adv-x="1499" d="M23 1339v95h595v-95l-131 -30l310 -439l311 428l-141 41v95h493v-95l-188 -45l-393 -538l440 -623l168 -39v-94h-596v94l131 27l-326 465l-315 -451l143 -41v-94h-495v94l188 45l404 557l-416 596z" />
<glyph unicode="Y" horiz-adv-x="1423" d="M-18 1339v95h589v-95l-133 -26l338 -498l303 483l-151 41v95h502v-95l-189 -45l-397 -632v-523l188 -45v-94h-629v94l189 45v516l-445 643z" />
<glyph unicode="Z" horiz-adv-x="1316" d="M104 0v127l801 1186l-610 -17l-88 -292h-94v430h1089v-127l-794 -1180l610 10l100 305h94l-12 -442h-1096z" />
<glyph unicode="[" horiz-adv-x="681" d="M176 -262v1818h467v-112h-233v-1594h233v-112h-467z" />
<glyph unicode="\" horiz-adv-x="909" d="M57 1434l635 -1434h158l-637 1434h-156z" />
<glyph unicode="]" horiz-adv-x="681" d="M39 -150h233v1594h-233v112h467v-1818h-467v112z" />
<glyph unicode="^" horiz-adv-x="1175" d="M104 547l431 917h102l432 -917h-154l-331 729l-328 -729h-152z" />
<glyph unicode="_" horiz-adv-x="1546" d="M303 -160h940v-131h-940v131z" />
<glyph unicode="`" horiz-adv-x="452" d="M-90 1466q72 88 192 109l207 -365l-86 -59z" />
<glyph unicode="a" horiz-adv-x="1130" d="M72 254q0 354 628 354v72q0 178 -50 226t-156 48l-240 -204q-49 31 -83 87t-36 119q86 47 188.5 73t202.5 26q420 0 420 -353v-569h160v-67q-47 -45 -104.5 -71t-112.5 -26q-121 0 -178 105q-137 -104 -310 -105q-135 0 -232 72t-97 213zM330 262q0 -76 50 -112.5 t128 -36.5q113 0 192 69v322q-184 0 -277 -66.5t-93 -175.5z" />
<glyph unicode="b" d="M-23 1473v88l328 77h90v-680q133 96 291 97q190 0 315 -131t125 -373q0 -266 -171 -424t-420 -158q-207 0 -383 105v1399h-175zM395 98q57 -14 121 -14q158 0 257 117.5t99 341.5q0 178 -77.5 268t-200.5 90q-88 0 -199 -53v-750z" />
<glyph unicode="c" horiz-adv-x="1003" d="M88 508q0 244 148.5 395.5t359.5 151.5q182 0 328 -86q-2 -70 -41 -128.5t-88 -84.5l-197 186h-12q-104 -18 -176 -132t-72 -298q0 -211 97 -309.5t257 -98.5q125 0 230 58l34 -101q-172 -92 -350 -92q-221 0 -369.5 142.5t-148.5 396.5z" />
<glyph unicode="d" horiz-adv-x="1263" d="M88 475q0 276 170 428t412 152q86 0 149 -19v437h-174v88l328 77h92v-1505h160v-67l-33 -27q-20 -16 -76.5 -43t-109.5 -27q-23 0 -44.5 5.5t-38 13.5t-30.5 19t-23.5 21.5t-18.5 22.5t-13 20.5t-11 18.5l-4 8q-123 -129 -303 -129q-178 0 -305 130t-127 376zM340 483 q0 -176 79 -268t187 -92q115 0 213 76v723q-63 20 -131 20q-156 0 -252 -117t-96 -342z" />
<glyph unicode="e" horiz-adv-x="1097" d="M86 524q0 225 129 378t356 153q119 0 208 -44t141.5 -122t77 -174.5t24.5 -208.5h-692q14 -168 112.5 -286t268.5 -118q109 0 235 48l35 -97q-190 -84 -363 -84q-248 0 -390 162t-142 393zM330 606l438 33q-6 123 -57.5 213t-145.5 90q-102 0 -166.5 -96.5t-68.5 -239.5z " />
<glyph unicode="f" horiz-adv-x="851" d="M66 0v88l174 41v784h-172v97l172 12v154q0 493 395 493h2q86 0 177 -17.5t138 -33.5l47 -16q-2 -70 -37.5 -123.5t-87.5 -79.5l-200 157q-86 0 -138.5 -80.5t-52.5 -299.5v-138l312 23v-148h-312v-784l273 -41v-88h-690z" />
<glyph unicode="g" horiz-adv-x="1249" d="M37 -311q0 176 211 278q-61 33 -106.5 87.5t-53.5 119.5l238 207q-98 45 -152.5 125t-54.5 178q0 147 133 250.5t338 103.5q182 0 311 -84l318 121q24 -47 24 -103q0 -54 -8 -89h-248q78 -90 78 -199q0 -152 -128 -253t-347 -101q-76 0 -144 12l-118 -139 q31 -47 91 -66.5t202 -19.5h133q186 0 293.5 -78t107.5 -233.5t-165 -274.5t-441 -119q-512 1 -512 277zM287 -276q0 -100 77.5 -149.5t204.5 -49.5q180 0 289 65.5t109 159.5q0 82 -61.5 120t-207.5 38h-333q-78 -92 -78 -184zM354 684q0 -111 59.5 -177.5t176.5 -66.5 q113 0 176 66.5t63 177.5t-61 179.5t-178 68.5q-113 0 -174.5 -68.5t-61.5 -179.5z" />
<glyph unicode="h" horiz-adv-x="1335" d="M43 0v88l174 41v1344h-174v88l328 77h92v-712q156 129 330 129q160 0 252 -90.5t92 -231.5v-604l174 -41v-88h-551v88l133 41v567q0 209 -178 209q-121 0 -252 -94v-682l133 -41v-88h-553z" />
<glyph unicode="i" horiz-adv-x="708" d="M74 0v88l174 41v729h-174v88l327 78h91v-895l174 -41v-88h-592zM223 1335q0 63 44 107.5t108 44.5q63 0 107 -43t44 -109q0 -63 -44 -107t-107 -44t-107.5 44t-44.5 107z" />
<glyph unicode="j" horiz-adv-x="620" d="M-31 -532q248 174 248 532v858h-174v88l328 78h90v-1024q0 -109 -36 -207t-96.5 -180t-137 -143.5t-156.5 -96.5zM193 1335q0 63 44 107.5t107 44.5t107.5 -43t44.5 -109q0 -63 -44 -107t-108 -44q-63 0 -107 44t-44 107z" />
<glyph unicode="k" horiz-adv-x="1261" d="M43 0v88l174 41v1344h-174v88l328 77h92v-1509l133 -41v-88h-553zM498 494l374 407l-137 35v88h463v-88l-180 -41l-285 -311l338 -457l168 -39v-88h-381z" />
<glyph unicode="l" horiz-adv-x="679" d="M43 0v88l174 41v1344h-174v88l328 77h92v-1509l174 -41v-88h-594z" />
<glyph unicode="m" horiz-adv-x="2019" d="M74 0v88l174 41v729h-174v88l327 78h91v-92q158 123 323 123q211 0 299 -156q180 156 367 156q158 0 249 -90.5t91 -231.5v-604l174 -41v-88h-551v88l133 41v578q0 96 -46 147t-130 51q-121 0 -252 -94q8 -49 8 -78v-604l133 -41v-88h-512v88l133 41v578q0 96 -46 147 t-130 51q-115 0 -243 -86v-690l133 -41v-88h-551z" />
<glyph unicode="n" horiz-adv-x="1366" d="M74 0v88l174 41v729h-174v88l327 78h93v-98q156 129 329 129q160 0 252 -90.5t92 -231.5v-604l174 -41v-88h-550v88l133 41v567q0 209 -179 209q-121 0 -251 -94v-682l133 -41v-88h-553z" />
<glyph unicode="o" d="M86 514q0 236 148.5 388.5t373.5 152.5t372.5 -152.5t147.5 -388.5q0 -238 -147 -391.5t-373 -153.5q-225 0 -373.5 153.5t-148.5 391.5zM344 514q0 -195 68.5 -313.5t195.5 -118.5t195.5 120t68.5 312q0 195 -68.5 311.5t-195.5 116.5t-195.5 -116.5t-68.5 -311.5z" />
<glyph unicode="p" horiz-adv-x="1280" d="M43 -526l174 41v1343h-174v88l328 78h92v-94q125 125 307 125q174 0 298 -129t124 -375q0 -276 -170 -429t-412 -153q-84 0 -147 17v-471l215 -41v-88h-635v88zM463 102q61 -20 129 -20q154 0 250 118.5t96 342.5q0 172 -75 259t-191 87q-115 0 -209 -72v-715z" />
<glyph unicode="q" d="M88 475q0 276 174 428t418 152q213 0 383 -105v-1435l174 -41v-88h-635v88l215 41v571q-111 -117 -297 -117q-176 0 -304 129t-128 377zM340 483q0 -170 80 -259t198 -89q106 0 199 64v727q-66 16 -119 16q-164 0 -261 -118t-97 -341z" />
<glyph unicode="r" horiz-adv-x="925" d="M74 0v88l174 41v729h-174v88l327 78h91v-127q166 158 385 158q12 -39 12 -86q0 -76 -19 -135l-260 22q-61 -29 -118 -70v-657l215 -41v-88h-633z" />
<glyph unicode="s" horiz-adv-x="980" d="M100 16v293h95l77 -215q72 -12 160 -12q131 0 185.5 34t54.5 115q0 63 -59.5 105.5t-204.5 99.5q-137 57 -213 136t-76 200q0 137 115.5 210t302.5 73q162 0 292 -39v-279h-86l-67 193q-59 16 -139 16q-111 0 -155 -33.5t-44 -101.5q0 -39 28.5 -69.5t64.5 -50t116 -54.5 q186 -78 267 -157t81 -204q0 -150 -121 -228.5t-315 -78.5q-193 0 -359 47z" />
<glyph unicode="t" horiz-adv-x="768" d="M72 901v62l290 247h62v-198l295 12v-123h-295v-627q0 -182 145 -182q61 0 148 37l35 -94q-127 -66 -263 -66q-147 0 -228 71t-81 245v616h-108z" />
<glyph unicode="u" horiz-adv-x="1325" d="M27 936v88h417v-707q0 -204 175 -204h2q139 0 262 104v678l-133 41v88h376v-891h160v-67q-49 -43 -109.5 -70t-119.5 -27q-47 0 -83 17.5t-54.5 44t-26.5 44t-10 29.5q-162 -135 -348 -135q-164 0 -249 88t-85 234v604z" />
<glyph unicode="v" horiz-adv-x="1177" d="M4 936v88h545v-88l-146 -33l254 -600l238 594l-143 39v88h424v-88l-164 -45l-359 -905h-123l-389 911z" />
<glyph unicode="w" horiz-adv-x="1681" d="M6 936v88h529v-88l-138 -35l201 -559l231 682h146l237 -672l187 543l-168 41v88h444v-88l-157 -41l-304 -909h-131l-247 696l-236 -696h-129l-336 913z" />
<glyph unicode="x" horiz-adv-x="1286" d="M33 0v88l166 37l319 381l-303 391l-168 39v88h574v-88l-127 -25l200 -262l203 252l-141 35v88h452v-88l-168 -41l-278 -334l336 -434l172 -39v-88h-574v88l131 21l-239 307l-246 -295l133 -33v-88h-442z" />
<glyph unicode="y" horiz-adv-x="1230" d="M2 936v88h559v-88l-158 -31l291 -649l246 639l-164 41v88h453v-88l-162 -43l-580 -1505q-92 0 -138 26.5t-70 65.5l292 465l-430 952z" />
<glyph unicode="z" horiz-adv-x="1044" d="M80 0v102l571 811h-370l-99 -206h-73l22 317h817v-100l-571 -811h383l106 227h80l-20 -340h-846z" />
<glyph unicode="{" horiz-adv-x="774" d="M23 600v96q115 6 178 53.5t63 161.5v353q0 141 75 216.5t220 75.5h176v-98h-61q-88 0 -128 -53t-40 -162v-340q0 -215 -227 -252v-2q227 -39 227 -254v-344q0 -215 168 -215h61v-98h-176q-141 0 -218 80t-77 215v350q0 119 -62 166t-179 51z" />
<glyph unicode="|" horiz-adv-x="481" d="M174 -492v2048h133v-2048h-133z" />
<glyph unicode="}" horiz-adv-x="772" d="M39 -164h61q90 0 129 53.5t39 161.5v344q0 215 228 254v2q-227 37 -228 252v340q0 109 -39 162t-129 53h-61v98h176q145 0 220 -75.5t75 -216.5v-353q0 -115 63.5 -162t178.5 -53v-96q-117 -4 -179.5 -51t-62.5 -166v-350q0 -131 -95.5 -213t-240.5 -82h-135v98z" />
<glyph unicode="~" horiz-adv-x="1124" d="M100 578q37 332 267 331q55 0 116.5 -32.5t106.5 -70.5t98 -71t94 -33q98 0 125 207l129 -24q-41 -334 -264 -334q-68 0 -145 51l-148 105q-70 51 -121 51q-55 0 -86.5 -48t-42.5 -159z" />
<glyph unicode="&#xa1;" horiz-adv-x="546" d="M138 915q0 -57 40.5 -98t98.5 -41q57 0 97 41t40 98q0 55 -41 97.5t-96 42.5q-57 0 -98 -42.5t-41 -97.5zM148 -408h258l-41 1008h-176z" />
<glyph unicode="&#xa2;" horiz-adv-x="1048" d="M98 512q0 229 117 369.5t311 167.5v278h133v-274q160 -8 295 -84q0 -55 -34.5 -120t-83.5 -95l-177 186v-838q137 -2 273 37l24 -100q-150 -61 -297 -70v-256h-133v262q-190 29 -309 170.5t-119 366.5zM348 512q0 -283 178 -373v774q-178 -82 -178 -401z" />
<glyph unicode="&#xa3;" horiz-adv-x="1144" d="M100 0v113q295 217 295 434q0 55 -28 135h-250v96l200 13q-8 16 -65 122q-10 18 -42 94t-32 148q0 160 120 234.5t298 74.5q240 0 434 -102q-4 -61 -36.5 -123.5t-82.5 -95.5l-237 221q-119 0 -177.5 -68.5t-58.5 -179.5q0 -25 5.5 -52.5t10.5 -48t19 -54t21 -48.5 q45 -96 49 -104l303 20l-23 -147h-235q18 -61 18 -121q0 -182 -217 -362h461l108 221h91l-58 -420h-891z" />
<glyph unicode="&#xa4;" horiz-adv-x="1247" d="M131 1118l111 111l137 -139q117 76 246 75q125 0 243 -78l140 140l108 -111l-137 -137q78 -123 78 -244q0 -127 -78 -246l137 -137l-108 -108l-138 135q-115 -76 -245 -76q-133 0 -246 76l-135 -137l-111 110l137 137q-78 115 -77 246q0 125 75 244zM354 735 q0 -113 79 -191.5t192 -78.5q111 0 190.5 79t79.5 191q0 111 -80 190t-190 79q-113 0 -192 -79t-79 -190z" />
<glyph unicode="&#xa5;" horiz-adv-x="1576" d="M63 1339v95h590v-95l-133 -26l338 -498l303 483l-151 41v95h501v-95l-188 -45l-334 -528l291 14l-20 -145h-334v-111l354 21l-20 -150h-334v-256l188 -45v-94h-629v94l189 45v256h-348v97l348 20v123h-348v94l286 16l-383 553z" />
<glyph unicode="&#xa6;" horiz-adv-x="493" d="M180 328h133v-820h-133v820zM180 737v819h133v-819h-133z" />
<glyph unicode="&#xa7;" horiz-adv-x="1093" d="M127 735q0 154 166 242q-156 104 -156 276q0 139 117 220t293 81q188 0 342 -53v-321h-84l-84 250q-76 14 -131 14q-113 0 -178.5 -45t-65.5 -119q0 -84 60.5 -134t179.5 -97q72 -29 114.5 -48.5t103 -56.5t95.5 -75t60.5 -94t25.5 -122q0 -158 -139 -256 q127 -102 127 -250q0 -152 -128 -234.5t-323 -82.5q-197 0 -360 82v319h82l88 -260q78 -25 143 -24q272 0 273 186q0 74 -60.5 124t-193.5 103q-172 68 -269.5 155t-97.5 220zM301 762q0 -43 19.5 -77t63.5 -61.5t79 -43t100 -39.5q119 -45 180 -78q51 57 52 147 q0 88 -68 143.5t-213 112.5q-117 49 -121 52q-92 -58 -92 -156z" />
<glyph unicode="&#xa8;" horiz-adv-x="819" d="M66 1366q0 55 38.5 94t96.5 39q55 0 94 -39t39 -94q0 -57 -39 -96t-94 -39q-60 0 -97 39q-39 37 -38 96zM475 1366q0 55 39 94t96 39q55 0 94 -39t39 -94q0 -57 -38.5 -96t-94.5 -39q-59 0 -96 39q-39 37 -39 96z" />
<glyph unicode="&#xa9;" horiz-adv-x="1701" d="M98 731q0 156 59.5 293t162 239.5t239.5 162t293 59.5q154 0 291 -60.5t239.5 -163t162 -239.5t59.5 -291t-59.5 -290t-161 -238.5t-238.5 -162.5t-293 -60t-293 59t-239.5 161.5t-162 238.5t-59.5 292zM221 731q0 -131 49 -245.5t135.5 -200.5t201 -135.5t245.5 -49.5 q129 0 243.5 50.5t200.5 136.5t136.5 200.5t50.5 243.5q0 131 -50.5 247t-136.5 202t-200.5 135t-243.5 49q-131 0 -245.5 -49t-201 -135t-135.5 -202t-49 -247zM446 731q0 217 112 333t335 116q131 0 231 -47v-228h-71l-54 172q-31 4 -53 6t-39 2q-291 0 -291 -354 q0 -352 287 -352q25 0 43.5 1t32.5 3l92 186h68l-31 -227q-115 -59 -236 -59q-209 0 -317.5 115.5t-108.5 332.5z" />
<glyph unicode="&#xaa;" horiz-adv-x="802" d="M86 981q0 215 385 215v43q0 84 -25.5 123t-95.5 39l-137 -137q-31 16 -58.5 60t-31.5 83q109 57 250 57q268 0 268 -213v-340h84v-45q-51 -59 -133 -59q-74 0 -115 65q-74 -66 -182 -65q-80 0 -144.5 44t-64.5 130zM262 985q0 -37 26.5 -62.5t73.5 -25.5q68 0 109 45v186 q-86 -2 -147.5 -35.5t-61.5 -107.5z" />
<glyph unicode="&#xab;" horiz-adv-x="976" d="M98 520v66l314 356h112l-186 -389l186 -389h-112zM500 524v58l241 321h101l-125 -350l125 -350h-101z" />
<glyph unicode="&#xac;" horiz-adv-x="1140" d="M113 668v133h878v-549h-133v416h-745z" />
<glyph unicode="&#xad;" horiz-adv-x="823" d="M145 649v164h533v-164h-533z" />
<glyph unicode="&#xae;" horiz-adv-x="1701" d="M98 731q0 156 59.5 293t162 239.5t239.5 162t293 59.5q154 0 291 -60.5t239.5 -163t162 -239.5t59.5 -291t-59.5 -290t-161 -238.5t-238.5 -162.5t-293 -60t-293 59t-239.5 161.5t-162 238.5t-59.5 292zM219 731q0 -129 49 -243.5t135 -200.5t202 -136.5t247 -50.5 t245.5 50.5t199.5 136.5t134.5 200.5t49.5 243.5t-50.5 245t-135.5 202t-199.5 136t-243.5 50q-131 0 -245.5 -50t-201 -136t-136.5 -201t-50 -246zM465 307v58l115 26v692l-115 27v57h348q342 0 342 -237q0 -92 -53 -151.5t-146 -78.5l191 -311l108 -27v-55h-231l-213 379 h-82v-295l115 -26v-58h-379zM729 762h72q92 0 145 44t53 124q0 78 -53 119t-145 41h-72v-328z" />
<glyph unicode="&#xaf;" horiz-adv-x="940" d="M0 1303v131h940v-131h-940z" />
<glyph unicode="&#xb0;" horiz-adv-x="755" d="M78 1247q0 123 87 211t212 88q123 0 212 -89t89 -210q0 -125 -89 -213t-212 -88q-125 0 -212 88t-87 213zM207 1247q0 -70 50 -121t120 -51t121 51t51 121t-51.5 120t-120.5 50q-70 0 -120 -50t-50 -120z" />
<glyph unicode="&#xb1;" horiz-adv-x="1140" d="M111 0v137h919v-137h-919zM111 662v137h378v399h138v-399h403v-137h-403v-402h-138v402h-378z" />
<glyph unicode="&#xb2;" horiz-adv-x="786" d="M94 584v73q43 37 90 88.5t116 136.5t113 185t44 188q0 129 -117 129l-127 -157q-39 20 -68.5 68t-33.5 96q127 63 282 63q106 0 177 -48t71 -155q0 -236 -358 -526h284l62 125h61l-37 -266h-559z" />
<glyph unicode="&#xb3;" horiz-adv-x="786" d="M78 616l28 74q96 -37 201 -37q94 0 152.5 46t58.5 122q0 82 -67.5 128t-196.5 46v76q100 0 159.5 55.5t59.5 126.5q0 53 -39 91t-104 47l-121 -150q-33 23 -62.5 68t-31.5 86q100 59 247 59q145 0 219 -55.5t74 -143.5q0 -68 -52 -123t-146 -83q123 -18 184 -79t61 -149 q0 -125 -101 -190.5t-259 -65.5q-139 0 -264 51z" />
<glyph unicode="&#xb4;" horiz-adv-x="479" d="M37 1204l213 373q119 -20 190 -109l-315 -323z" />
<glyph unicode="&#xb6;" horiz-adv-x="1306" d="M74 1192q0 365 461 364h667v-88l-174 -41v-1656h-147v1646h-183v-1646h-147v1020q-477 -7 -477 401z" />
<glyph unicode="&#xb7;" horiz-adv-x="528" d="M106 612q0 68 49.5 113t108.5 45t108.5 -45t49.5 -113q0 -70 -49 -113.5t-109 -43.5q-57 0 -107.5 43.5t-50.5 113.5z" />
<glyph unicode="&#xb8;" horiz-adv-x="702" d="M123 -354q78 -16 127 -17q59 0 93 30t34 81q0 109 -150 119l43 159h109l-23 -88q102 -4 158.5 -55t56.5 -133q0 -109 -76.5 -171.5t-213.5 -62.5q-49 0 -158 23v115z" />
<glyph unicode="&#xb9;" horiz-adv-x="630" d="M88 1311l270 143h84v-784l107 -25v-61h-434v61l147 25v649l-156 -68z" />
<glyph unicode="&#xba;" horiz-adv-x="798" d="M82 1139q0 70 21.5 130t62.5 103t100.5 67.5t132.5 24.5q74 0 133.5 -24.5t100.5 -67.5t62.5 -103.5t21.5 -129.5q0 -72 -21.5 -132.5t-62.5 -105.5t-100.5 -69.5t-133.5 -24.5t-133 24.5t-100 69.5t-62.5 105.5t-21.5 132.5zM258 1139q0 -117 36 -188.5t105 -71.5 q70 0 107 71.5t37 188.5t-37 186.5t-107 69.5t-105.5 -69.5t-35.5 -186.5z" />
<glyph unicode="&#xbb;" horiz-adv-x="976" d="M135 203l125 350l-125 350h101l241 -321v-58l-241 -321h-101zM453 164l186 389l-186 389h112l314 -356v-66l-314 -356h-112z" />
<glyph unicode="&#xbc;" horiz-adv-x="1572" d="M88 1311l270 143h84v-784l107 -25v-61h-434v61l147 25v649l-156 -68zM391 0l731 1464h144l-729 -1464h-146zM801 176v69l485 625h99v-598h100v-96h-100v-174h-164v174h-420zM946 272h273v348z" />
<glyph unicode="&#xbd;" horiz-adv-x="1714" d="M88 1311l270 143h84v-784l107 -25v-61h-434v61l147 25v649l-156 -68zM393 0l731 1464h144l-729 -1464h-146zM1032 0v73q43 37 90 88.5t116 136.5t113 185t44 188q0 129 -117 129l-127 -157q-39 20 -68.5 68t-33.5 96q127 63 282 63q106 0 177 -48t71 -155 q0 -236 -358 -526h284l62 125h61l-37 -266h-559z" />
<glyph unicode="&#xbe;" horiz-adv-x="1679" d="M82 616l28 74q96 -37 201 -37q94 0 152.5 46t58.5 122q0 82 -67.5 128t-196.5 46v76q100 0 159.5 55.5t59.5 126.5q0 53 -39 91t-104 47l-121 -150q-33 23 -62.5 68t-31.5 86q100 59 247 59q145 0 219 -55.5t74 -143.5q0 -68 -52 -123t-146 -83q123 -18 184 -79t61 -149 q0 -125 -101 -190.5t-259 -65.5q-139 0 -264 51zM497 0l731 1464h144l-729 -1464h-146zM905 176v69l485 625h99v-598h100v-96h-100v-174h-164v174h-420zM1050 272h273v348z" />
<glyph unicode="&#xbf;" horiz-adv-x="985" d="M94 -90q0 80 26.5 149.5t91 140t116 115.5t153.5 125l31 191h104l31 -250q-137 -129 -215 -245t-78 -234q0 -113 62.5 -174.5t166.5 -61.5l242 191q86 -74 96 -199q-84 -45 -192.5 -71.5t-216.5 -26.5q-201 0 -309.5 93t-108.5 257zM428 915q0 55 41 97.5t96 42.5 q57 0 98 -42.5t41 -97.5q0 -57 -41 -98t-98 -41t-97 41t-40 98z" />
<glyph unicode="&#xc0;" horiz-adv-x="1468" d="M-20 0v94l192 45l498 1305h147l467 -1307l189 -43v-94h-603v94l152 35l-98 277h-502l-107 -271l181 -41v-94h-516zM395 1692q27 53 73 98t97 61l324 -280l-55 -66zM467 526h412l-201 559z" />
<glyph unicode="&#xc1;" horiz-adv-x="1468" d="M-20 0v94l192 45l498 1305h147l467 -1307l189 -43v-94h-603v94l152 35l-98 277h-502l-107 -271l181 -41v-94h-516zM467 526h412l-201 559zM536 1571l324 280q102 -35 170 -159l-438 -187z" />
<glyph unicode="&#xc2;" horiz-adv-x="1468" d="M-20 0v94l192 45l498 1305h147l467 -1307l189 -43v-94h-603v94l152 35l-98 277h-502l-107 -271l181 -41v-94h-516zM374 1553l277 299h172l266 -299l-102 -47l-250 188l-268 -190zM467 526h412l-201 559z" />
<glyph unicode="&#xc3;" horiz-adv-x="1468" d="M-20 0v94l192 45l498 1305h147l467 -1307l189 -43v-94h-603v94l152 35l-98 277h-502l-107 -271l181 -41v-94h-516zM364 1668q57 90 113.5 135t140.5 51q74 0 151 -58.5t130 -58.5q63 0 162 86l61 -59q-33 -72 -100.5 -131.5t-151.5 -59.5q-59 0 -134 58.5t-148 58.5 q-53 0 -160 -86zM467 526h412l-201 559z" />
<glyph unicode="&#xc4;" horiz-adv-x="1468" d="M-20 0v94l192 45l498 1305h147l467 -1307l189 -43v-94h-603v94l152 35l-98 277h-502l-107 -271l181 -41v-94h-516zM385 1686q0 57 39 95t94 38t94 -39t39 -94q0 -57 -39 -96t-94 -39t-94 38.5t-39 96.5zM467 526h412l-201 559zM823 1686q0 55 39 94t96 39q55 0 94.5 -39 t39.5 -94q0 -57 -39 -96t-95 -39q-55 0 -95 38.5t-40 96.5z" />
<glyph unicode="&#xc5;" horiz-adv-x="1470" d="M-18 0v94l192 45l467 1227q-27 14 -53 39q-66 66 -66 160t67.5 158.5t155.5 64.5t156 -64.5t68 -158.5t-68 -160q-27 -25 -55 -39l440 -1229l189 -43v-94h-603v94l152 35l-98 277h-502l-107 -271l181 -41v-94h-516zM469 526h412l-201 559zM633 1565q0 -47 32.5 -80 t79.5 -33t80 33t33 80q0 45 -33.5 78.5t-79.5 33.5q-45 0 -78.5 -33.5t-33.5 -78.5z" />
<glyph unicode="&#xc6;" horiz-adv-x="2129" d="M-23 0v94l189 45l926 1295h888v-420h-94l-88 282h-455v-512l453 41v-182l-453 39v-545h455l150 305h94l-62 -442h-1077v94l189 45v346h-506l-248 -348l182 -43v-94h-543zM678 616h414v580z" />
<glyph unicode="&#xc7;" horiz-adv-x="1374" d="M104 717q0 362 185.5 554.5t556.5 192.5q238 0 399 -71v-387h-94l-94 303q-80 18 -185 18q-510 0 -510 -610t469 -611q70 0 125.5 4.5t100.5 12.5l119 323h94l-15 -387q-29 -16 -82 -32.5t-115.5 -28.5t-129.5 -21q-49 -6 -90 -8l-21 -80q102 -4 158.5 -55t56.5 -133 q0 -109 -76.5 -171t-214.5 -62q-49 0 -157 22v115q78 -16 127 -17q59 0 93 30t34 81q0 109 -150 119l41 155q-289 18 -446 189q-178 193 -179 555z" />
<glyph unicode="&#xc8;" horiz-adv-x="1312" d="M90 0v94l189 45v1155l-189 45v95h1067v-420h-96l-88 282l-443 17v-527l443 39v-182l-443 37v-559l482 16l104 305h96l-16 -442h-1106zM335 1692q27 53 73 98t97 61l324 -280l-55 -66z" />
<glyph unicode="&#xc9;" horiz-adv-x="1312" d="M90 0v94l189 45v1155l-189 45v95h1067v-420h-96l-88 282l-443 17v-527l443 39v-182l-443 37v-559l482 16l104 305h96l-16 -442h-1106zM536 1571l324 280q102 -35 170 -159l-438 -187z" />
<glyph unicode="&#xca;" horiz-adv-x="1312" d="M90 0v94l189 45v1155l-189 45v95h1067v-420h-96l-88 282l-443 17v-527l443 39v-182l-443 37v-559l482 16l104 305h96l-16 -442h-1106zM333 1571l277 299h172l266 -299l-102 -47l-250 188l-268 -190z" />
<glyph unicode="&#xcb;" horiz-adv-x="1312" d="M90 0v94l189 45v1155l-189 45v95h1067v-420h-96l-88 282l-443 17v-527l443 39v-182l-443 37v-559l482 16l104 305h96l-16 -442h-1106zM365 1694q0 57 39 95t94 38t94 -39t39 -94q0 -57 -39 -96t-94 -39t-94 38.5t-39 96.5zM803 1694q0 55 39 94t96 39q55 0 94.5 -39 t39.5 -94q0 -57 -39 -96t-95 -39q-55 0 -95 38.5t-40 96.5z" />
<glyph unicode="&#xcc;" horiz-adv-x="808" d="M-3 1692q27 53 73 98t97 61l324 -280l-55 -66zM90 0v94l191 45v1155l-191 45v95h629v-95l-189 -45v-1155l189 -45v-94h-629z" />
<glyph unicode="&#xcd;" horiz-adv-x="808" d="M90 0v94l191 45v1155l-191 45v95h629v-95l-189 -45v-1155l189 -45v-94h-629zM268 1571l324 280q102 -35 170 -159l-438 -187z" />
<glyph unicode="&#xce;" horiz-adv-x="808" d="M47 1571l277 299h172l266 -299l-102 -47l-250 188l-268 -190zM90 0v94l191 45v1155l-191 45v95h629v-95l-189 -45v-1155l189 -45v-94h-629z" />
<glyph unicode="&#xcf;" horiz-adv-x="808" d="M68 1694q0 57 39 95t94 38t94 -39t39 -94q0 -57 -39 -96t-94 -39t-94 38.5t-39 96.5zM90 0v94l191 45v1155l-191 45v95h629v-95l-189 -45v-1155l189 -45v-94h-629zM506 1694q0 55 39 94t96 39q55 0 94.5 -39t39.5 -94q0 -57 -39 -96t-95 -39q-55 0 -95 38.5t-40 96.5z " />
<glyph unicode="&#xd0;" horiz-adv-x="1533" d="M90 0v94l189 45v535h-189v94h189v526l-189 45v95h533q186 0 336.5 -45.5t255 -135.5t161 -224t56.5 -312t-56.5 -313.5t-161 -224.5t-254 -134t-337.5 -45h-533zM530 137h82q111 0 212.5 30t179 98.5t124 179t46.5 272.5t-46.5 272.5t-124 179t-179 98t-212.5 29.5h-82 v-528h314v-94h-314v-537z" />
<glyph unicode="&#xd1;" horiz-adv-x="1683" d="M90 0v94l189 45v1155l-189 45v95h332l854 -1014v874l-189 45v95h527v-95l-189 -45v-1294h-122l-881 1038v-899l188 -45v-94h-520zM460 1657q57 90 113.5 135t140.5 51q74 0 151 -58.5t130 -58.5q63 0 162 86l61 -59q-33 -72 -100.5 -131.5t-151.5 -59.5q-59 0 -134 58.5 t-148 58.5q-53 0 -160 -86z" />
<glyph unicode="&#xd2;" horiz-adv-x="1579" d="M104 723q0 154 41 288t125 235.5t214.5 159.5t306.5 58q166 0 292.5 -55t214.5 -153.5t133.5 -235.5t45.5 -301q0 -166 -44 -303t-131.5 -236.5t-215.5 -155t-295 -55.5q-178 0 -308.5 59.5t-214.5 161t-124 238.5t-40 295zM367 717q0 -293 113.5 -460t310.5 -167 t310 167t113 460q0 276 -107 451t-316 175t-316.5 -175t-107.5 -451zM503 1692q27 53 73 98t97 61l324 -280l-55 -66z" />
<glyph unicode="&#xd3;" horiz-adv-x="1579" d="M104 723q0 154 41 288t125 235.5t214.5 159.5t306.5 58q166 0 292.5 -55t214.5 -153.5t133.5 -235.5t45.5 -301q0 -166 -44 -303t-131.5 -236.5t-215.5 -155t-295 -55.5q-178 0 -308.5 59.5t-214.5 161t-124 238.5t-40 295zM367 717q0 -293 113.5 -460t310.5 -167 t310 167t113 460q0 276 -107 451t-316 175t-316.5 -175t-107.5 -451zM643 1571l324 280q102 -35 170 -159l-438 -187z" />
<glyph unicode="&#xd4;" horiz-adv-x="1579" d="M104 723q0 154 41 288t125 235.5t214.5 159.5t306.5 58q166 0 292.5 -55t214.5 -153.5t133.5 -235.5t45.5 -301q0 -166 -44 -303t-131.5 -236.5t-215.5 -155t-295 -55.5q-178 0 -308.5 59.5t-214.5 161t-124 238.5t-40 295zM367 717q0 -293 113.5 -460t310.5 -167 t310 167t113 460q0 276 -107 451t-316 175t-316.5 -175t-107.5 -451zM432 1571l277 299h172l266 -299l-102 -47l-250 188l-268 -190z" />
<glyph unicode="&#xd5;" horiz-adv-x="1579" d="M104 723q0 154 41 288t125 235.5t214.5 159.5t306.5 58q166 0 292.5 -55t214.5 -153.5t133.5 -235.5t45.5 -301q0 -166 -44 -303t-131.5 -236.5t-215.5 -155t-295 -55.5q-178 0 -308.5 59.5t-214.5 161t-124 238.5t-40 295zM367 717q0 -293 113.5 -460t310.5 -167 t310 167t113 460q0 276 -107 451t-316 175t-316.5 -175t-107.5 -451zM411 1686q57 90 113.5 135t140.5 51q74 0 151 -58.5t130 -58.5q63 0 162 86l61 -59q-33 -72 -100.5 -131.5t-151.5 -59.5q-59 0 -134 58.5t-148 58.5q-53 0 -160 -86z" />
<glyph unicode="&#xd6;" horiz-adv-x="1579" d="M104 723q0 154 41 288t125 235.5t214.5 159.5t306.5 58q166 0 292.5 -55t214.5 -153.5t133.5 -235.5t45.5 -301q0 -166 -44 -303t-131.5 -236.5t-215.5 -155t-295 -55.5q-178 0 -308.5 59.5t-214.5 161t-124 238.5t-40 295zM367 717q0 -293 113.5 -460t310.5 -167 t310 167t113 460q0 276 -107 451t-316 175t-316.5 -175t-107.5 -451zM453 1694q0 57 39 95t94 38t94 -39t39 -94q0 -57 -39 -96t-94 -39t-94 38.5t-39 96.5zM891 1694q0 55 39 94t96 39q55 0 94.5 -39t39.5 -94q0 -57 -39 -96t-95 -39q-55 0 -95 38.5t-40 96.5z" />
<glyph unicode="&#xd7;" horiz-adv-x="1124" d="M121 389l344 342l-344 344l98 96l342 -342l346 345l97 -99l-345 -344l345 -344l-97 -96l-344 344l-344 -342z" />
<glyph unicode="&#xd8;" horiz-adv-x="1579" d="M104 717q0 158 41 291t123 236.5t216 161.5t307 58q164 0 288 -53l56 102h131l-84 -155q145 -94 220 -263t75 -378q0 -328 -174.5 -538t-511.5 -210q-170 0 -308 58l-55 -109h-133l86 168q-137 96 -207 261t-70 370zM367 717q0 -283 110 -451l531 1010q-94 68 -217 67 q-209 0 -316.5 -175t-107.5 -451zM559 170q92 -80 232 -80q209 0 316 175t107 452q0 295 -122 471z" />
<glyph unicode="&#xd9;" horiz-adv-x="1617" d="M45 1339v95h629v-95l-189 -45v-757q0 -205 101.5 -307.5t273.5 -102.5q170 0 274.5 103.5t104.5 306.5v757l-190 45v95h524v-95l-189 -45v-757q0 -135 -42 -242t-117.5 -178.5t-181 -109.5t-230.5 -38q-127 0 -233.5 37t-183.5 109.5t-120 178t-43 243.5v757zM446 1692 q27 53 73 98t97 61l324 -280l-55 -66z" />
<glyph unicode="&#xda;" horiz-adv-x="1617" d="M45 1339v95h629v-95l-189 -45v-757q0 -205 101.5 -307.5t273.5 -102.5q170 0 274.5 103.5t104.5 306.5v757l-190 45v95h524v-95l-189 -45v-757q0 -135 -42 -242t-117.5 -178.5t-181 -109.5t-230.5 -38q-127 0 -233.5 37t-183.5 109.5t-120 178t-43 243.5v757zM708 1571 l324 280q102 -35 170 -159l-438 -187z" />
<glyph unicode="&#xdb;" horiz-adv-x="1617" d="M45 1339v95h629v-95l-189 -45v-757q0 -205 101.5 -307.5t273.5 -102.5q170 0 274.5 103.5t104.5 306.5v757l-190 45v95h524v-95l-189 -45v-757q0 -135 -42 -242t-117.5 -178.5t-181 -109.5t-230.5 -38q-127 0 -233.5 37t-183.5 109.5t-120 178t-43 243.5v757zM505 1571 l277 299h172l266 -299l-102 -47l-250 188l-268 -190z" />
<glyph unicode="&#xdc;" horiz-adv-x="1617" d="M45 1339v95h629v-95l-189 -45v-757q0 -205 101.5 -307.5t273.5 -102.5q170 0 274.5 103.5t104.5 306.5v757l-190 45v95h524v-95l-189 -45v-757q0 -135 -42 -242t-117.5 -178.5t-181 -109.5t-230.5 -38q-127 0 -233.5 37t-183.5 109.5t-120 178t-43 243.5v757zM516 1694 q0 57 39 95t94 38t94 -39t39 -94q0 -57 -39 -96t-94 -39t-94 38.5t-39 96.5zM954 1694q0 55 39 94t96 39q55 0 94.5 -39t39.5 -94q0 -57 -39 -96t-95 -39q-55 0 -95 38.5t-40 96.5z" />
<glyph unicode="&#xdd;" horiz-adv-x="1423" d="M-18 1339v95h589v-95l-133 -26l338 -498l303 483l-151 41v95h502v-95l-189 -45l-397 -632v-523l188 -45v-94h-629v94l189 45v516l-445 643zM579 1571l324 280q102 -35 170 -159l-438 -187z" />
<glyph unicode="&#xde;" horiz-adv-x="1298" d="M90 0v94l189 45v1155l-189 45v95h629v-95l-189 -45v-176h140q569 0 569 -401q0 -406 -569 -406h-140v-172l189 -45v-94h-629zM530 434h109q154 0 248 72t94 211q0 272 -342 272h-109v-555z" />
<glyph unicode="&#xdf;" horiz-adv-x="1361" d="M43 0v88l174 41v973q0 207 117 330.5t344 123.5q236 0 357.5 -123.5t121.5 -330.5v-148h-196q-190 0 -191 -141q0 -61 52 -105t163 -90q154 -61 238 -142t84 -212q0 -139 -114 -217t-296 -78q-154 0 -307 47v293h94l86 -223q41 -4 55 -4q248 0 248 160q0 37 -14.5 65.5 t-56 54t-70.5 40t-103 44.5q-260 106 -260 326q0 133 94.5 212t249.5 79v49q0 332 -219 332q-104 0 -168.5 -83t-64.5 -259v-1102h-418z" />
<glyph unicode="&#xe0;" horiz-adv-x="1130" d="M72 254q0 354 628 354v72q0 178 -50 226t-156 48l-240 -204q-49 31 -83 87t-36 119q86 47 188.5 73t202.5 26q420 0 420 -353v-569h160v-67q-47 -45 -104.5 -71t-112.5 -26q-121 0 -178 105q-137 -104 -310 -105q-135 0 -232 72t-97 213zM213 1466q72 88 192 109 l207 -365l-86 -59zM330 262q0 -76 50 -112.5t128 -36.5q113 0 192 69v322q-184 0 -277 -66.5t-93 -175.5z" />
<glyph unicode="&#xe1;" horiz-adv-x="1130" d="M72 254q0 354 628 354v72q0 178 -50 226t-156 48l-240 -204q-49 31 -83 87t-36 119q86 47 188.5 73t202.5 26q420 0 420 -353v-569h160v-67q-47 -45 -104.5 -71t-112.5 -26q-121 0 -178 105q-137 -104 -310 -105q-135 0 -232 72t-97 213zM330 262q0 -76 50 -112.5 t128 -36.5q113 0 192 69v322q-184 0 -277 -66.5t-93 -175.5zM469 1204l213 373q119 -20 190 -109l-315 -323z" />
<glyph unicode="&#xe2;" horiz-adv-x="1130" d="M72 254q0 354 628 354v72q0 178 -50 226t-156 48l-240 -204q-49 31 -83 87t-36 119q86 47 188.5 73t202.5 26q420 0 420 -353v-569h160v-67q-47 -45 -104.5 -71t-112.5 -26q-121 0 -178 105q-137 -104 -310 -105q-135 0 -232 72t-97 213zM230 1190l235 379h172l240 -379 l-94 -49l-232 260l-229 -260zM330 262q0 -76 50 -112.5t128 -36.5q113 0 192 69v322q-184 0 -277 -66.5t-93 -175.5z" />
<glyph unicode="&#xe3;" horiz-adv-x="1130" d="M72 254q0 354 628 354v72q0 178 -50 226t-156 48l-240 -204q-49 31 -83 87t-36 119q86 47 188.5 73t202.5 26q420 0 420 -353v-569h160v-67q-47 -45 -104.5 -71t-112.5 -26q-121 0 -178 105q-137 -104 -310 -105q-135 0 -232 72t-97 213zM168 1317q59 84 132.5 134 t141.5 50q82 0 146.5 -55t121.5 -55q86 0 183 82l63 -56q-55 -86 -127 -135t-145 -49q-82 0 -148.5 55t-122.5 55q-72 0 -182 -83zM330 262q0 -76 50 -112.5t128 -36.5q113 0 192 69v322q-184 0 -277 -66.5t-93 -175.5z" />
<glyph unicode="&#xe4;" horiz-adv-x="1130" d="M72 254q0 354 628 354v72q0 178 -50 226t-156 48l-240 -204q-49 31 -83 87t-36 119q86 47 188.5 73t202.5 26q420 0 420 -353v-569h160v-67q-47 -45 -104.5 -71t-112.5 -26q-121 0 -178 105q-137 -104 -310 -105q-135 0 -232 72t-97 213zM224 1366q0 55 38.5 94t96.5 39 q55 0 94 -39t39 -94q0 -57 -39 -96t-94 -39q-60 0 -97 39q-39 37 -38 96zM330 262q0 -76 50 -112.5t128 -36.5q113 0 192 69v322q-184 0 -277 -66.5t-93 -175.5zM633 1366q0 55 39 94t96 39q55 0 94 -39t39 -94q0 -57 -38.5 -96t-94.5 -39q-59 0 -96 39q-39 37 -39 96z" />
<glyph unicode="&#xe5;" horiz-adv-x="1130" d="M72 254q0 354 628 354v72q0 178 -50 226t-156 48l-240 -204q-49 31 -83 87t-36 119q86 47 188.5 73t202.5 26q420 0 420 -353v-569h160v-67q-47 -45 -104.5 -71t-112.5 -26q-121 0 -178 105q-137 -104 -310 -105q-135 0 -232 72t-97 213zM330 262q0 -76 50 -112.5 t128 -36.5q113 0 192 69v322q-184 0 -277 -66.5t-93 -175.5zM350 1374q0 94 67.5 158.5t155.5 64.5t155.5 -64.5t67.5 -158.5t-67.5 -158.5t-155.5 -64.5q-90 0 -156.5 64.5t-66.5 158.5zM461 1374q0 -47 32.5 -79.5t79.5 -32.5t80 32.5t33 79.5q0 45 -34 79t-79 34 t-78.5 -34t-33.5 -79z" />
<glyph unicode="&#xe6;" horiz-adv-x="1705" d="M70 254q0 354 624 354v72q0 141 -42 209.5t-173 68.5l-229 -208q-45 37 -76 94t-33 112q16 10 47 26.5t128.5 44.5t195.5 28q252 0 348 -135q131 135 330 135q229 0 334.5 -153.5t105.5 -395.5h-690q12 -172 110.5 -288t268.5 -116q109 0 235 48l31 -97 q-190 -84 -358 -84q-119 0 -242 49.5t-192 161.5l-17 -22q-10 -14 -47 -51t-80 -65t-113.5 -50.5t-148.5 -22.5q-129 0 -223 72t-94 213zM328 262q0 -70 39 -113t106 -43q133 0 213 119l8 13v266q-182 0 -274 -70t-92 -172zM940 600l438 29q-4 82 -19.5 146.5t-59.5 114.5 t-111 52q-109 0 -173.5 -97.5t-74.5 -244.5z" />
<glyph unicode="&#xe7;" horiz-adv-x="1003" d="M88 508q0 244 148.5 395.5t359.5 151.5q182 0 328 -86q-2 -70 -41 -128.5t-88 -84.5l-197 186h-12q-104 -18 -176 -132t-72 -298q0 -211 97 -309.5t257 -98.5q125 0 230 58l34 -101q-172 -92 -350 -92h-14l-10 -39q102 -4 158.5 -55t56.5 -133q0 -109 -77 -171.5 t-214 -62.5q-49 0 -158 23v115q78 -16 127 -17q59 0 93 30t34 81q0 109 -149 119l32 123q-143 29 -249 129q-147 143 -148 397z" />
<glyph unicode="&#xe8;" horiz-adv-x="1097" d="M86 524q0 225 129 378t356 153q119 0 208 -44t141.5 -122t77 -174.5t24.5 -208.5h-692q14 -168 112.5 -286t268.5 -118q109 0 235 48l35 -97q-190 -84 -363 -84q-248 0 -390 162t-142 393zM272 1466q72 88 192 109l207 -365l-86 -59zM330 606l438 33q-6 123 -57.5 213 t-145.5 90q-102 0 -166.5 -96.5t-68.5 -239.5z" />
<glyph unicode="&#xe9;" horiz-adv-x="1097" d="M86 524q0 225 129 378t356 153q119 0 208 -44t141.5 -122t77 -174.5t24.5 -208.5h-692q14 -168 112.5 -286t268.5 -118q109 0 235 48l35 -97q-190 -84 -363 -84q-248 0 -390 162t-142 393zM330 606l438 33q-6 123 -57.5 213t-145.5 90q-102 0 -166.5 -96.5t-68.5 -239.5z M529 1204l213 373q119 -20 190 -109l-315 -323z" />
<glyph unicode="&#xea;" horiz-adv-x="1097" d="M86 524q0 225 129 378t356 153q119 0 208 -44t141.5 -122t77 -174.5t24.5 -208.5h-692q14 -168 112.5 -286t268.5 -118q109 0 235 48l35 -97q-190 -84 -363 -84q-248 0 -390 162t-142 393zM250 1190l235 379h172l240 -379l-94 -49l-232 260l-229 -260zM330 606l438 33 q-6 123 -57.5 213t-145.5 90q-102 0 -166.5 -96.5t-68.5 -239.5z" />
<glyph unicode="&#xeb;" horiz-adv-x="1097" d="M86 524q0 225 129 378t356 153q119 0 208 -44t141.5 -122t77 -174.5t24.5 -208.5h-692q14 -168 112.5 -286t268.5 -118q109 0 235 48l35 -97q-190 -84 -363 -84q-248 0 -390 162t-142 393zM234 1366q0 55 38.5 94t96.5 39q55 0 94 -39t39 -94q0 -57 -39 -96t-94 -39 q-60 0 -97 39q-39 37 -38 96zM330 606l438 33q-6 123 -57.5 213t-145.5 90q-102 0 -166.5 -96.5t-68.5 -239.5zM643 1366q0 55 39 94t96 39q55 0 94 -39t39 -94q0 -57 -38.5 -96t-94.5 -39q-59 0 -96 39q-39 37 -39 96z" />
<glyph unicode="&#xec;" horiz-adv-x="710" d="M21 1466q72 88 192 109l207 -365l-86 -59zM74 0v88l174 41v729h-174v88l327 78h93v-895l174 -41v-88h-594z" />
<glyph unicode="&#xed;" horiz-adv-x="710" d="M74 0v88l174 41v729h-174v88l327 78h93v-895l174 -41v-88h-594zM266 1204l213 373q119 -20 190 -109l-315 -323z" />
<glyph unicode="&#xee;" horiz-adv-x="710" d="M21 1190l235 379h172l240 -379l-94 -49l-232 260l-229 -260zM74 0v88l174 41v729h-174v88l327 78h93v-895l174 -41v-88h-594z" />
<glyph unicode="&#xef;" horiz-adv-x="710" d="M35 1366q0 55 38.5 94t96.5 39q55 0 94 -39t39 -94q0 -57 -39 -96t-94 -39q-60 0 -97 39q-39 37 -38 96zM74 0v88l174 41v729h-174v88l327 78h93v-895l174 -41v-88h-594zM444 1366q0 55 39 94t96 39q55 0 94 -39t39 -94q0 -57 -38.5 -96t-94.5 -39q-59 0 -96 39 q-39 37 -39 96z" />
<glyph unicode="&#xf0;" horiz-adv-x="1259" d="M92 492q0 209 123 348t330 139q176 0 299 -107q-31 227 -191 377l-291 -178v139l189 115q-111 70 -250 92v133q225 -23 404 -131l241 150v-142l-135 -81q311 -254 311 -711q0 -141 -26.5 -257t-86 -211t-166 -147.5t-253.5 -52.5q-254 0 -376 142.5t-122 382.5zM350 483 q0 -109 23.5 -196.5t81 -147t143.5 -59.5q262 0 262 481q0 41 -10 201q-100 74 -211 74q-129 0 -209 -86.5t-80 -266.5z" />
<glyph unicode="&#xf1;" horiz-adv-x="1366" d="M74 0v88l174 41v729h-174v88l327 78h93v-98q156 129 329 129q160 0 252 -90.5t92 -231.5v-604l174 -41v-88h-550v88l133 41v567q0 209 -179 209q-121 0 -251 -94v-682l133 -41v-88h-553zM306 1317q59 84 132.5 134t141.5 50q82 0 146.5 -55t121.5 -55q86 0 183 82l63 -56 q-55 -86 -127 -135t-145 -49q-82 0 -148.5 55t-122.5 55q-72 0 -182 -83z" />
<glyph unicode="&#xf2;" d="M86 514q0 236 148.5 388.5t373.5 152.5t372.5 -152.5t147.5 -388.5q0 -238 -147 -391.5t-373 -153.5q-225 0 -373.5 153.5t-148.5 391.5zM318 1466q72 88 192 109l207 -365l-86 -59zM344 514q0 -195 68.5 -313.5t195.5 -118.5t195.5 120t68.5 312q0 195 -68.5 311.5 t-195.5 116.5t-195.5 -116.5t-68.5 -311.5z" />
<glyph unicode="&#xf3;" d="M86 514q0 236 148.5 388.5t373.5 152.5t372.5 -152.5t147.5 -388.5q0 -238 -147 -391.5t-373 -153.5q-225 0 -373.5 153.5t-148.5 391.5zM344 514q0 -195 68.5 -313.5t195.5 -118.5t195.5 120t68.5 312q0 195 -68.5 311.5t-195.5 116.5t-195.5 -116.5t-68.5 -311.5z M555 1204l213 373q119 -20 190 -109l-315 -323z" />
<glyph unicode="&#xf4;" d="M86 514q0 236 148.5 388.5t373.5 152.5t372.5 -152.5t147.5 -388.5q0 -238 -147 -391.5t-373 -153.5q-225 0 -373.5 153.5t-148.5 391.5zM285 1190l235 379h172l240 -379l-94 -49l-232 260l-229 -260zM344 514q0 -195 68.5 -313.5t195.5 -118.5t195.5 120t68.5 312 q0 195 -68.5 311.5t-195.5 116.5t-195.5 -116.5t-68.5 -311.5z" />
<glyph unicode="&#xf5;" d="M86 514q0 236 148.5 388.5t373.5 152.5t372.5 -152.5t147.5 -388.5q0 -238 -147 -391.5t-373 -153.5q-225 0 -373.5 153.5t-148.5 391.5zM213 1317q59 84 132.5 134t141.5 50q82 0 146.5 -55t121.5 -55q86 0 183 82l63 -56q-55 -86 -127 -135t-145 -49q-82 0 -148.5 55 t-122.5 55q-72 0 -182 -83zM344 514q0 -195 68.5 -313.5t195.5 -118.5t195.5 120t68.5 312q0 195 -68.5 311.5t-195.5 116.5t-195.5 -116.5t-68.5 -311.5z" />
<glyph unicode="&#xf6;" d="M86 514q0 236 148.5 388.5t373.5 152.5t372.5 -152.5t147.5 -388.5q0 -238 -147 -391.5t-373 -153.5q-225 0 -373.5 153.5t-148.5 391.5zM269 1366q0 55 38.5 94t96.5 39q55 0 94 -39t39 -94q0 -57 -39 -96t-94 -39q-60 0 -97 39q-39 37 -38 96zM344 514 q0 -195 68.5 -313.5t195.5 -118.5t195.5 120t68.5 312q0 195 -68.5 311.5t-195.5 116.5t-195.5 -116.5t-68.5 -311.5zM678 1366q0 55 39 94t96 39q55 0 94 -39t39 -94q0 -57 -38.5 -96t-94.5 -39q-59 0 -96 39q-39 37 -39 96z" />
<glyph unicode="&#xf7;" horiz-adv-x="1112" d="M96 662v137h922v-137h-922zM418 383q0 57 41 97t98 40t97 -40t40 -97q0 -55 -41 -97t-96 -42q-57 0 -98 42t-41 97zM418 1077q0 57 41 97t98 40t97 -39.5t40 -97.5q0 -55 -41 -97t-96 -42q-57 0 -98 42t-41 97z" />
<glyph unicode="&#xf8;" d="M86 514q0 238 148.5 389.5t373.5 151.5q115 0 221 -45l84 155h115l-113 -204q213 -154 213 -447q0 -238 -147 -391.5t-373 -153.5q-113 0 -211 41l-86 -155h-116l112 204q-221 158 -221 455zM344 514q0 -176 55 -287l359 656q-63 59 -150 59q-127 0 -195.5 -116.5 t-68.5 -311.5zM465 135q59 -53 143 -53q127 0 195.5 118.5t68.5 313.5q0 162 -51 274z" />
<glyph unicode="&#xf9;" horiz-adv-x="1325" d="M27 936v88h417v-707q0 -205 177 -204q139 0 262 104v678l-133 41v88h376v-891h160v-67q-49 -43 -109.5 -70t-119.5 -27q-47 0 -83 17.5t-54.5 44t-26.5 44t-10 29.5q-162 -135 -348 -135q-164 0 -249 88t-85 234v604zM361 1466q72 88 192 109l207 -365l-86 -59z" />
<glyph unicode="&#xfa;" horiz-adv-x="1325" d="M27 936v88h417v-707q0 -205 177 -204q139 0 262 104v678l-133 41v88h376v-891h160v-67q-49 -43 -109.5 -70t-119.5 -27q-47 0 -83 17.5t-54.5 44t-26.5 44t-10 29.5q-162 -135 -348 -135q-164 0 -249 88t-85 234v604zM547 1204l213 373q119 -20 190 -109l-315 -323z" />
<glyph unicode="&#xfb;" horiz-adv-x="1325" d="M27 936v88h417v-707q0 -205 177 -204q139 0 262 104v678l-133 41v88h376v-891h160v-67q-49 -43 -109.5 -70t-119.5 -27q-47 0 -83 17.5t-54.5 44t-26.5 44t-10 29.5q-162 -135 -348 -135q-164 0 -249 88t-85 234v604zM328 1190l235 379h172l240 -379l-94 -49l-232 260 l-229 -260z" />
<glyph unicode="&#xfc;" horiz-adv-x="1325" d="M27 936v88h417v-707q0 -205 177 -204q139 0 262 104v678l-133 41v88h376v-891h160v-67q-49 -43 -109.5 -70t-119.5 -27q-47 0 -83 17.5t-54.5 44t-26.5 44t-10 29.5q-162 -135 -348 -135q-164 0 -249 88t-85 234v604zM322 1366q0 55 38.5 94t96.5 39q55 0 94 -39t39 -94 q0 -57 -39 -96t-94 -39q-60 0 -97 39q-39 37 -38 96zM731 1366q0 55 39 94t96 39q55 0 94 -39t39 -94q0 -57 -38.5 -96t-94.5 -39q-59 0 -96 39q-39 37 -39 96z" />
<glyph unicode="&#xfd;" horiz-adv-x="1230" d="M2 936v88h559v-88l-158 -31l291 -649l246 639l-164 41v88h453v-88l-162 -43l-580 -1505q-92 0 -138 26.5t-70 65.5l292 465l-430 952zM531 1204l213 373q119 -20 190 -109l-315 -323z" />
<glyph unicode="&#xfe;" horiz-adv-x="1202" d="M-14 -475l174 41v1907h-174v88l327 77h86v-667q123 84 271 84q190 0 317 -128t127 -378q0 -279 -164 -429.5t-407 -150.5q-80 0 -144 17v-420l215 -41v-88h-628v88zM399 98q55 -16 125 -16q154 0 243 117.5t89 341.5q0 172 -73.5 266t-200.5 94q-88 0 -183 -45v-758z" />
<glyph unicode="&#xff;" horiz-adv-x="1230" d="M2 936v88h559v-88l-158 -31l291 -649l246 639l-164 41v88h453v-88l-162 -43l-580 -1505q-92 0 -138 26.5t-70 65.5l292 465l-430 952zM316 1366q0 55 38.5 94t96.5 39q55 0 94 -39t39 -94q0 -57 -39 -96t-94 -39q-60 0 -97 39q-39 37 -38 96zM725 1366q0 55 39 94t96 39 q55 0 94 -39t39 -94q0 -57 -38.5 -96t-94.5 -39q-59 0 -96 39q-39 37 -39 96z" />
<glyph unicode="&#x152;" horiz-adv-x="2238" d="M104 717q0 158 41 291t123 236.5t216 161.5t307 58q266 0 430 -223v193h868v-420h-94l-86 282h-461v-512l457 41v-182l-457 39v-545h459l149 305h94l-61 -442h-868v190q-162 -221 -430 -221q-229 0 -387 102.5t-229 267.5t-71 378zM367 717q0 -133 27.5 -248t80.5 -199 t133 -132t183 -48q102 0 184 48t140.5 132t89 196t30.5 241q0 139 -29.5 255.5t-86 201.5t-139.5 132t-189 47q-104 0 -183.5 -47t-133.5 -131t-80.5 -198.5t-26.5 -249.5z" />
<glyph unicode="&#x153;" horiz-adv-x="1890" d="M86 512q0 119 39 218t107.5 172t162.5 113t207 40q250 0 397 -195q133 195 377 195q121 0 205 -45t135 -120t73.5 -174.5t22.5 -209.5h-679q8 -86 33.5 -160t71.5 -128t112.5 -85t154.5 -31q106 0 236 48l31 -97q-193 -84 -359 -84q-266 0 -407 203q-145 -203 -404 -203 q-113 0 -207 40t-162.5 113t-107.5 172t-39 218zM342 512q0 -199 65.5 -314.5t194.5 -115.5q63 0 112.5 30.5t82 87t49 136.5t16.5 176q0 199 -65.5 314.5t-194.5 115.5t-194.5 -115.5t-65.5 -314.5zM1133 604l434 35q-2 57 -14.5 111.5t-36 96.5t-59.5 67.5t-81 27.5 q-106 0 -168.5 -95.5t-74.5 -242.5z" />
<glyph unicode="&#x2c6;" horiz-adv-x="718" d="M37 1190l235 379h172l240 -379l-94 -49l-232 260l-229 -260z" />
<glyph unicode="&#x2dc;" horiz-adv-x="851" d="M23 1317q59 84 132.5 134t141.5 50q82 0 146.5 -55t121.5 -55q86 0 183 82l63 -56q-55 -86 -127 -135t-145 -49q-82 0 -148.5 55t-122.5 55q-72 0 -182 -83z" />
<glyph unicode="&#x2000;" horiz-adv-x="936" />
<glyph unicode="&#x2001;" horiz-adv-x="1872" />
<glyph unicode="&#x2002;" horiz-adv-x="936" />
<glyph unicode="&#x2003;" horiz-adv-x="1872" />
<glyph unicode="&#x2004;" horiz-adv-x="624" />
<glyph unicode="&#x2005;" horiz-adv-x="468" />
<glyph unicode="&#x2006;" horiz-adv-x="312" />
<glyph unicode="&#x2007;" horiz-adv-x="312" />
<glyph unicode="&#x2008;" horiz-adv-x="234" />
<glyph unicode="&#x2009;" horiz-adv-x="374" />
<glyph unicode="&#x200a;" horiz-adv-x="104" />
<glyph unicode="&#x2010;" horiz-adv-x="702" d="M127 481v158h448v-158h-448z" />
<glyph unicode="&#x2011;" horiz-adv-x="702" d="M127 481v158h448v-158h-448z" />
<glyph unicode="&#x2012;" horiz-adv-x="702" d="M127 481v158h448v-158h-448z" />
<glyph unicode="&#x2013;" horiz-adv-x="1343" d="M147 494v131h1045v-131h-1045z" />
<glyph unicode="&#x2014;" horiz-adv-x="2367" d="M147 494v131h2069v-131h-2069z" />
<glyph unicode="&#x2018;" horiz-adv-x="487" d="M84 1079q0 102 92 237.5t184 202.5l76 -67q-123 -129 -184 -283l135 -104q0 -68 -46 -112t-104 -44q-72 0 -112.5 43t-40.5 127z" />
<glyph unicode="&#x2019;" horiz-adv-x="491" d="M78 934q123 129 184 283l-135 104q0 68 46 112t104 44q72 0 112.5 -43t40.5 -127q0 -102 -92 -237.5t-184 -202.5z" />
<glyph unicode="&#x201a;" horiz-adv-x="487" d="M39 -287q123 129 184 283l-135 104q0 68 46 112t104 44q72 0 112.5 -43t40.5 -127q0 -102 -92 -237.5t-184 -202.5z" />
<glyph unicode="&#x201c;" horiz-adv-x="854" d="M84 1083q0 102 92 237.5t184 202.5l76 -67q-123 -129 -184 -283l135 -104q0 -68 -46 -112t-104 -44q-72 0 -112.5 43t-40.5 127zM453 1083q0 102 92 237.5t184 202.5l76 -67q-123 -129 -184 -283l135 -104q0 -68 -46 -112t-104 -44q-72 0 -112.5 43t-40.5 127z" />
<glyph unicode="&#x201d;" horiz-adv-x="862" d="M78 934q123 129 184 283l-135 104q0 68 46 112t104 44q72 0 112.5 -43t40.5 -127q0 -102 -92 -237.5t-184 -202.5zM449 934q123 129 184 283l-135 104q0 68 46 112t104 44q72 0 112.5 -43t40.5 -127q0 -102 -92 -237.5t-184 -202.5z" />
<glyph unicode="&#x201e;" horiz-adv-x="858" d="M39 -287q123 129 184 283l-135 104q0 68 46 112t104 44q72 0 112.5 -43t40.5 -127q0 -102 -92 -237.5t-184 -202.5zM408 -287q123 129 184 283l-135 104q0 68 46 112t104 44q72 0 112.5 -43t40.5 -127q0 -102 -92 -237.5t-184 -202.5z" />
<glyph unicode="&#x2022;" horiz-adv-x="905" d="M145 731q0 135 95.5 221t212.5 86t212 -88t95 -219t-95.5 -219t-211.5 -88q-113 0 -210.5 86t-97.5 221z" />
<glyph unicode="&#x202f;" horiz-adv-x="374" />
<glyph unicode="&#x2039;" horiz-adv-x="622" d="M94 520v66l334 377l92 -41l-186 -369l186 -369l-92 -41z" />
<glyph unicode="&#x203a;" horiz-adv-x="622" d="M102 184l187 369l-187 369l93 41l333 -377v-66l-333 -377z" />
<glyph unicode="&#x205f;" horiz-adv-x="468" />
<glyph unicode="&#x20ac;" horiz-adv-x="1406" d="M96 492v98l121 6q-6 59 -6 121q0 45 2 65h-117v97l125 8q80 578 672 577q205 0 377 -80v-378h-92l-95 305q-86 16 -170 16q-369 0 -432 -428l549 33l-51 -150h-508q-2 -20 -2 -65q0 -74 4 -107l459 29l-51 -147h-394q70 -385 392 -386q92 0 163 17l158 323h94l-53 -376 q-174 -100 -373 -101q-266 0 -426.5 136.5t-210.5 386.5h-135z" />
<glyph unicode="&#x25fc;" horiz-adv-x="1024" d="M0 0v1024h1024v-1024h-1024z" />
</font>
</defs>
</svg>
