<?xml version="1.0" standalone="no"?>
<!DOCTYPE svg PUBLIC "-//W3C//DTD SVG 1.1//EN" "http://www.w3.org/Graphics/SVG/1.1/DTD/svg11.dtd" >
<svg xmlns="http://www.w3.org/2000/svg">
<metadata></metadata>
<defs>
<font id="SteelfishRgRegular" horiz-adv-x="573" >
<font-face units-per-em="2048" ascent="1743" descent="-305" />
<missing-glyph horiz-adv-x="278" />
<glyph horiz-adv-x="0" />
<glyph horiz-adv-x="2048" />
<glyph horiz-adv-x="278" />
<glyph unicode=" "  horiz-adv-x="278" />
<glyph unicode="&#x09;" horiz-adv-x="278" />
<glyph unicode="&#xa0;" horiz-adv-x="278" />
<glyph unicode="!" horiz-adv-x="327" d="M82 1026v660h164v-658l-33 -702h-100zM84 0v223h160v-223h-160z" />
<glyph unicode="&#x22;" horiz-adv-x="526" d="M63 1503v183h144v-183l-31 -284h-82zM319 1503v183h144v-183l-31 -284h-82z" />
<glyph unicode="#" horiz-adv-x="808" d="M43 606v133h147l41 252h-153v133h176l92 562h113l-97 -562h173l94 562h110l-96 -562h123v-133h-143l-43 -252h147v-133h-170l-100 -606h-109l103 606h-175l-102 -606h-106l100 606h-125zM299 739h172l43 252h-174z" />
<glyph unicode="$" horiz-adv-x="585" d="M63 295v323h119v-253q0 -41 1 -65t5.5 -52t12.5 -43.5t23.5 -27t37.5 -15.5v610q-110 110 -133 139q-37 46 -51.5 97.5t-14.5 140.5v242q0 253 197 272v117h64v-117q99 -9 145.5 -75t46.5 -197v-273h-117v244q0 75 -16 114.5t-64 47.5v-596q10 -9 32.5 -27.5t36 -30 t31.5 -29.5t32 -34q40 -49 55.5 -113.5t15.5 -173.5v-225q0 -125 -49.5 -196t-148.5 -81v-124h-64v126q-197 20 -197 275zM182 1147q0 -56 19 -96.5t61 -79.5v553q-80 -14 -80 -125v-252zM319 162q78 12 78 121v221q0 87 -17 137.5t-61 91.5v-571z" />
<glyph unicode="%" horiz-adv-x="983" d="M63 0l742 1686h104l-739 -1686h-107zM66 997v576q0 143 137 143q139 0 139 -143v-576q0 -143 -139 -143q-137 0 -137 143zM160 995q0 -47 43 -47q45 0 45 47v580q0 47 -45 47q-43 0 -43 -47v-580zM639 113v575q0 143 137 143q139 0 139 -143v-575q0 -144 -139 -144 q-137 0 -137 144zM733 111q0 -48 43 -48q45 0 45 48v579q0 47 -45 47q-43 0 -43 -47v-579z" />
<glyph unicode="&#x26;" horiz-adv-x="770" d="M55 332v117q0 138 33.5 232.5t120.5 205.5q-67 185 -85 268.5t-18 167.5v102q0 147 52 211t168 64q115 0 165 -70.5t50 -199.5v-119q0 -86 -24.5 -165.5t-59 -139t-97.5 -146.5l195 -553q41 105 41 252v66h119v-72q0 -253 -92 -401q21 -17 51 -17q43 0 61 27v-146 q-39 -24 -100 -24q-69 0 -111 45q-67 -55 -188 -55q-84 0 -139.5 21t-86.5 67.5t-43 108t-12 153.5zM207 334q0 -115 30.5 -161t110.5 -46q76 0 117 35l-197 567q-36 -56 -48.5 -112.5t-12.5 -161.5v-121zM240 1315q0 -140 65 -307q111 149 111 319v86q0 137 -84 137 q-49 0 -70.5 -31t-21.5 -98v-106z" />
<glyph unicode="'" horiz-adv-x="270" d="M63 1503v183h144v-183l-31 -284h-82z" />
<glyph unicode="(" horiz-adv-x="524" d="M152 190v1305q0 184 76.5 269t234.5 85h16v-114h-16q-101 0 -150 -58.5t-49 -181.5v-1305q0 -124 48.5 -182.5t150.5 -58.5h16v-113h-16q-158 0 -234.5 85t-76.5 269z" />
<glyph unicode=")" horiz-adv-x="524" d="M152 -51h16q102 0 150.5 58.5t48.5 182.5v1305q0 123 -49 181.5t-150 58.5h-16v114h16q158 0 234.5 -85t76.5 -269v-1305q0 -184 -76.5 -269t-234.5 -85h-16v113z" />
<glyph unicode="*" horiz-adv-x="686" d="M31 1423l30 93l244 -93l-14 263h100l-14 -263l246 95l28 -95l-252 -69l164 -203l-78 -57l-145 219l-141 -219l-78 57l162 203z" />
<glyph unicode="+" horiz-adv-x="946" d="M76 801v117h340v337h116v-337h340v-117h-340v-342h-116v342h-340z" />
<glyph unicode="," horiz-adv-x="274" d="M63 45v211h148v-264q0 -115 -111 -115h-16v68h12q19 0 27 8.5t8 28.5v63h-68z" />
<glyph unicode="-" horiz-adv-x="372" d="M27 788v121h323v-121h-323z" />
<glyph unicode="." horiz-adv-x="272" d="M63 0v256h146v-256h-146z" />
<glyph unicode="/" horiz-adv-x="493" d="M12 0l353 1686h114l-352 -1686h-115z" />
<glyph unicode="0" horiz-adv-x="671" d="M63 268v1149q0 287 273 287q272 0 272 -287v-1149q0 -286 -272 -286q-273 0 -273 286zM219 264q0 -131 117 -131q119 0 119 131v1155q0 131 -119 131q-117 0 -117 -131v-1155z" />
<glyph unicode="1" horiz-adv-x="360" d="M35 1409v152h45q33 0 47 17t14 58v50h138v-1686h-154v1409h-90z" />
<glyph unicode="2" horiz-adv-x="632" d="M55 0v309q0 154 27 243t125 218q100 134 140.5 196.5t59.5 122.5t19 142v180q0 135 -111 135q-60 0 -83 -33t-23 -104v-291h-154v291q0 154 63.5 224.5t196.5 70.5q134 0 200.5 -72.5t66.5 -222.5v-188q0 -129 -44.5 -234t-142.5 -231q-85 -107 -123.5 -176t-49.5 -123.5 t-11 -147.5v-155h371v-154h-527z" />
<glyph unicode="3" horiz-adv-x="634" d="M53 266v332h158v-332q0 -131 106 -131q111 0 111 133v385q0 71 -23.5 102t-89.5 31h-79v146h88q60 0 81 31t21 102v348q0 71 -24 102t-85 31q-60 0 -83 -31t-23 -102v-297h-154v297q0 153 63 222t197 69t196 -69.5t62 -223.5v-362q0 -79 -29.5 -123.5t-90.5 -67.5 q61 -14 93 -58.5t32 -131.5v-400q0 -133 -66.5 -209.5t-196.5 -76.5q-129 0 -196.5 76.5t-67.5 207.5z" />
<glyph unicode="4" horiz-adv-x="653" d="M20 346v135l379 1205h148v-1192h82v-148h-82v-346h-144v346h-383zM160 494h243l5 794z" />
<glyph unicode="5" horiz-adv-x="647" d="M63 834l21 852h491v-158h-350l-18 -543q52 84 176 84q101 0 152 -61.5t51 -198.5v-545q0 -143 -62.5 -212.5t-195.5 -69.5q-262 0 -262 282v354h151v-354q0 -129 111 -129q56 0 82 32t26 99v545q0 119 -112 119q-98 0 -123 -103z" />
<glyph unicode="6" horiz-adv-x="653" d="M63 266v1151q0 136 67.5 211.5t197.5 75.5t193 -74.5t63 -212.5v-291h-150v291q0 129 -106 129q-52 0 -80.5 -33.5t-28.5 -95.5v-444q47 86 164 86q109 0 160 -63.5t51 -204.5v-523q0 -136 -67.5 -211t-198.5 -75q-130 0 -197.5 75t-67.5 209zM219 305q0 -85 24.5 -127.5 t84.5 -42.5q110 0 110 133v488q0 78 -25.5 115.5t-84.5 37.5q-49 0 -76.5 -26.5t-32.5 -73.5v-504z" />
<glyph unicode="7" horiz-adv-x="589" d="M29 1528v158h532v-146q-137 -306 -200 -669t-64 -871h-156q1 265 23 503t51.5 395t71 296.5t69.5 206.5t58 127h-385z" />
<glyph unicode="8" horiz-adv-x="645" d="M57 262v404q0 162 125 204q-112 44 -112 195v348q0 291 249 291q130 0 190 -73.5t60 -217.5v-348q0 -82 -28 -128t-82 -67q125 -43 125 -204v-404q0 -280 -265 -280q-262 0 -262 280zM211 264q0 -66 25.5 -97.5t82.5 -31.5q59 0 85 31.5t26 97.5v412q0 57 -26.5 83.5 t-84.5 26.5q-57 0 -82.5 -26.5t-25.5 -83.5v-412zM213 1044q0 -59 24.5 -85.5t81.5 -26.5t83 26.5t26 85.5v369q0 74 -23 103.5t-86 29.5q-62 0 -84 -29.5t-22 -103.5v-369z" />
<glyph unicode="9" horiz-adv-x="653" d="M59 920v497q0 139 66.5 213t196.5 74q132 0 199 -73.5t67 -211.5v-1151q0 -136 -67.5 -211t-198.5 -75q-124 0 -192.5 76t-68.5 210v291h152v-291q0 -63 28.5 -98t80.5 -35q110 0 110 133v469q-46 -84 -162 -84q-110 0 -160.5 63t-50.5 204zM213 928q0 -121 109 -121 q50 0 77.5 26.5t32.5 73.5v508q0 69 -26.5 100t-83.5 31q-58 0 -83.5 -29.5t-25.5 -101.5v-487z" />
<glyph unicode=":" horiz-adv-x="272" d="M63 0v256h146v-256h-146zM63 750v254h146v-254h-146z" />
<glyph unicode=";" horiz-adv-x="274" d="M63 45v211h148v-264q0 -115 -111 -115h-16v68h12q19 0 27 8.5t8 28.5v63h-68zM63 750v254h146v-254h-146z" />
<glyph unicode="&#x3c;" horiz-adv-x="946" d="M76 786v144l796 262v-119l-677 -211l677 -223v-117z" />
<glyph unicode="=" horiz-adv-x="946" d="M76 608v119h796v-119h-796zM76 991v119h796v-119h-796z" />
<glyph unicode="&#x3e;" horiz-adv-x="946" d="M76 522v117l678 223l-678 211v119l796 -262v-144z" />
<glyph unicode="?" horiz-adv-x="612" d="M49 1118v295q0 150 62.5 220.5t195.5 70.5q132 0 195 -71t63 -222v-176q0 -123 -23 -199.5t-77 -140.5q-72 -82 -88.5 -127.5t-16.5 -153.5v-231h-145v227q0 119 23 190.5t84 141.5q42 48 59 80t24 78t7 135v178q0 69 -25.5 101t-79.5 32q-56 0 -82 -32t-26 -99v-297 h-150zM215 0v256h145v-256h-145z" />
<glyph unicode="@" horiz-adv-x="1054" d="M59 299v715q0 251 110.5 361t354.5 110q232 0 340.5 -104t108.5 -328v-625q0 -97 -48.5 -159t-131.5 -62q-55 0 -97 24.5t-57 63.5q-8 -33 -42.5 -56.5t-86.5 -23.5q-81 0 -124.5 44t-43.5 149v444q0 117 43 163t125 46q43 0 74 -21t45 -57q0 28 4 68h76v-641 q4 -48 19 -74.5t58 -26.5q80 0 80 113v633q0 307 -342 307q-98 0 -165 -23t-106 -72t-56 -117t-17 -165v-690q0 -207 91.5 -293t275.5 -86q185 0 263.5 45t78.5 135q0 23 -2 33h102q6 -18 6 -45q0 -295 -467 -295q-112 0 -195 26t-146 84t-95.5 158.5t-32.5 241.5zM446 434 q0 -66 21.5 -93.5t71.5 -27.5q60 0 75 68v479q-6 46 -23 67t-52 21q-93 0 -93 -102v-412z" />
<glyph unicode="A" horiz-adv-x="686" d="M25 0l231 1686h182l219 -1686h-155l-37 283h-252l-37 -283h-151zM231 426h215q-86 704 -104 864q-49 -410 -111 -864z" />
<glyph unicode="B" horiz-adv-x="665" d="M76 0v1686h268q133 0 191.5 -68.5t58.5 -220.5v-338q0 -159 -102 -187q122 -26 122 -186v-401q0 -147 -67 -216t-203 -69h-268zM231 154h113q111 0 111 131v374q0 74 -23 105t-86 31h-115v-641zM231 932h115q55 0 79 26t24 86v355q0 71 -24 100t-81 29h-113v-596z" />
<glyph unicode="C" horiz-adv-x="632" d="M63 266v1147q0 291 269 291q125 0 185.5 -70.5t60.5 -216.5v-299h-142v297q0 69 -23.5 100t-80.5 31q-111 0 -111 -131v-1147q0 -133 111 -133q56 0 80 32t24 101v350h142v-348q0 -148 -59.5 -218t-186.5 -70q-269 0 -269 284z" />
<glyph unicode="D" horiz-adv-x="667" d="M76 0v1686h262q130 0 198 -76t68 -213v-1110q0 -141 -67 -214t-199 -73h-262zM231 154h107q111 0 111 133v1108q0 64 -28 98.5t-83 34.5h-107v-1374z" />
<glyph unicode="E" d="M76 0v1686h446v-158h-291v-592h205v-156h-205v-626h301v-154h-456z" />
<glyph unicode="F" horiz-adv-x="552" d="M76 0v1686h456v-158h-301v-600h207v-156h-207v-772h-155z" />
<glyph unicode="G" horiz-adv-x="659" d="M63 268v1147q0 139 68 214t199 75q256 0 256 -289v-297h-140v297q0 66 -27 98.5t-89 32.5q-59 0 -85 -32.5t-26 -98.5v-1147q0 -64 30.5 -98.5t78.5 -34.5q112 0 121 121v383h-130v147h279v-796h-25l-51 92q-24 -48 -79 -74t-126 -26q-254 0 -254 286z" />
<glyph unicode="H" horiz-adv-x="679" d="M76 0v1686h155v-752h218v752h155v-1686h-155v780h-218v-780h-155z" />
<glyph unicode="I" horiz-adv-x="315" d="M80 0v1686h156v-1686h-156z" />
<glyph unicode="J" horiz-adv-x="444" d="M20 2v156q41 -15 99 -15q100 0 100 131v1412h156v-1412q0 -286 -256 -286q-64 0 -99 14z" />
<glyph unicode="K" horiz-adv-x="714" d="M76 0v1686h155v-728l285 728h168l-319 -768l340 -918h-179l-295 829v-829h-155z" />
<glyph unicode="L" horiz-adv-x="552" d="M76 0v1686h155v-1532h301v-154h-456z" />
<glyph unicode="M" horiz-adv-x="923" d="M72 0v1686h209l178 -1317l178 1317h215v-1686h-145v510q0 241 4 729l-183 -1239h-137l-180 1239q4 -488 4 -729v-510h-143z" />
<glyph unicode="N" horiz-adv-x="722" d="M72 0v1686h186l258 -1235q-2 229 -2 682v553h137v-1686h-155l-291 1231q2 -250 2 -748v-483h-135z" />
<glyph unicode="O" horiz-adv-x="657" d="M63 268v1149q0 140 67 213.5t198 73.5q266 0 266 -287v-1149q0 -286 -266 -286q-131 0 -198 73t-67 213zM219 268q0 -133 109 -133q110 0 110 133v1149q0 129 -110 129q-109 0 -109 -129v-1149z" />
<glyph unicode="P" horiz-adv-x="659" d="M76 0v1686h262q148 0 218.5 -74.5t70.5 -231.5v-276q0 -157 -70 -230t-217 -73h-109v-801h-155zM231 952h109q68 0 100.5 35.5t32.5 112.5v280q0 76 -31.5 112t-103.5 36h-107v-576z" />
<glyph unicode="Q" horiz-adv-x="657" d="M63 295v1122q0 141 66.5 214t198.5 73q266 0 266 -287v-1122q0 -126 -55.5 -201t-169.5 -82q0 -37 26.5 -61.5t81.5 -24.5q77 0 117 51v-124q-43 -50 -137 -50t-144.5 60.5t-50.5 150.5q-199 34 -199 281zM219 287q0 -129 109 -129q110 0 110 129v1130q0 129 -110 129 q-109 0 -109 -129v-1130z" />
<glyph unicode="R" horiz-adv-x="677" d="M76 0v1686h256q150 0 221.5 -71t71.5 -233v-335q0 -184 -125 -248q63 -306 141 -799h-170q-62 461 -119 766q-12 -2 -37 -2h-84v-764h-155zM231 905h103q71 0 102 33t31 106v318q0 92 -28 129t-107 37h-101v-623z" />
<glyph unicode="S" horiz-adv-x="634" d="M55 260v358h150v-335q0 -148 108 -148q111 0 111 125v240q0 73 -9.5 104.5t-41.5 69.5q-38 45 -124 131t-138 149q-36 43 -46 90t-10 130v251q0 279 262 279q137 0 196.5 -67.5t59.5 -211.5v-307h-145v287q0 69 -23.5 105t-82.5 36q-57 0 -83 -29t-26 -92v-249 q0 -53 7 -79t30 -53q44 -55 130.5 -142t125.5 -132q45 -53 59.5 -108.5t14.5 -159.5v-242q0 -137 -63.5 -207.5t-199.5 -70.5q-262 0 -262 278z" />
<glyph unicode="T" horiz-adv-x="575" d="M23 1528v158h530v-158h-188v-1528h-154v1528h-188z" />
<glyph unicode="U" horiz-adv-x="667" d="M70 268v1418h155v-1418q0 -133 109 -133q108 0 108 133v1418h156v-1418q0 -286 -264 -286t-264 286z" />
<glyph unicode="V" horiz-adv-x="692" d="M25 1686h161q39 -321 93 -811t63 -607q10 113 67 593.5t101 824.5h156l-224 -1686h-209z" />
<glyph unicode="W" horiz-adv-x="1077" d="M25 1686h161q33 -292 76 -739.5t53 -586.5q11 129 60 575.5t86 750.5h155q32 -300 74.5 -747t52.5 -579q15 159 63.5 602t82.5 724h164l-213 -1686h-189q-29 242 -69 675t-50 574q-9 -133 -53 -569.5t-76 -679.5h-190z" />
<glyph unicode="X" horiz-adv-x="694" d="M10 0l246 899l-209 787h166q34 -132 78.5 -331t56.5 -274q12 72 57 270.5t80 334.5h162l-213 -783l250 -903h-168q-45 164 -103 410.5t-71 320.5q-13 -76 -70.5 -321.5t-101.5 -409.5h-160z" />
<glyph unicode="Y" horiz-adv-x="679" d="M18 1686h164q41 -158 91.5 -378.5t68.5 -316.5q19 99 71 319t95 376h151l-245 -930v-756h-158v756z" />
<glyph unicode="Z" horiz-adv-x="628" d="M51 0v156l373 1378h-358v152h514v-142l-367 -1386h367v-158h-529z" />
<glyph unicode="[" horiz-adv-x="505" d="M152 -164v2013h309v-114h-197v-1786h197v-113h-309z" />
<glyph unicode="\" horiz-adv-x="493" d="M12 1686h115l352 -1686h-114z" />
<glyph unicode="]" horiz-adv-x="505" d="M152 -51h196v1786h-196v114h309v-2013h-309v113z" />
<glyph unicode="^" horiz-adv-x="643" d="M76 1038l176 648h141l172 -648h-112l-127 521l-138 -521h-112z" />
<glyph unicode="_" horiz-adv-x="608" d="M-2 -117h612v-104h-612v104z" />
<glyph unicode="`" horiz-adv-x="563" d="M76 1673h180l231 -330h-137z" />
<glyph unicode="a" horiz-adv-x="581" d="M47 182v187q0 61 10.5 109.5t34.5 86t48.5 64t68 52t76 41t88.5 38.5v276q0 57 -20.5 84t-71.5 27q-53 0 -73 -27t-20 -84v-266h-125v268q0 125 54.5 187.5t167.5 62.5q223 0 223 -250v-893q0 -106 10 -145h-129q-8 27 -8 76q-53 -94 -152 -94q-182 0 -182 200zM184 223 q0 -104 97 -104q72 0 92 80v448q-62 -21 -99.5 -46.5t-57 -62.5t-26 -77t-6.5 -103v-135z" />
<glyph unicode="b" horiz-adv-x="620" d="M76 0v1686h141v-480q52 82 154 82q96 0 140 -54.5t44 -178.5v-811q0 -133 -50.5 -195.5t-158.5 -62.5q-115 0 -172 108q-5 -41 -22 -94h-76zM217 219q13 -40 43 -62t66 -22q47 0 68.5 25t21.5 82v802q0 51 -22 74t-68 23q-36 0 -66 -21t-43 -61v-840z" />
<glyph unicode="c" horiz-adv-x="579" d="M63 240v786q0 121 59 191.5t173 70.5q113 0 167 -69.5t54 -190.5v-274h-127v276q0 54 -24 83.5t-70 29.5q-45 0 -69.5 -31t-24.5 -84v-788q0 -56 24 -85.5t70 -29.5q94 0 94 113v280h131v-282q0 -119 -56 -186.5t-169 -67.5q-114 0 -173 69.5t-59 188.5z" />
<glyph unicode="d" horiz-adv-x="620" d="M63 223v832q0 123 45.5 178t141.5 55q98 0 153 -82v480h140v-1686h-119q-4 58 -4 94q-46 -108 -176 -108q-181 0 -181 237zM205 242q0 -58 21 -82.5t67 -24.5q35 0 65 22t45 62v842q-15 40 -45 62t-65 22q-46 0 -67 -24.5t-21 -80.5v-798z" />
<glyph unicode="e" d="M63 238v790q0 128 56.5 194t163.5 66q227 0 227 -260v-407h-315v-383q0 -113 88 -113q94 0 94 113v278h133v-278q0 -256 -227 -256q-220 0 -220 256zM195 723h182v305q0 113 -94 113q-88 0 -88 -113v-305z" />
<glyph unicode="f" horiz-adv-x="391" d="M20 1143v125h62v176q0 125 45 188.5t149 63.5q52 0 93 -13v-120q-21 6 -52 6q-50 0 -73 -30.5t-23 -98.5v-172h144v-125h-144v-1143h-139v1143h-62z" />
<glyph unicode="g" horiz-adv-x="620" d="M63 291v751q0 238 181 238q122 0 176 -109q0 35 4 97h119v-1334q0 -239 -232 -239q-127 0 -179 59.5t-52 179.5v52h127v-58q0 -110 102 -110q99 0 99 110v211q-51 -80 -160 -80q-96 0 -140.5 54.5t-44.5 177.5zM203 295q0 -54 20 -77t70 -23q38 0 69 21t46 60v771 q-15 40 -46 61.5t-69 21.5q-50 0 -70 -24.5t-20 -71.5v-739z" />
<glyph unicode="h" horiz-adv-x="618" d="M76 0v1686h141v-490q62 92 168 92q85 0 124.5 -56t39.5 -177v-1055h-141v1047q0 55 -19 78.5t-63 23.5q-33 0 -64 -20t-45 -58v-1071h-141z" />
<glyph unicode="i" horiz-adv-x="301" d="M80 0v1268h141v-1268h-141zM80 1430v256h141v-256h-141z" />
<glyph unicode="j" horiz-adv-x="333" d="M-66 -147q35 -9 74 -9q103 0 103 129v1295h141v-1295q0 -138 -60.5 -203t-183.5 -65q-34 0 -74 8v140zM111 1430v256h141v-256h-141z" />
<glyph unicode="k" horiz-adv-x="614" d="M76 0v1686h137v-965l229 547h150l-248 -561l254 -707h-156l-229 651v-651h-137z" />
<glyph unicode="l" horiz-adv-x="292" d="M76 0v1686h141v-1686h-141z" />
<glyph unicode="m" horiz-adv-x="899" d="M76 0v1268h119q6 -46 6 -94q27 53 70.5 83.5t95.5 30.5q111 0 137 -110q27 52 71 81t99 29q153 0 153 -231v-1057h-139v1055q0 50 -17 72t-55 22q-60 0 -94 -78v-1071h-141v1055q0 50 -17 72t-55 22q-28 0 -53 -20t-39 -58v-1071h-141z" />
<glyph unicode="n" horiz-adv-x="618" d="M76 0v1268h119q6 -46 6 -97q28 55 76 86t106 31q85 0 125.5 -56.5t40.5 -176.5v-1055h-141v1047q0 55 -19 78.5t-63 23.5q-33 0 -64 -20t-45 -58v-1071h-141z" />
<glyph unicode="o" horiz-adv-x="593" d="M63 233v801q0 254 234 254q115 0 174 -65t59 -189v-801q0 -122 -59 -186.5t-174 -64.5q-234 0 -234 251zM201 233q0 -56 21 -82t75 -26q55 0 75.5 27t20.5 86v792q0 57 -21 85t-75 28t-75 -28t-21 -85v-797z" />
<glyph unicode="p" horiz-adv-x="620" d="M76 -285v1553h119q6 -46 6 -97q45 109 174 109q180 0 180 -238v-829q0 -124 -43.5 -177.5t-140.5 -53.5q-103 0 -154 77v-344h-141zM217 205q13 -40 43 -61t66 -21q47 0 68.5 23.5t21.5 78.5v799q0 58 -21.5 82t-68.5 24q-36 0 -66 -21t-43 -60v-844z" />
<glyph unicode="q" horiz-adv-x="620" d="M63 213v829q0 238 181 238q124 0 176 -109q0 51 6 97h117v-1553h-140v344q-54 -77 -153 -77q-97 0 -142 53.5t-45 177.5zM205 225q0 -55 21 -78.5t67 -23.5q35 0 65.5 21t44.5 61v846q-15 40 -45 62t-65 22q-46 0 -67 -25t-21 -82v-803z" />
<glyph unicode="r" horiz-adv-x="423" d="M76 0v1268h119q6 -46 6 -92q49 104 153 104q23 0 43 -8v-158q-20 14 -63 14q-83 0 -117 -75v-1053h-141z" />
<glyph unicode="s" horiz-adv-x="569" d="M55 217v207h127v-203q0 -46 27.5 -74t69.5 -28q92 0 92 102v146q0 41 -12.5 72t-49.5 75q-29 35 -96 98t-92 93q-39 45 -52.5 89t-13.5 119v131q0 128 56.5 186t169.5 58q126 0 175.5 -57t49.5 -187v-206h-129v206q0 46 -26.5 74.5t-65.5 28.5q-92 0 -92 -103v-149 q0 -44 11.5 -70t45.5 -63q25 -27 90 -84t92 -88q47 -55 63.5 -106.5t16.5 -135.5v-137q0 -119 -58 -174t-178 -55q-221 0 -221 235z" />
<glyph unicode="t" horiz-adv-x="391" d="M20 1143v125h60v401h141v-401h144v-125h-144v-899q0 -77 27.5 -109.5t93.5 -32.5q19 0 27 2v-112q-23 -10 -66 -10q-111 0 -167 68.5t-56 193.5v899h-60z" />
<glyph unicode="u" horiz-adv-x="614" d="M70 205v1063h141v-1041q0 -56 18 -79t60 -23q35 0 64.5 19t43.5 57v1067h142v-1268h-121q-4 58 -4 92q-61 -106 -181 -106q-163 0 -163 219z" />
<glyph unicode="v" horiz-adv-x="567" d="M23 1268h141q86 -590 115 -920q25 255 127 920h135l-193 -1268h-141z" />
<glyph unicode="w" horiz-adv-x="856" d="M27 1268h133l80 -996l116 996h138l104 -996l96 996h133l-139 -1268h-170l-94 946l-107 -946h-167z" />
<glyph unicode="x" horiz-adv-x="581" d="M14 0l185 674l-160 594h147q74 -295 107 -475q35 194 106 475h142l-160 -592l186 -676h-147q-88 341 -133 573q-51 -263 -131 -573h-142z" />
<glyph unicode="y" horiz-adv-x="567" d="M23 1268h147q28 -206 65 -523.5t46 -431.5q12 121 53 437.5t72 517.5h135l-193 -1284q-12 -74 -25.5 -120t-39 -85t-66.5 -56.5t-102 -17.5q-26 0 -76 10v142q32 -11 70 -11q40 0 61 33t31 96l8 52z" />
<glyph unicode="z" horiz-adv-x="524" d="M51 0v131l289 997h-285v140h420v-131l-282 -994h280v-143h-422z" />
<glyph unicode="{" horiz-adv-x="534" d="M33 842l151 196q17 23 24 42t7 57v444q0 133 64.5 200.5t201.5 67.5h17v-114h-15q-83 0 -119 -36.5t-36 -119.5v-424q0 -66 -12 -104t-42 -76l-104 -133l104 -133q30 -39 42 -79t12 -104v-422q0 -83 36 -119t119 -36h15v-113h-17q-138 0 -202 65.5t-64 198.5v449 q0 37 -6.5 56t-24.5 42z" />
<glyph unicode="|" horiz-adv-x="395" d="M139 -164v2013h115v-2013h-115z" />
<glyph unicode="}" horiz-adv-x="534" d="M33 -51h14q83 0 119.5 36t36.5 119v422q0 64 12 104t41 79l104 133l-104 133q-30 38 -41.5 76t-11.5 104v424q0 83 -36.5 119.5t-119.5 36.5h-14v114h16q137 0 201.5 -67.5t64.5 -200.5v-444q0 -38 7 -57t24 -42l152 -196l-152 -195q-18 -23 -24.5 -42t-6.5 -56v-449 q0 -133 -64 -198.5t-202 -65.5h-16v113z" />
<glyph unicode="~" horiz-adv-x="948" d="M76 748v141q75 82 200 82q52 0 108 -16t96 -35.5t89 -35.5t88 -16q67 0 118 25t99 80v-139q-88 -82 -221 -82q-69 0 -190 51t-180 51q-120 0 -207 -106z" />
<glyph unicode="&#xa1;" horiz-adv-x="327" d="M82 0v657l33 703h100l31 -701v-659h-164zM84 1462v224h160v-224h-160z" />
<glyph unicode="&#xa2;" horiz-adv-x="575" d="M63 438v781q0 112 51 180.5t150 77.5v209h64v-209q96 -10 142 -77.5t46 -178.5v-277h-113v279q0 44 -20.5 74t-56.5 36v-1007q77 9 77 110v275h117v-277q0 -110 -47.5 -176.5t-144.5 -75.5v-182h-64v180q-98 7 -149.5 77t-51.5 181zM188 438q0 -49 21 -78t59 -34v1007 q-39 -7 -59.5 -36.5t-20.5 -73.5v-785z" />
<glyph unicode="&#xa3;" horiz-adv-x="585" d="M41 -18v141q44 64 104 72q15 154 15 372v387h-113v119h113v305q0 158 64 242t184 84q59 0 100 -14v-144q-41 15 -70 15q-70 0 -106.5 -47.5t-36.5 -133.5v-307h213v-119h-213v-387q0 -216 -27 -397q4 -1 59 -27t89 -26q78 0 119 67h8v-137q-46 -63 -140 -63 q-49 0 -123 39.5t-106 39.5q-70 0 -125 -81h-8z" />
<glyph unicode="&#xa4;" horiz-adv-x="987" d="M33 422q17 18 73 72.5t62 60.5q-84 105 -84 246q0 132 84 243l-133 130l84 86l129 -136q103 86 244 86q136 0 247 -88l125 138l86 -86l-133 -130q84 -108 84 -243q0 -134 -84 -246l135 -133l-86 -84l-129 137q-115 -84 -245 -84q-138 0 -242 84l-133 -137zM213 801 q0 -118 81 -199.5t198 -81.5t199.5 81.5t82.5 199.5q0 115 -82.5 196.5t-199.5 81.5t-198 -81t-81 -197z" />
<glyph unicode="&#xa5;" horiz-adv-x="696" d="M25 1686h168l157 -693l162 693h156l-252 -936v-115h233v-125h-233v-197h233v-125h-233v-188h-148v188h-233v125h233v197h-233v125h233v117z" />
<glyph unicode="&#xa6;" horiz-adv-x="395" d="M139 -164v846h115v-846h-115zM139 1004v845h115v-845h-115z" />
<glyph unicode="&#xa7;" horiz-adv-x="587" d="M53 647v203q0 77 32 133.5t89 79.5q-62 58 -86.5 106t-24.5 125v179q0 231 232 231q127 0 175 -62t48 -200v-195h-127v205q0 59 -21 89t-71 30t-73 -24t-23 -74v-177q0 -47 6.5 -73.5t26.5 -46.5q37 -38 105 -99t99 -96q49 -55 66.5 -96t17.5 -115v-201q0 -148 -118 -202 q63 -64 85.5 -112t22.5 -130v-178q0 -232 -231 -232q-128 0 -176 61.5t-48 200.5v195h127v-205q0 -60 21 -89.5t72 -29.5q49 0 72.5 24t23.5 75v176q0 50 -6.5 73t-26.5 46q-39 44 -108.5 105.5t-96.5 94.5q-42 49 -63 95t-21 110zM188 684q0 -44 5 -72t21.5 -53t35 -42.5 t59.5 -49.5q43 4 61.5 29.5t18.5 72.5v166q0 58 -11 92t-34 58t-78 65q-78 -8 -78 -100v-166z" />
<glyph unicode="&#xa8;" horiz-adv-x="600" d="M76 1368v256h141v-256h-141zM383 1368v256h141v-256h-141z" />
<glyph unicode="&#xa9;" horiz-adv-x="1056" d="M63 453v780q0 252 110.5 361.5t354.5 109.5t354.5 -109.5t110.5 -361.5v-780q0 -252 -110.5 -361.5t-354.5 -109.5t-354.5 109.5t-110.5 361.5zM170 438q0 -192 81.5 -273t276.5 -81q196 0 277.5 81t81.5 273v805q0 200 -80.5 279.5t-278.5 79.5q-199 0 -278.5 -79.5 t-79.5 -279.5v-805zM362 489v721q0 185 168 185q154 0 154 -183v-188h-90v188q0 80 -64 80q-65 0 -65 -82v-721q0 -79 65 -79q64 0 64 79v222h90v-219q0 -92 -36.5 -136.5t-117.5 -44.5q-168 0 -168 178z" />
<glyph unicode="&#xaa;" horiz-adv-x="444" d="M86 715v102q0 48 12 82.5t38 58t50.5 37t67.5 31.5v158q0 45 -39 45q-22 0 -29.5 -10.5t-7.5 -34.5v-146h-84v148q0 137 123 137q125 0 125 -137v-512q0 -30 6 -60h-86q-4 20 -4 39q-25 -49 -78 -49q-94 0 -94 111zM178 739q0 -43 37 -43q27 0 39 29v225q-28 -10 -44 -22 t-22.5 -32t-8 -35.5t-1.5 -49.5v-72z" />
<glyph unicode="&#xab;" horiz-adv-x="798" d="M39 606v154l321 229v-133l-245 -172l245 -180v-139zM438 606v154l322 229v-133l-246 -172l246 -180v-139z" />
<glyph unicode="&#xac;" horiz-adv-x="858" d="M41 797v149h739v-946h-145v797h-594z" />
<glyph unicode="&#xad;" horiz-adv-x="372" d="M27 788v121h323v-121h-323z" />
<glyph unicode="&#xae;" horiz-adv-x="1056" d="M63 453v780q0 252 110.5 361.5t354.5 109.5t354.5 -109.5t110.5 -361.5v-780q0 -252 -110.5 -361.5t-354.5 -109.5t-354.5 109.5t-110.5 361.5zM170 438q0 -192 81.5 -273t276.5 -81q196 0 277.5 81t81.5 273v805q0 200 -80.5 279.5t-278.5 79.5q-199 0 -278.5 -79.5 t-79.5 -279.5v-805zM365 322v1060h161q96 0 140.5 -45t44.5 -149v-211q0 -122 -76 -158q44 -210 88 -497h-111q-46 328 -73 475h-74v-475h-100zM465 891h61q84 0 84 88v197q0 56 -18 80t-66 24h-61v-389z" />
<glyph unicode="&#xaf;" horiz-adv-x="622" d="M76 1434v120h471v-120h-471z" />
<glyph unicode="&#xb0;" horiz-adv-x="624" d="M63 1415q0 122 64.5 198.5t183.5 76.5t183.5 -76.5t64.5 -198.5t-64 -195t-184 -73t-184 73t-64 195zM152 1415q0 -180 157 -180q156 0 156 180q0 182 -156 182q-77 0 -117 -47t-40 -135z" />
<glyph unicode="&#xb1;" horiz-adv-x="946" d="M76 268v117h796v-117h-796zM76 801v117h340v337h116v-337h340v-117h-340v-342h-116v342h-340z" />
<glyph unicode="&#xb2;" horiz-adv-x="378" d="M55 864v154q0 77 15 122.5t65 116.5q60 87 77 126.5t17 97.5v90q0 49 -41 49q-38 0 -38 -49v-148h-95v146q0 77 32.5 112t100.5 35q136 0 136 -147v-99q0 -113 -88 -235q-55 -76 -69.5 -116.5t-14.5 -100.5v-60h172v-94h-269z" />
<glyph unicode="&#xb3;" horiz-adv-x="380" d="M55 997v166h97v-166q0 -49 38 -49q41 0 41 49v203q0 26 -9 37.5t-32 11.5h-43v88h48q20 0 27 11.5t7 37.5v185q0 27 -8.5 38t-30.5 11q-21 0 -29.5 -11t-8.5 -38v-150h-95v150q0 76 32.5 110.5t100.5 34.5t100 -35t32 -112v-187q0 -66 -56 -90q58 -16 58 -90v-205 q0 -66 -34 -104.5t-100 -38.5t-100.5 38.5t-34.5 104.5z" />
<glyph unicode="&#xb4;" horiz-adv-x="563" d="M76 1343l229 330h182l-276 -330h-135z" />
<glyph unicode="&#xb6;" horiz-adv-x="866" d="M35 1454q0 104 50 168t157 64h585v-150h-120v-1810h-129v1810h-179v-1595q0 -107 -51 -173.5t-147 -66.5q-45 0 -88 14v109q31 -8 49 -8q56 0 80 29t24 96v1292h-33q-102 0 -150 59t-48 162zM141 1417q0 -50 21 -81t63 -31h41v231h-37q-45 0 -66.5 -32.5t-21.5 -86.5z " />
<glyph unicode="&#xb7;" horiz-adv-x="272" d="M63 696v256h146v-256h-146z" />
<glyph unicode="&#xb8;" horiz-adv-x="272" d="M76 -41h119v-184q0 -80 -80 -80h-23v51h17q22 0 22 25v41h-55v147z" />
<glyph unicode="&#xb9;" horiz-adv-x="256" d="M47 1552v93h21q19 0 26.5 9t7.5 29v23h84v-842h-94v688h-45z" />
<glyph unicode="&#xba;" horiz-adv-x="450" d="M94 743v441q0 139 131 139q64 0 97.5 -35.5t33.5 -103.5v-441q0 -68 -33.5 -103.5t-97.5 -35.5q-131 0 -131 139zM186 745q0 -45 39 -45q22 0 30.5 11t8.5 34v435q0 47 -39 47t-39 -47v-435z" />
<glyph unicode="&#xbb;" horiz-adv-x="798" d="M39 365v139l246 180l-246 172v133l321 -229v-154zM438 365v139l246 180l-246 172v133l322 -229v-154z" />
<glyph unicode="&#xbc;" horiz-adv-x="983" d="M63 0l742 1686h104l-739 -1686h-107zM154 1552v93h20q35 0 35 38v23h84v-842h-94v688h-45zM575 147v82l181 592h88v-585h41v-89h-41v-167h-88v167h-181zM659 236h97q0 92 6 344q-71 -240 -103 -344z" />
<glyph unicode="&#xbd;" horiz-adv-x="983" d="M63 0l742 1686h104l-739 -1686h-107zM154 1552v93h20q35 0 35 38v23h84v-842h-94v688h-45zM633 -20v153q0 77 15 123t65 117q60 88 77 126.5t17 96.5v90q0 49 -41 49q-39 0 -39 -49v-147h-94v145q0 77 32.5 112t100.5 35q135 0 135 -147v-98q0 -114 -88 -236 q-55 -76 -69.5 -116.5t-14.5 -100.5v-59h172v-94h-268z" />
<glyph unicode="&#xbe;" horiz-adv-x="983" d="M63 0l742 1686h104l-739 -1686h-107zM98 997v166h97v-166q0 -49 38 -49q41 0 41 49v203q0 26 -9 37.5t-32 11.5h-43v88h48q20 0 27 11.5t7 37.5v185q0 27 -8.5 38t-30.5 11q-21 0 -29.5 -11t-8.5 -38v-150h-95v150q0 76 32.5 110.5t100.5 34.5t100 -35t32 -112v-187 q0 -66 -56 -90q58 -16 58 -90v-205q0 -66 -34 -104.5t-100 -38.5t-100.5 38.5t-34.5 104.5zM555 147v82l180 592h88v-585h41v-89h-41v-167h-88v167h-180zM639 236h96q0 92 6 344q0 -1 -35.5 -122t-66.5 -222z" />
<glyph unicode="&#xbf;" horiz-adv-x="612" d="M49 274v177q0 123 23 199.5t78 140.5q72 81 88 126t16 154v232h145v-228q0 -119 -22.5 -190.5t-83.5 -141.5q-42 -48 -59 -80t-24 -77.5t-7 -134.5v-179q0 -69 25 -101t79 -32q56 0 82.5 32t26.5 99v297h149v-295q0 -149 -62.5 -219.5t-195.5 -70.5q-132 0 -195 71 t-63 221zM254 1430v256h145v-256h-145z" />
<glyph unicode="&#xc0;" horiz-adv-x="686" d="M25 0l231 1686h182l219 -1686h-155l-37 283h-252l-37 -283h-151zM35 2091h180l231 -330h-137zM231 426h215q-86 704 -104 864q-49 -410 -111 -864z" />
<glyph unicode="&#xc1;" horiz-adv-x="686" d="M25 0l231 1686h182l219 -1686h-155l-37 283h-252l-37 -283h-151zM231 426h215q-86 704 -104 864q-49 -410 -111 -864zM240 1761l229 330h182l-276 -330h-135z" />
<glyph unicode="&#xc2;" horiz-adv-x="686" d="M25 0l231 1686h182l219 -1686h-155l-37 283h-252l-37 -283h-151zM45 1761l221 330h164l213 -330h-137l-162 252l-168 -252h-131zM231 426h215q-86 704 -104 864q-49 -410 -111 -864z" />
<glyph unicode="&#xc3;" horiz-adv-x="686" d="M25 0l231 1686h182l219 -1686h-155l-37 283h-252l-37 -283h-151zM98 1829v125q48 55 123 55q51 0 128 -33.5t122 -33.5q69 0 117 61v-125q-43 -53 -125 -53q-47 0 -125 33.5t-123 33.5q-72 0 -117 -63zM231 426h215q-86 704 -104 864q-49 -410 -111 -864z" />
<glyph unicode="&#xc4;" horiz-adv-x="686" d="M25 0l231 1686h182l219 -1686h-155l-37 283h-252l-37 -283h-151zM119 1786v256h141v-256h-141zM231 426h215q-86 704 -104 864q-49 -410 -111 -864zM426 1786v256h141v-256h-141z" />
<glyph unicode="&#xc5;" horiz-adv-x="686" d="M25 0l231 1686h182l219 -1686h-155l-37 283h-252l-37 -283h-151zM145 1927q0 73 51 118.5t146 45.5t147 -45.5t52 -118.5q0 -71 -52 -115.5t-147 -44.5t-146 44t-51 116zM223 1927q0 -92 119 -92q117 0 117 92q0 94 -117 94q-119 0 -119 -94zM231 426h215 q-86 704 -104 864q-49 -410 -111 -864z" />
<glyph unicode="&#xc6;" horiz-adv-x="946" d="M25 0l231 1686h639v-158h-291v-592h207v-156h-207v-626h299v-154h-457v283h-231l-39 -283h-151zM233 426h213v1102h-67z" />
<glyph unicode="&#xc7;" horiz-adv-x="632" d="M63 266v1147q0 291 269 291q125 0 185.5 -70.5t60.5 -216.5v-299h-142v297q0 69 -23.5 100t-80.5 31q-111 0 -111 -131v-1147q0 -133 111 -133q56 0 80 32t24 101v350h142v-348q0 -148 -59.5 -218t-186.5 -70q-269 0 -269 284zM276 -41h119v-184q0 -80 -80 -80h-22v51h16 q23 0 23 25v41h-56v147z" />
<glyph unicode="&#xc8;" d="M-20 2091h180l231 -330h-137zM76 0v1686h446v-158h-291v-592h205v-156h-205v-626h301v-154h-456z" />
<glyph unicode="&#xc9;" d="M76 0v1686h446v-158h-291v-592h205v-156h-205v-626h301v-154h-456zM182 1761l230 330h182l-277 -330h-135z" />
<glyph unicode="&#xca;" d="M-2 1761l221 330h164l213 -330h-137l-162 252l-168 -252h-131zM76 0v1686h446v-158h-291v-592h205v-156h-205v-626h301v-154h-456z" />
<glyph unicode="&#xcb;" d="M74 1786v256h141v-256h-141zM76 0v1686h446v-158h-291v-592h205v-156h-205v-626h301v-154h-456zM381 1786v256h141v-256h-141z" />
<glyph unicode="&#xcc;" horiz-adv-x="315" d="M-150 2091h181l231 -330h-137zM80 0v1686h156v-1686h-156z" />
<glyph unicode="&#xcd;" horiz-adv-x="315" d="M55 1761l230 330h182l-277 -330h-135zM80 0v1686h156v-1686h-156z" />
<glyph unicode="&#xce;" horiz-adv-x="315" d="M-141 1761l221 330h164l213 -330h-138l-161 252l-168 -252h-131zM80 0v1686h156v-1686h-156z" />
<glyph unicode="&#xcf;" horiz-adv-x="315" d="M-66 1786v256h142v-256h-142zM80 0v1686h156v-1686h-156zM242 1786v256h141v-256h-141z" />
<glyph unicode="&#xd0;" horiz-adv-x="663" d="M20 780v156h52v750h264q129 0 196.5 -76t67.5 -213v-1110q0 -287 -264 -287h-264v780h-52zM227 154h109q110 0 110 133v1110q0 59 -26.5 95t-83.5 36h-109v-592h123v-156h-123v-626z" />
<glyph unicode="&#xd1;" horiz-adv-x="722" d="M72 0v1686h186l258 -1235q-2 229 -2 682v553h137v-1686h-155l-291 1231q2 -250 2 -748v-483h-135zM117 1829v125q48 55 123 55q51 0 127.5 -33.5t121.5 -33.5q69 0 117 61v-125q-43 -53 -125 -53q-47 0 -125 33.5t-123 33.5q-71 0 -116 -63z" />
<glyph unicode="&#xd2;" horiz-adv-x="657" d="M20 2091h181l231 -330h-137zM63 268v1149q0 140 67 213.5t198 73.5q266 0 266 -287v-1149q0 -286 -266 -286q-131 0 -198 73t-67 213zM219 268q0 -133 109 -133q110 0 110 133v1149q0 129 -110 129q-109 0 -109 -129v-1149z" />
<glyph unicode="&#xd3;" horiz-adv-x="657" d="M63 268v1149q0 140 67 213.5t198 73.5q266 0 266 -287v-1149q0 -286 -266 -286q-131 0 -198 73t-67 213zM219 268q0 -133 109 -133q110 0 110 133v1149q0 129 -110 129q-109 0 -109 -129v-1149zM225 1761l230 330h182l-277 -330h-135z" />
<glyph unicode="&#xd4;" horiz-adv-x="657" d="M31 1761l221 330h164l213 -330h-137l-162 252l-168 -252h-131zM63 268v1149q0 140 67 213.5t198 73.5q266 0 266 -287v-1149q0 -286 -266 -286q-131 0 -198 73t-67 213zM219 268q0 -133 109 -133q110 0 110 133v1149q0 129 -110 129q-109 0 -109 -129v-1149z" />
<glyph unicode="&#xd5;" horiz-adv-x="657" d="M63 268v1149q0 140 67 213.5t198 73.5q266 0 266 -287v-1149q0 -286 -266 -286q-131 0 -198 73t-67 213zM84 1829v125q48 55 123 55q51 0 128 -33.5t122 -33.5q68 0 116 61v-125q-43 -53 -124 -53q-47 0 -125 33.5t-123 33.5q-72 0 -117 -63zM219 268q0 -133 109 -133 q110 0 110 133v1149q0 129 -110 129q-109 0 -109 -129v-1149z" />
<glyph unicode="&#xd6;" horiz-adv-x="657" d="M63 268v1149q0 140 67 213.5t198 73.5q266 0 266 -287v-1149q0 -286 -266 -286q-131 0 -198 73t-67 213zM104 1786v256h142v-256h-142zM219 268q0 -133 109 -133q110 0 110 133v1149q0 129 -110 129q-109 0 -109 -129v-1149zM412 1786v256h141v-256h-141z" />
<glyph unicode="&#xd7;" horiz-adv-x="946" d="M150 618l239 240l-239 240l83 82l238 -238l242 240l82 -82l-240 -242l242 -242l-84 -81l-242 241l-240 -239z" />
<glyph unicode="&#xd8;" horiz-adv-x="657" d="M63 -193l56 259q-56 74 -56 202v1149q0 140 67 213.5t198 73.5q81 0 141 -29l45 203h80l-57 -260q57 -69 57 -201v-1149q0 -286 -266 -286q-84 0 -142 28l-45 -203h-78zM219 522l209 961q-25 63 -100 63q-109 0 -109 -129v-895zM227 203q24 -68 101 -68q110 0 110 133 v895z" />
<glyph unicode="&#xd9;" horiz-adv-x="667" d="M27 2091h180l231 -330h-137zM70 268v1418h155v-1418q0 -133 109 -133q108 0 108 133v1418h156v-1418q0 -286 -264 -286t-264 286z" />
<glyph unicode="&#xda;" horiz-adv-x="667" d="M70 268v1418h155v-1418q0 -133 109 -133q108 0 108 133v1418h156v-1418q0 -286 -264 -286t-264 286zM229 1761l230 330h182l-276 -330h-136z" />
<glyph unicode="&#xdb;" horiz-adv-x="667" d="M35 1761l221 330h164l213 -330h-137l-162 252l-168 -252h-131zM70 268v1418h155v-1418q0 -133 109 -133q108 0 108 133v1418h156v-1418q0 -286 -264 -286t-264 286z" />
<glyph unicode="&#xdc;" horiz-adv-x="667" d="M70 268v1418h155v-1418q0 -133 109 -133q108 0 108 133v1418h156v-1418q0 -286 -264 -286t-264 286zM109 1786v256h141v-256h-141zM416 1786v256h141v-256h-141z" />
<glyph unicode="&#xdd;" horiz-adv-x="679" d="M18 1686h164q41 -158 91.5 -378.5t68.5 -316.5q19 99 71 319t95 376h151l-245 -930v-756h-158v756zM240 1761l229 330h182l-276 -330h-135z" />
<glyph unicode="&#xde;" horiz-adv-x="669" d="M76 0v1686h155v-300h113q147 0 219 -74t72 -229v-518q0 -148 -73 -225.5t-216 -77.5h-115v-262h-155zM231 416h115q133 0 133 149v518q0 146 -135 146h-113v-813z" />
<glyph unicode="&#xdf;" horiz-adv-x="671" d="M76 0v1452q0 252 233 252q115 0 173.5 -65t58.5 -187v-410q0 -55 -19.5 -90t-46.5 -47q62 -14 100.5 -68t38.5 -145v-450q0 -135 -53.5 -197.5t-177.5 -62.5q-54 0 -72 6l2 141q21 -6 60 -6q56 0 79 26.5t23 92.5v456q0 61 -26 87t-78 26h-84v135h43q36 0 54.5 20.5 t18.5 75.5v406q0 113 -94 113q-50 0 -73 -31t-23 -82v-1448h-137z" />
<glyph unicode="&#xe0;" horiz-adv-x="581" d="M-16 1673h180l231 -330h-137zM47 182v187q0 61 10.5 109.5t34.5 86t48.5 64t68 52t76 41t88.5 38.5v276q0 57 -20.5 84t-71.5 27q-53 0 -73 -27t-20 -84v-266h-125v268q0 125 54.5 187.5t167.5 62.5q223 0 223 -250v-893q0 -106 10 -145h-129q-8 27 -8 76 q-53 -94 -152 -94q-182 0 -182 200zM184 223q0 -104 97 -104q72 0 92 80v448q-62 -21 -99.5 -46.5t-57 -62.5t-26 -77t-6.5 -103v-135z" />
<glyph unicode="&#xe1;" horiz-adv-x="581" d="M47 182v187q0 61 10.5 109.5t34.5 86t48.5 64t68 52t76 41t88.5 38.5v276q0 57 -20.5 84t-71.5 27q-53 0 -73 -27t-20 -84v-266h-125v268q0 125 54.5 187.5t167.5 62.5q223 0 223 -250v-893q0 -106 10 -145h-129q-8 27 -8 76q-53 -94 -152 -94q-182 0 -182 200zM184 223 q0 -104 97 -104q72 0 92 80v448q-62 -21 -99.5 -46.5t-57 -62.5t-26 -77t-6.5 -103v-135zM186 1343l230 330h182l-276 -330h-136z" />
<glyph unicode="&#xe2;" horiz-adv-x="581" d="M-8 1343l221 330h164l213 -330h-137l-162 252l-168 -252h-131zM47 182v187q0 61 10.5 109.5t34.5 86t48.5 64t68 52t76 41t88.5 38.5v276q0 57 -20.5 84t-71.5 27q-53 0 -73 -27t-20 -84v-266h-125v268q0 125 54.5 187.5t167.5 62.5q223 0 223 -250v-893q0 -106 10 -145 h-129q-8 27 -8 76q-53 -94 -152 -94q-182 0 -182 200zM184 223q0 -104 97 -104q72 0 92 80v448q-62 -21 -99.5 -46.5t-57 -62.5t-26 -77t-6.5 -103v-135z" />
<glyph unicode="&#xe3;" horiz-adv-x="581" d="M47 182v187q0 61 10.5 109.5t34.5 86t48.5 64t68 52t76 41t88.5 38.5v276q0 57 -20.5 84t-71.5 27q-53 0 -73 -27t-20 -84v-266h-125v268q0 125 54.5 187.5t167.5 62.5q223 0 223 -250v-893q0 -106 10 -145h-129q-8 27 -8 76q-53 -94 -152 -94q-182 0 -182 200zM47 1411 v125q48 55 123 55q51 0 128 -33.5t122 -33.5q69 0 117 61v-125q-43 -53 -125 -53q-48 0 -126 34t-122 34q-72 0 -117 -64zM184 223q0 -104 97 -104q72 0 92 80v448q-62 -21 -99.5 -46.5t-57 -62.5t-26 -77t-6.5 -103v-135z" />
<glyph unicode="&#xe4;" horiz-adv-x="581" d="M47 182v187q0 61 10.5 109.5t34.5 86t48.5 64t68 52t76 41t88.5 38.5v276q0 57 -20.5 84t-71.5 27q-53 0 -73 -27t-20 -84v-266h-125v268q0 125 54.5 187.5t167.5 62.5q223 0 223 -250v-893q0 -106 10 -145h-129q-8 27 -8 76q-53 -94 -152 -94q-182 0 -182 200zM68 1368 v256h141v-256h-141zM184 223q0 -104 97 -104q72 0 92 80v448q-62 -21 -99.5 -46.5t-57 -62.5t-26 -77t-6.5 -103v-135zM375 1368v256h141v-256h-141z" />
<glyph unicode="&#xe5;" horiz-adv-x="581" d="M47 182v187q0 61 10.5 109.5t34.5 86t48.5 64t68 52t76 41t88.5 38.5v276q0 57 -20.5 84t-71.5 27q-53 0 -73 -27t-20 -84v-266h-125v268q0 125 54.5 187.5t167.5 62.5q223 0 223 -250v-893q0 -106 10 -145h-129q-8 27 -8 76q-53 -94 -152 -94q-182 0 -182 200zM92 1509 q0 73 51 118.5t146 45.5t146.5 -45.5t51.5 -118.5q0 -71 -51.5 -115t-146.5 -44t-146 43.5t-51 115.5zM170 1509q0 -92 119 -92q117 0 117 92q0 95 -117 95q-59 0 -89 -25t-30 -70zM184 223q0 -104 97 -104q72 0 92 80v448q-62 -21 -99.5 -46.5t-57 -62.5t-26 -77t-6.5 -103 v-135z" />
<glyph unicode="&#xe6;" horiz-adv-x="886" d="M47 182v187q0 61 10.5 109.5t34.5 86t48.5 64t68 52t76 41t88.5 38.5v278q0 55 -21 82t-71 27q-51 0 -72 -27t-21 -82v-268h-125v268q0 125 54.5 187.5t167.5 62.5q103 0 159 -59q53 59 152 59q227 0 227 -260v-407h-315v-394q0 -51 23.5 -76.5t64.5 -25.5q94 0 94 113 v278h133v-278q0 -256 -227 -256q-130 0 -182 98q-57 -98 -178 -98q-90 0 -139.5 49t-49.5 151zM184 236q0 -60 23 -88.5t74 -28.5q72 0 92 80v448q-62 -21 -99.5 -46.5t-57 -62.5t-26 -77t-6.5 -103v-122zM508 723h182v305q0 54 -24 83.5t-70 29.5q-88 0 -88 -113v-305z" />
<glyph unicode="&#xe7;" horiz-adv-x="579" d="M63 240v786q0 121 59 191.5t173 70.5q113 0 167 -69.5t54 -190.5v-274h-127v276q0 54 -24 83.5t-70 29.5q-45 0 -69.5 -31t-24.5 -84v-788q0 -56 24 -85.5t70 -29.5q94 0 94 113v280h131v-282q0 -119 -56 -186.5t-169 -67.5q-114 0 -173 69.5t-59 188.5zM240 -41h118 v-184q0 -80 -79 -80h-23v51h16q23 0 23 25v41h-55v147z" />
<glyph unicode="&#xe8;" d="M-20 1673h180l231 -330h-137zM63 238v790q0 128 56.5 194t163.5 66q227 0 227 -260v-407h-315v-383q0 -113 88 -113q94 0 94 113v278h133v-278q0 -256 -227 -256q-220 0 -220 256zM195 723h182v305q0 113 -94 113q-88 0 -88 -113v-305z" />
<glyph unicode="&#xe9;" d="M63 238v790q0 128 56.5 194t163.5 66q227 0 227 -260v-407h-315v-383q0 -113 88 -113q94 0 94 113v278h133v-278q0 -256 -227 -256q-220 0 -220 256zM182 1343l230 330h182l-277 -330h-135zM195 723h182v305q0 113 -94 113q-88 0 -88 -113v-305z" />
<glyph unicode="&#xea;" d="M-12 1343l221 330h164l213 -330h-137l-162 252l-168 -252h-131zM63 238v790q0 128 56.5 194t163.5 66q227 0 227 -260v-407h-315v-383q0 -113 88 -113q94 0 94 113v278h133v-278q0 -256 -227 -256q-220 0 -220 256zM195 723h182v305q0 113 -94 113q-88 0 -88 -113v-305z " />
<glyph unicode="&#xeb;" d="M63 238v790q0 128 56.5 194t163.5 66q227 0 227 -260v-407h-315v-383q0 -113 88 -113q94 0 94 113v278h133v-278q0 -256 -227 -256q-220 0 -220 256zM63 1368v256h142v-256h-142zM195 723h182v305q0 113 -94 113q-88 0 -88 -113v-305zM371 1368v256h141v-256h-141z" />
<glyph unicode="&#xec;" horiz-adv-x="323" d="M-135 1673h180l231 -330h-137zM102 0v1268h142v-1268h-142z" />
<glyph unicode="&#xed;" horiz-adv-x="323" d="M47 1343l229 330h183l-277 -330h-135zM80 0v1268h141v-1268h-141z" />
<glyph unicode="&#xee;" horiz-adv-x="464" d="M-66 1343l222 330h163l213 -330h-137l-162 252l-167 -252h-132zM162 0v1268h141v-1268h-141z" />
<glyph unicode="&#xef;" horiz-adv-x="364" d="M-43 1368v256h141v-256h-141zM111 0v1268h141v-1268h-141zM264 1368v256h142v-256h-142z" />
<glyph unicode="&#xf0;" horiz-adv-x="657" d="M63 274v541q0 250 232 250q54 0 94.5 -24.5t61.5 -65.5v235q0 130 -31 209l-211 -262l-55 47l225 281q-55 58 -172 61v158q178 0 270 -98l90 110l56 -47l-101 -123q72 -130 72 -375v-897q0 -141 -67 -216.5t-199 -75.5q-130 0 -197.5 75.5t-67.5 216.5zM219 293 q0 -158 109 -158q108 0 108 133v508q-3 27 -5.5 40.5t-9.5 35t-17 32t-28.5 19t-43.5 8.5q-113 0 -113 -123v-495z" />
<glyph unicode="&#xf1;" horiz-adv-x="618" d="M66 1411v125q48 55 122 55q51 0 128 -33.5t122 -33.5q69 0 117 61v-125q-43 -53 -125 -53q-48 0 -126 34t-122 34q-71 0 -116 -64zM76 0v1268h119q6 -46 6 -97q28 55 76 86t106 31q85 0 125.5 -56.5t40.5 -176.5v-1055h-141v1047q0 55 -19 78.5t-63 23.5q-33 0 -64 -20 t-45 -58v-1071h-141z" />
<glyph unicode="&#xf2;" horiz-adv-x="593" d="M-10 1673h180l231 -330h-137zM63 233v801q0 254 234 254q115 0 174 -65t59 -189v-801q0 -122 -59 -186.5t-174 -64.5q-234 0 -234 251zM201 233q0 -56 21 -82t75 -26q55 0 75.5 27t20.5 86v792q0 57 -21 85t-75 28t-75 -28t-21 -85v-797z" />
<glyph unicode="&#xf3;" horiz-adv-x="593" d="M63 233v801q0 254 234 254q115 0 174 -65t59 -189v-801q0 -122 -59 -186.5t-174 -64.5q-234 0 -234 251zM193 1343l229 330h182l-276 -330h-135zM201 233q0 -56 21 -82t75 -26q55 0 75.5 27t20.5 86v792q0 57 -21 85t-75 28t-75 -28t-21 -85v-797z" />
<glyph unicode="&#xf4;" horiz-adv-x="593" d="M-2 1343l221 330h164l213 -330h-137l-162 252l-168 -252h-131zM63 233v801q0 254 234 254q115 0 174 -65t59 -189v-801q0 -122 -59 -186.5t-174 -64.5q-234 0 -234 251zM201 233q0 -56 21 -82t75 -26q55 0 75.5 27t20.5 86v792q0 57 -21 85t-75 28t-75 -28t-21 -85v-797z " />
<glyph unicode="&#xf5;" horiz-adv-x="593" d="M53 1411v125q48 55 123 55q51 0 128 -33.5t122 -33.5q69 0 117 61v-125q-43 -53 -125 -53q-48 0 -126 34t-122 34q-72 0 -117 -64zM63 233v801q0 254 234 254q115 0 174 -65t59 -189v-801q0 -122 -59 -186.5t-174 -64.5q-234 0 -234 251zM201 233q0 -56 21 -82t75 -26 q55 0 75.5 27t20.5 86v792q0 57 -21 85t-75 28t-75 -28t-21 -85v-797z" />
<glyph unicode="&#xf6;" horiz-adv-x="593" d="M63 233v801q0 254 234 254q115 0 174 -65t59 -189v-801q0 -122 -59 -186.5t-174 -64.5q-234 0 -234 251zM74 1368v256h141v-256h-141zM201 233q0 -56 21 -82t75 -26q55 0 75.5 27t20.5 86v792q0 57 -21 85t-75 28t-75 -28t-21 -85v-797zM381 1368v256h141v-256h-141z" />
<glyph unicode="&#xf7;" horiz-adv-x="946" d="M76 801v117h796v-117h-796zM399 401v256h146v-256h-146zM399 1061v256h146v-256h-146z" />
<glyph unicode="&#xf8;" horiz-adv-x="593" d="M63 -193l56 240q-56 65 -56 186v801q0 254 234 254q59 0 111 -20l45 192h77l-57 -241q57 -66 57 -185v-801q0 -122 -59 -186.5t-174 -64.5q-65 0 -111 18l-45 -193h-78zM201 391l170 723q-23 29 -74 29q-54 0 -75 -28t-21 -85v-639zM221 150q22 -25 76 -25q55 0 75.5 27 t20.5 86v639l-172 -725v-2z" />
<glyph unicode="&#xf9;" horiz-adv-x="614" d="M0 1673h180l232 -330h-138zM70 205v1063h141v-1041q0 -56 18 -79t60 -23q35 0 64.5 19t43.5 57v1067h142v-1268h-121q-4 58 -4 92q-61 -106 -181 -106q-163 0 -163 219z" />
<glyph unicode="&#xfa;" horiz-adv-x="614" d="M70 205v1063h141v-1041q0 -56 18 -79t60 -23q35 0 64.5 19t43.5 57v1067h142v-1268h-121q-4 58 -4 92q-61 -106 -181 -106q-163 0 -163 219zM203 1343l229 330h182l-276 -330h-135z" />
<glyph unicode="&#xfb;" horiz-adv-x="614" d="M8 1343l221 330h164l213 -330h-137l-162 252l-168 -252h-131zM70 205v1063h141v-1041q0 -56 18 -79t60 -23q35 0 64.5 19t43.5 57v1067h142v-1268h-121q-4 58 -4 92q-61 -106 -181 -106q-163 0 -163 219z" />
<glyph unicode="&#xfc;" horiz-adv-x="614" d="M70 205v1063h141v-1041q0 -56 18 -79t60 -23q35 0 64.5 19t43.5 57v1067h142v-1268h-121q-4 58 -4 92q-61 -106 -181 -106q-163 0 -163 219zM82 1368v256h141v-256h-141zM389 1368v256h141v-256h-141z" />
<glyph unicode="&#xfd;" horiz-adv-x="567" d="M23 1268h147q28 -206 65 -523.5t46 -431.5q12 121 53 437.5t72 517.5h135l-193 -1284q-12 -74 -25.5 -120t-39 -85t-66.5 -56.5t-102 -17.5q-26 0 -76 10v142q32 -11 70 -11q40 0 61 33t31 96l8 52zM180 1343l230 330h182l-277 -330h-135z" />
<glyph unicode="&#xfe;" horiz-adv-x="620" d="M76 -285v1971h141v-480q52 82 154 82q96 0 140 -54.5t44 -178.5v-842q0 -124 -43.5 -177.5t-140.5 -53.5q-103 0 -154 77v-344h-141zM217 209q13 -40 43 -61t66 -21q47 0 68.5 23.5t21.5 80.5v805q0 56 -21.5 80.5t-68.5 24.5q-36 0 -66 -21t-43 -61v-850z" />
<glyph unicode="&#xff;" horiz-adv-x="567" d="M23 1268h147q28 -206 65 -523.5t46 -431.5q12 121 53 437.5t72 517.5h135l-193 -1284q-12 -74 -25.5 -120t-39 -85t-66.5 -56.5t-102 -17.5q-26 0 -76 10v142q32 -11 70 -11q40 0 61 33t31 96l8 52zM59 1368v256h142v-256h-142zM367 1368v256h141v-256h-141z" />
<glyph unicode="&#x152;" horiz-adv-x="894" d="M63 268v1149q0 140 67 213.5t198 73.5q66 0 112 -18h404v-158h-291v-592h205v-156h-205v-626h301v-154h-414q-46 -18 -112 -18q-131 0 -198 73t-67 213zM219 268q0 -133 109 -133q39 0 69 10v1391q-23 10 -69 10q-109 0 -109 -129v-1149z" />
<glyph unicode="&#x153;" horiz-adv-x="909" d="M63 233v801q0 254 234 254q109 0 166 -63q57 63 155 63q228 0 228 -260v-407h-316v-383q0 -113 88 -113q95 0 95 113v278h133v-278q0 -256 -228 -256q-103 0 -157 57q-54 -57 -164 -57q-234 0 -234 251zM201 233q0 -56 21 -82t75 -26q55 0 75.5 27t20.5 86v792 q0 57 -21 85t-75 28t-75 -28t-21 -85v-797zM530 723h183v305q0 55 -24.5 84t-70.5 29q-88 0 -88 -113v-305z" />
<glyph unicode="&#x178;" horiz-adv-x="679" d="M18 1686h164q41 -158 91.5 -378.5t68.5 -316.5q19 99 71 319t95 376h151l-245 -930v-756h-158v756zM115 1786v256h141v-256h-141zM422 1786v256h141v-256h-141z" />
<glyph unicode="&#x2c6;" horiz-adv-x="788" d="M94 1343l221 330h164l213 -330h-137l-162 252l-168 -252h-131z" />
<glyph unicode="&#x2dc;" horiz-adv-x="643" d="M76 1411v125q48 55 123 55q51 0 128 -33.5t122 -33.5q68 0 116 61v-125q-43 -53 -125 -53q-48 0 -125.5 34t-121.5 34q-72 0 -117 -64z" />
<glyph unicode="&#x2000;" horiz-adv-x="1045" />
<glyph unicode="&#x2001;" horiz-adv-x="2091" />
<glyph unicode="&#x2002;" horiz-adv-x="1045" />
<glyph unicode="&#x2003;" horiz-adv-x="2091" />
<glyph unicode="&#x2004;" horiz-adv-x="697" />
<glyph unicode="&#x2005;" horiz-adv-x="522" />
<glyph unicode="&#x2006;" horiz-adv-x="348" />
<glyph unicode="&#x2007;" horiz-adv-x="348" />
<glyph unicode="&#x2008;" horiz-adv-x="261" />
<glyph unicode="&#x2009;" horiz-adv-x="418" />
<glyph unicode="&#x200a;" horiz-adv-x="116" />
<glyph unicode="&#x2010;" horiz-adv-x="372" d="M27 788v121h323v-121h-323z" />
<glyph unicode="&#x2011;" horiz-adv-x="372" d="M27 788v121h323v-121h-323z" />
<glyph unicode="&#x2012;" horiz-adv-x="372" d="M27 788v121h323v-121h-323z" />
<glyph unicode="&#x2013;" horiz-adv-x="571" d="M27 788v121h518v-121h-518z" />
<glyph unicode="&#x2014;" horiz-adv-x="897" d="M27 788v121h845v-121h-845z" />
<glyph unicode="&#x2018;" horiz-adv-x="274" d="M63 1321v266q0 113 111 113h16v-68h-14q-18 0 -25.5 -8t-7.5 -29v-63h68v-211h-148z" />
<glyph unicode="&#x2019;" horiz-adv-x="274" d="M63 1475v211h148v-265q0 -114 -111 -114h-16v67h12q19 0 27 8.5t8 28.5v64h-68z" />
<glyph unicode="&#x201a;" horiz-adv-x="282" d="M68 45v211h147v-264q0 -115 -111 -115h-16v68h12q19 0 27 8.5t8 28.5v63h-67z" />
<glyph unicode="&#x201c;" horiz-adv-x="548" d="M63 1321v266q0 113 111 113h16v-68h-14q-18 0 -25.5 -8t-7.5 -29v-63h68v-211h-148zM338 1321v266q0 113 111 113h16v-68h-14q-18 0 -25.5 -8t-7.5 -29v-63h67v-211h-147z" />
<glyph unicode="&#x201d;" horiz-adv-x="548" d="M63 1475v211h148v-265q0 -114 -111 -114h-16v67h12q19 0 27 8.5t8 28.5v64h-68zM338 1475v211h147v-265q0 -114 -110 -114h-17v67h13q19 0 27 8.5t8 28.5v64h-68z" />
<glyph unicode="&#x201e;" horiz-adv-x="565" d="M68 45v211h147v-264q0 -115 -111 -115h-16v68h12q19 0 27 8.5t8 28.5v63h-67zM350 45v211h148v-264q0 -115 -111 -115h-16v68h12q19 0 27 8.5t8 28.5v63h-68z" />
<glyph unicode="&#x2022;" horiz-adv-x="428" d="M63 963q0 72 41.5 119.5t110.5 47.5q68 0 109 -47.5t41 -119.5q0 -74 -41 -123t-109 -49q-69 0 -110.5 49t-41.5 123z" />
<glyph unicode="&#x2026;" horiz-adv-x="1361" d="M63 0v256h146v-256h-146zM608 0v256h146v-256h-146zM1153 0v256h145v-256h-145z" />
<glyph unicode="&#x202f;" horiz-adv-x="418" />
<glyph unicode="&#x2039;" horiz-adv-x="399" d="M39 606v154l321 229v-133l-245 -172l245 -180v-139z" />
<glyph unicode="&#x203a;" horiz-adv-x="399" d="M39 365v139l246 180l-246 172v133l321 -229v-154z" />
<glyph unicode="&#x205f;" horiz-adv-x="522" />
<glyph unicode="&#x20ac;" horiz-adv-x="700" d="M20 606l19 119h76v264h-95l19 121h76v266q0 171 79.5 249.5t276.5 78.5q114 0 209 -10l-25 -158q-91 12 -180 12q-121 0 -163 -40t-42 -132v-266h320l-21 -121h-299v-264h260l-20 -119h-240v-342q0 -55 33 -93t86 -38q66 0 91.5 40t25.5 128v125h153v-158 q0 -286 -270 -286q-274 0 -274 286v338h-95z" />
<glyph unicode="&#x2122;" horiz-adv-x="991" d="M55 1610v76h320v-76h-111v-703h-98v703h-111zM444 907v779h129l107 -609l102 609h131v-779h-88v262q0 204 2 304l-104 -566h-86l-107 566q5 -250 5 -304v-262h-91z" />
<glyph unicode="&#xfb01;" horiz-adv-x="692" d="M20 1143v125h62v176q0 125 45 188.5t149 63.5q52 0 93 -13v-120q-21 6 -52 6q-50 0 -73 -30.5t-23 -98.5v-172h144v-125h-144v-1143h-139v1143h-62zM471 0v1268h141v-1268h-141zM471 1430v256h141v-256h-141z" />
<glyph unicode="&#xfb02;" horiz-adv-x="684" d="M20 1143v125h62v176q0 125 45 188.5t149 63.5q52 0 93 -13v-120q-21 6 -52 6q-50 0 -73 -30.5t-23 -98.5v-172h144v-125h-144v-1143h-139v1143h-62zM467 0v1686h141v-1686h-141z" />
</font>
</defs>
</svg>
