<?xml version="1.0" standalone="no"?>
<!DOCTYPE svg PUBLIC "-//W3C//DTD SVG 1.1//EN" "http://www.w3.org/Graphics/SVG/1.1/DTD/svg11.dtd" >
<svg xmlns="http://www.w3.org/2000/svg">
<metadata></metadata>
<defs>
<font id="SteelfishRgBold" horiz-adv-x="575" >
<font-face units-per-em="2048" ascent="1743" descent="-305" />
<missing-glyph horiz-adv-x="278" />
<glyph unicode="&#x28;C&#x29;" horiz-adv-x="1067" d="M61 453v780q0 252 112.5 361.5t361.5 109.5q248 0 360.5 -109.5t112.5 -361.5v-780q0 -252 -112.5 -361.5t-360.5 -109.5q-249 0 -361.5 109.5t-112.5 361.5zM188 436q0 -181 78 -256.5t269 -75.5t267.5 75.5t76.5 256.5v811q0 190 -75.5 263t-268.5 73q-195 0 -271 -73 t-76 -263v-811zM365 489v721q0 92 44 138.5t128 46.5q155 0 155 -183v-188h-108v188q0 62 -47 62q-50 0 -50 -62v-723q0 -59 50 -59q47 0 47 59v222h108v-219q0 -92 -36.5 -136.5t-118.5 -44.5q-172 0 -172 178z" />
<glyph unicode="&#x28;R&#x29;" horiz-adv-x="1067" d="M59 453v780q0 252 112.5 361.5t360.5 109.5q249 0 361.5 -109.5t112.5 -361.5v-780q0 -252 -112.5 -361.5t-361.5 -109.5q-248 0 -360.5 109.5t-112.5 361.5zM188 436q0 -181 77.5 -256.5t266.5 -75.5q192 0 269.5 75.5t77.5 256.5v811q0 188 -76.5 261t-270.5 73 t-269 -72.5t-75 -261.5v-811zM367 322v1060h163q97 0 142 -44.5t45 -147.5v-217q0 -62 -16 -98.5t-52 -55.5q35 -176 80 -497h-133q-34 303 -61 471h-48v-471h-120zM487 907h43q66 0 66 68v190q0 50 -13.5 72.5t-52.5 22.5h-43v-353z" />
<glyph horiz-adv-x="0" />
<glyph horiz-adv-x="2048" />
<glyph horiz-adv-x="278" />
<glyph unicode=" "  horiz-adv-x="278" />
<glyph unicode="&#x09;" horiz-adv-x="278" />
<glyph unicode="&#xa0;" horiz-adv-x="278" />
<glyph unicode="!" horiz-adv-x="354" d="M80 0v223h194v-223h-194zM80 934v752h194v-748l-38 -612h-119z" />
<glyph unicode="&#x22;" horiz-adv-x="565" d="M61 1497v189h170v-189l-36 -278h-97zM334 1497v189h170v-189l-37 -278h-96z" />
<glyph unicode="#" horiz-adv-x="821" d="M41 594v162h143l35 221h-143v162h170l84 547h129l-88 -547h168l86 547h127l-88 -547h116v-162h-141l-35 -221h137v-162h-163l-93 -594h-125l95 594h-170l-95 -594h-122l92 594h-119zM309 756h170l35 221h-170z" />
<glyph unicode="$" horiz-adv-x="587" d="M59 297v321h144v-323q0 -50 14.5 -74.5t48.5 -30.5v558l-69 71q-85 86 -111.5 150t-26.5 178v242q0 126 52 195.5t149 78.5v117h64v-117q101 -9 148.5 -76t47.5 -198v-271h-139v285q0 77 -66 92v-545l74 -67q84 -76 110.5 -146t26.5 -217v-223q0 -126 -51 -197.5 t-151 -81.5v-124h-64v126q-100 10 -150.5 81t-50.5 196zM203 1143q0 -45 14.5 -80t48.5 -72v504q-63 -12 -63 -92v-260zM315 190q29 4 45.5 28.5t16.5 62.5v206q0 82 -12 129.5t-50 90.5v-517z" />
<glyph unicode="%" horiz-adv-x="991" d="M57 0l752 1686h125l-750 -1686h-127zM63 997v576q0 143 142 143q139 0 139 -143v-576q0 -143 -139 -143q-142 0 -142 143zM174 995q0 -30 31 -30q28 0 28 30v580q0 31 -28 31q-31 0 -31 -31v-580zM645 113v575q0 143 141 143q140 0 140 -143v-575q0 -144 -140 -144 q-141 0 -141 144zM756 111q0 -31 30 -31q29 0 29 31v579q0 31 -29 31q-30 0 -30 -31v-579z" />
<glyph unicode="&#x26;" horiz-adv-x="778" d="M51 332v121q0 133 30 225t126 219l-41 115q-38 106 -49 169t-11 146v100q0 148 54.5 211.5t177.5 63.5q221 0 221 -270v-125q0 -107 -38.5 -201.5t-133.5 -233.5l176 -497q25 86 25 192v58h145v-66q0 -228 -88 -379q13 -10 33 -10q44 0 67 25v-181q-39 -22 -102 -22 q-69 0 -111 49q-62 -59 -194 -59q-85 0 -141.5 21t-88 67t-44.5 108t-13 154zM236 336q0 -93 26.5 -135.5t91.5 -42.5q75 0 107 32l-180 515q-27 -50 -36 -100t-9 -144v-125zM268 1354q0 -133 35 -248l19 -57q86 128 86 288v60q0 61 -15.5 91t-52.5 30q-72 0 -72 -99v-65z " />
<glyph unicode="'" horiz-adv-x="292" d="M61 1497v189h170v-189l-36 -278h-97z" />
<glyph unicode="(" horiz-adv-x="524" d="M150 190v1305q0 184 77.5 269t237.5 85h18v-137h-18q-92 0 -136 -53.5t-44 -163.5v-1305q0 -110 44 -163.5t136 -53.5h18v-137h-18q-160 0 -237.5 85t-77.5 269z" />
<glyph unicode=")" horiz-adv-x="524" d="M150 -27h18q92 0 136 53.5t44 163.5v1305q0 110 -44 163.5t-136 53.5h-18v137h18q160 0 237.5 -85t77.5 -269v-1305q0 -184 -77.5 -269t-237.5 -85h-18v137z" />
<glyph unicode="*" horiz-adv-x="667" d="M29 1421l34 109l226 -86l-15 242h117l-14 -242l225 90l35 -111l-234 -63l154 -186l-92 -68l-133 205l-129 -205l-92 68l151 186z" />
<glyph unicode="+" horiz-adv-x="954" d="M74 788v142h334v334h141v-334h336v-142h-336v-335h-141v335h-334z" />
<glyph unicode="," horiz-adv-x="299" d="M61 45v211h177v-248q0 -60 -33 -96.5t-101 -36.5h-20v78h18q22 0 30.5 10t8.5 33v49h-80z" />
<glyph unicode="-" horiz-adv-x="372" d="M25 776v146h327v-146h-327z" />
<glyph unicode="." horiz-adv-x="296" d="M61 0v256h177v-256h-177z" />
<glyph unicode="/" horiz-adv-x="495" d="M10 0l336 1686h139l-338 -1686h-137z" />
<glyph unicode="0" horiz-adv-x="675" d="M61 268v1149q0 287 277 287q276 0 276 -287v-1149q0 -286 -276 -286q-277 0 -277 286zM250 264q0 -96 88 -96q90 0 90 96v1157q0 97 -90 97q-88 0 -88 -97v-1157z" />
<glyph unicode="1" horiz-adv-x="389" d="M33 1376v185h43q35 0 51 19t16 60v46h168v-1686h-186v1376h-92z" />
<glyph unicode="2" horiz-adv-x="636" d="M51 0v307q0 154 29.5 246.5t128.5 234.5q121 172 154.5 250t33.5 195v180q0 100 -80 100q-77 0 -77 -100v-295h-189v293q0 154 64.5 223.5t201.5 69.5q136 0 203.5 -71.5t67.5 -221.5v-197q0 -122 -42.5 -233t-133.5 -238q-111 -155 -140.5 -235t-29.5 -201v-119h346 v-188h-537z" />
<glyph unicode="3" horiz-adv-x="638" d="M51 266v332h191v-330q0 -98 77 -98q82 0 82 98v404q0 51 -18 74.5t-64 23.5h-83v178h92q41 0 56 24t15 75v368q0 52 -18 75t-62 23q-42 0 -59.5 -23t-17.5 -75v-299h-187v297q0 153 64 222t200 69q137 0 200 -69.5t63 -223.5v-373q0 -70 -26.5 -112.5t-82.5 -67.5 q113 -31 113 -182v-408q0 -133 -67 -209.5t-200 -76.5q-130 0 -199 76.5t-69 207.5z" />
<glyph unicode="4" horiz-adv-x="657" d="M16 336v164l361 1186h178v-1172h82v-178h-82v-336h-176v336h-363zM184 514h195q0 268 10 688q-56 -199 -205 -688z" />
<glyph unicode="5" horiz-adv-x="649" d="M61 817l21 869h500v-191h-328l-18 -494q51 68 161 68q96 0 145.5 -61.5t49.5 -198.5v-545q0 -143 -64 -212.5t-198 -69.5q-267 0 -267 282v354h185v-352q0 -96 82 -96q80 0 80 98v545q0 42 -22 65t-64 23q-40 0 -65.5 -24t-33.5 -66z" />
<glyph unicode="6" horiz-adv-x="657" d="M59 268v1149q0 136 69 211.5t202 75.5q132 0 196 -75t64 -212v-291h-182v291q0 96 -78 96q-38 0 -59 -25t-21 -71v-426q52 68 147 68q105 0 154 -62t49 -202v-527q0 -136 -68.5 -211t-201.5 -75t-202 75t-69 211zM250 268q0 -50 18 -74t62 -24t62 24t18 74v463 q0 76 -16 111t-64 35q-35 0 -55 -18.5t-25 -49.5v-541z" />
<glyph unicode="7" horiz-adv-x="593" d="M27 1495v191h540v-177q-132 -296 -191 -661.5t-61 -847.5h-188q0 267 23 509t54.5 400.5t71.5 293t66 195.5t47 97h-362z" />
<glyph unicode="8" horiz-adv-x="647" d="M55 264v408q0 155 113 200q-98 51 -98 187v356q0 289 252 289q251 0 251 -289v-356q0 -137 -96 -187q113 -46 113 -200v-408q0 -282 -268 -282q-267 0 -267 282zM242 266q0 -96 80 -96q81 0 81 96v420q0 86 -81 86q-80 0 -80 -86v-420zM244 1034q0 -45 18.5 -65.5 t59.5 -20.5t60 21t19 65v381q0 54 -17 76t-62 22q-44 0 -61 -22.5t-17 -75.5v-381z" />
<glyph unicode="9" horiz-adv-x="655" d="M57 918v499q0 138 67.5 212.5t199.5 74.5q133 0 201.5 -74t68.5 -211v-1151q0 -136 -68.5 -211t-201.5 -75q-124 0 -194.5 76t-70.5 210v291h185v-291q0 -47 21 -72.5t59 -25.5q79 0 79 98v453q-49 -68 -145 -68q-105 0 -153 62.5t-48 202.5zM244 936q0 -94 80 -94 q35 0 55.5 19t23.5 50v506q0 51 -19 73.5t-60 22.5q-42 0 -61 -22t-19 -74v-481z" />
<glyph unicode=":" horiz-adv-x="296" d="M61 0v256h177v-256h-177zM61 750v254h177v-254h-177z" />
<glyph unicode=";" horiz-adv-x="299" d="M61 45v211h177v-248q0 -60 -33 -96.5t-101 -36.5h-20v78h18q22 0 30.5 10t8.5 33v49h-80zM61 750v254h177v-254h-177z" />
<glyph unicode="&#x3c;" horiz-adv-x="954" d="M74 772v172l811 248v-141l-668 -189l668 -198v-142z" />
<glyph unicode="=" horiz-adv-x="954" d="M74 596v143h811v-143h-811zM74 979v143h811v-143h-811z" />
<glyph unicode="&#x3e;" horiz-adv-x="954" d="M74 522v142l667 198l-667 189v141l811 -248v-172z" />
<glyph unicode="?" horiz-adv-x="614" d="M47 1118v295q0 150 62.5 220.5t197.5 70.5t199.5 -71t64.5 -222v-184q0 -120 -23.5 -198t-78.5 -142q-69 -80 -83.5 -122.5t-14.5 -150.5v-231h-176v227q0 123 21 194t79 138q61 71 75.5 116.5t14.5 168.5v188q0 98 -78 98q-80 0 -80 -96v-299h-180zM195 0v256h176v-256 h-176z" />
<glyph unicode="@" horiz-adv-x="1064" d="M57 299v715q0 251 112.5 361t360.5 110q235 0 345 -104t110 -328v-621q0 -104 -54.5 -164.5t-139.5 -60.5q-56 0 -99 22t-61 58q-10 -30 -42.5 -51t-82.5 -21q-164 0 -164 191v446q0 117 42 163t122 46q40 0 70 -20t42 -54q0 19 5 64h92v-660q7 -29 22 -45t47 -16 q74 0 74 96v631q0 133 -79.5 206.5t-248.5 73.5q-177 0 -252 -80t-75 -243v-719q0 -192 87.5 -272t266.5 -80q121 0 195.5 21.5t102 54.5t28.5 81q0 21 -2 29h123q4 -20 4 -41q1 -51 -11.5 -93t-45 -81t-84.5 -66t-136.5 -43t-195.5 -16q-114 0 -199 26t-149 84t-97 158 t-33 242zM467 422q0 -47 17.5 -67.5t56.5 -20.5q45 0 61 49v483q-8 32 -21.5 46t-39.5 14q-74 0 -74 -80v-424z" />
<glyph unicode="A" horiz-adv-x="690" d="M20 0l220 1686h219l207 -1686h-191l-31 260h-206q-19 -138 -33 -260h-185zM256 434h168q-49 428 -82 766q-41 -420 -86 -766z" />
<glyph unicode="B" horiz-adv-x="669" d="M74 0v1686h272q135 0 194.5 -70.5t59.5 -222.5v-342q0 -69 -23.5 -116.5t-66.5 -62.5q48 -11 79.5 -56t31.5 -120v-411q0 -147 -68.5 -216t-206.5 -69h-272zM262 188h84q82 0 82 99v393q0 53 -18 75.5t-62 22.5h-86v-590zM262 944h86q40 0 58 21t18 67v367q0 52 -18 74 t-60 22h-84v-551z" />
<glyph unicode="C" horiz-adv-x="634" d="M61 266v1147q0 291 273 291q126 0 188 -70.5t62 -216.5v-299h-172v299q0 50 -18 73t-60 23q-80 0 -80 -96v-1149q0 -98 80 -98q41 0 59.5 24t18.5 74v350h172v-348q0 -148 -60 -218t-190 -70q-273 0 -273 284z" />
<glyph unicode="D" horiz-adv-x="671" d="M74 0v1686h266q133 0 201.5 -76t68.5 -213v-1110q0 -287 -270 -287h-266zM262 188h78q82 0 82 99v1110q0 98 -82 98h-78v-1307z" />
<glyph unicode="E" d="M74 0v1686h454v-191h-266v-541h178v-190h-178v-576h277v-188h-465z" />
<glyph unicode="F" horiz-adv-x="555" d="M74 0v1686h465v-191h-277v-549h180v-190h-180v-756h-188z" />
<glyph unicode="G" horiz-adv-x="663" d="M61 268v1147q0 139 68.5 214t202.5 75q260 0 260 -289v-297h-170v299q0 96 -90 96q-82 0 -82 -96v-1149q0 -49 21.5 -73.5t58.5 -24.5q86 0 92 86v362h-100v181h282v-809h-22l-62 80q-28 -44 -82.5 -66t-120.5 -22q-118 0 -187 67.5t-69 218.5z" />
<glyph unicode="H" horiz-adv-x="684" d="M74 0v1686h188v-734h160v734h188v-1686h-188v764h-160v-764h-188z" />
<glyph unicode="I" horiz-adv-x="344" d="M78 0v1686h188v-1686h-188z" />
<glyph unicode="J" horiz-adv-x="444" d="M18 0v188q42 -10 93 -10q77 0 77 103v1405h191v-1405q0 -293 -268 -293q-47 0 -93 12z" />
<glyph unicode="K" horiz-adv-x="718" d="M72 0v1686h190v-349q0 -266 -4 -368q142 453 231 717h203l-270 -760l291 -926h-217q-18 60 -238 815q4 -135 4 -461v-354h-190z" />
<glyph unicode="L" horiz-adv-x="557" d="M74 0v1686h188v-1498h277v-188h-465z" />
<glyph unicode="M" horiz-adv-x="931" d="M68 0v1686h251q57 -540 142 -1246q92 761 143 1246h258v-1686h-174v492q0 367 8 659q-87 -646 -151 -1151h-164l-148 1151q9 -493 9 -659v-492h-174z" />
<glyph unicode="N" horiz-adv-x="727" d="M68 0v1686h221q124 -697 211 -1145q-4 193 -4 571v574h161v-1686h-184q-53 242 -135 610.5t-113 519.5q4 -231 4 -694v-436h-161z" />
<glyph unicode="O" horiz-adv-x="661" d="M61 268v1149q0 141 67.5 214t201.5 73q270 0 270 -287v-1149q0 -286 -270 -286q-134 0 -201.5 72.5t-67.5 213.5zM250 268q0 -98 80 -98q82 0 82 98v1149q0 96 -82 96q-80 0 -80 -96v-1149z" />
<glyph unicode="P" horiz-adv-x="663" d="M74 0v1686h266q151 0 222 -74.5t71 -231.5v-276q0 -158 -70.5 -230.5t-220.5 -72.5h-80v-801h-188zM262 985h80q54 0 79 27t25 86v284q0 58 -25 85.5t-81 27.5h-78v-510z" />
<glyph unicode="Q" horiz-adv-x="661" d="M59 297v1120q0 141 68 214t203 73q270 0 270 -287v-1120q0 -258 -217 -285q7 -28 36.5 -43.5t72.5 -15.5q65 0 108 43v-148q-45 -45 -139 -45q-99 0 -152 62.5t-53 150.5q-197 37 -197 281zM250 287q0 -97 80 -97t80 97v1130q0 96 -80 96t-80 -96v-1130z" />
<glyph unicode="R" horiz-adv-x="679" d="M72 0v1686h262q151 0 224 -71t73 -233v-342q0 -95 -27 -153t-84 -90q51 -276 125 -797h-207q-60 522 -98 758h-78v-758h-190zM262 930h74q54 0 78 26t24 82v305q0 83 -20 117.5t-84 34.5h-72v-565z" />
<glyph unicode="S" horiz-adv-x="638" d="M51 260v358h182v-358q0 -42 20.5 -66t59.5 -24q84 0 84 90v240q0 54 -12.5 90.5t-46.5 79.5q-18 23 -103 123t-133 168q-51 71 -51 213v251q0 279 268 279q139 0 200 -67.5t61 -211.5v-307h-177v305q0 90 -79 90q-41 0 -60.5 -21t-19.5 -67v-249q0 -74 32 -115 q31 -40 114 -137.5t124 -153.5q41 -58 56.5 -118t15.5 -150v-242q0 -278 -267 -278q-268 0 -268 278z" />
<glyph unicode="T" horiz-adv-x="581" d="M20 1495v191h541v-191h-176v-1495h-188v1495h-177z" />
<glyph unicode="U" horiz-adv-x="671" d="M68 268v1418h188v-1418q0 -98 80 -98t80 98v1418h188v-1418q0 -286 -268 -286t-268 286z" />
<glyph unicode="V" horiz-adv-x="696" d="M23 1686h196q20 -225 52 -547t52 -533t23 -278q4 65 27 279t56.5 529.5t55.5 549.5h189l-207 -1686h-252z" />
<glyph unicode="W" horiz-adv-x="1089" d="M23 1686h196q18 -254 44 -550t42.5 -479t18.5 -221q0 1 133 1250h176q22 -243 50.5 -548.5t45 -482.5t19.5 -219q2 41 20 220t48 481t52 549h199l-201 -1686h-223q-102 1083 -104 1167q-1 -22 -117 -1167h-225z" />
<glyph unicode="X" horiz-adv-x="700" d="M8 0l232 901l-195 785h203q14 -86 39.5 -217.5t43.5 -225.5t21 -125q4 34 46.5 245.5t60.5 322.5h196l-198 -779l235 -907h-203q-26 140 -82.5 400t-62.5 302q-3 -38 -26.5 -150t-59.5 -278t-57 -274h-193z" />
<glyph unicode="Y" horiz-adv-x="684" d="M16 1686h199q26 -156 76.5 -396.5t54.5 -269.5q4 31 57 272t80 394h185l-234 -949v-737h-192v737z" />
<glyph unicode="Z" horiz-adv-x="632" d="M49 0v193l348 1308h-334v185h523v-170l-340 -1323h340v-193h-537z" />
<glyph unicode="[" horiz-adv-x="512" d="M150 -164v2013h321v-137h-186v-1739h186v-137h-321z" />
<glyph unicode="\" horiz-adv-x="495" d="M10 1686h140l335 -1686h-137z" />
<glyph unicode="]" horiz-adv-x="512" d="M150 -27h186v1739h-186v137h321v-2013h-321v137z" />
<glyph unicode="^" horiz-adv-x="653" d="M74 1077l168 609h172l166 -609h-136l-112 461l-123 -461h-135z" />
<glyph unicode="_" horiz-adv-x="620" d="M-2 -94h625v-127h-625v127z" />
<glyph unicode="`" horiz-adv-x="591" d="M74 1673h217l227 -330h-164z" />
<glyph unicode="a" horiz-adv-x="583" d="M43 182v187q0 51 9 94t21.5 74.5t37.5 60t46 47.5t58 40t62.5 33t70.5 32v286q0 80 -67 80q-40 0 -55 -19.5t-15 -60.5v-266h-150v268q0 250 224 250q227 0 227 -250v-929q0 -76 10 -109h-155q-9 27 -9 70q-50 -88 -141 -88q-174 0 -174 200zM211 225q0 -78 70 -78 q50 0 67 56v409q-23 -8 -41 -17.5t-31.5 -18.5t-24 -23t-17 -24t-11.5 -28t-7 -30t-3.5 -35.5t-1.5 -37v-42.5v-131z" />
<glyph unicode="b" horiz-adv-x="622" d="M74 0v1686h170v-457q49 59 133 59q95 0 139.5 -55.5t44.5 -177.5v-803q0 -134 -52 -199t-163 -65q-104 0 -160 94q-5 -34 -26 -82h-86zM244 227q22 -57 78 -57q36 0 52.5 19t16.5 61v786q0 74 -69 74q-57 0 -78 -55v-828z" />
<glyph unicode="c" horiz-adv-x="581" d="M61 240v786q0 121 59.5 191.5t176.5 70.5q114 0 169.5 -69.5t55.5 -190.5v-274h-155v278q0 80 -70 80q-33 0 -51.5 -21.5t-18.5 -60.5v-790q0 -84 70 -84t70 84v278h159v-282q0 -118 -57 -186t-172 -68q-117 0 -176.5 69.5t-59.5 188.5z" />
<glyph unicode="d" horiz-adv-x="622" d="M61 227v828q0 122 45 177.5t140 55.5q84 0 133 -59v457h170v-1686h-143q-7 44 -7 82q-21 -48 -58 -71t-101 -23q-86 0 -132.5 60.5t-46.5 178.5zM231 250q0 -42 17 -61t53 -19q56 0 78 57v832q-21 55 -78 55q-70 0 -70 -76v-788z" />
<glyph unicode="e" d="M61 238v790q0 129 57 194.5t167 65.5q229 0 229 -260v-418h-295v-372q0 -82 66 -82q69 0 69 84v276h160v-278q0 -256 -229 -256q-224 0 -224 256zM219 733h135v295q0 82 -69 82q-66 0 -66 -82v-295z" />
<glyph unicode="f" horiz-adv-x="391" d="M18 1118v150h62v176q0 252 199 252q50 0 94 -13v-145q-10 4 -41 4q-82 0 -82 -102v-172h119v-150h-119v-1118h-170v1118h-62z" />
<glyph unicode="g" horiz-adv-x="622" d="M61 291v749q0 118 46.5 179t132.5 61q108 0 159 -94q0 38 7 82h143v-1334q0 -239 -236 -239q-128 0 -181.5 59.5t-53.5 179.5v52h153v-60q0 -82 78 -82q76 0 76 82v193q-50 -60 -141 -60q-94 0 -138.5 55.5t-44.5 176.5zM229 299q0 -76 72 -76q58 0 84 56v761 q-24 56 -84 56q-72 0 -72 -74v-723z" />
<glyph unicode="h" horiz-adv-x="620" d="M74 0v1686h170v-469q58 71 151 71q82 0 121 -57t39 -176v-1055h-172v1044q0 40 -14.5 58t-46.5 18q-56 0 -78 -49v-1071h-170z" />
<glyph unicode="i" horiz-adv-x="323" d="M78 0v1268h170v-1268h-170zM78 1430v256h170v-256h-170z" />
<glyph unicode="j" horiz-adv-x="352" d="M-49 -117q27 -8 76 -8q77 0 77 98v1295h170v-1295q0 -138 -61.5 -203t-185.5 -65q-30 0 -76 8v170zM104 1430v256h170v-256h-170z" />
<glyph unicode="k" horiz-adv-x="614" d="M72 0v1686h168v-664q0 -199 -2 -293q88 281 182 539h176l-201 -553l207 -715h-186q-131 462 -178 643q2 -111 2 -340v-303h-168z" />
<glyph unicode="l" horiz-adv-x="317" d="M74 0v1686h170v-1686h-170z" />
<glyph unicode="m" horiz-adv-x="905" d="M74 0v1268h143q6 -38 6 -80q59 100 162 100t133 -94q58 94 166 94q154 0 154 -237v-1051h-170v1049q0 71 -56 71q-46 0 -71 -49v-1071h-170v1049q0 71 -58 71q-47 0 -69 -49v-1071h-170z" />
<glyph unicode="n" horiz-adv-x="620" d="M74 0v1268h143q6 -38 6 -82q60 102 170 102q162 0 162 -233v-1055h-172v1044q0 40 -14.5 58t-46.5 18q-56 0 -78 -49v-1071h-170z" />
<glyph unicode="o" horiz-adv-x="595" d="M61 233v801q0 254 238 254q117 0 177.5 -65.5t60.5 -188.5v-801q0 -122 -60.5 -186.5t-177.5 -64.5q-238 0 -238 251zM227 238q0 -41 16.5 -61.5t55.5 -20.5q38 0 54 20.5t16 63.5v788q0 42 -16 63t-54 21q-72 0 -72 -84v-790z" />
<glyph unicode="p" horiz-adv-x="622" d="M74 -285v1553h143q6 -40 6 -82q21 48 58.5 71t101.5 23q86 0 132 -60.5t46 -179.5v-827q0 -122 -44.5 -176.5t-139.5 -54.5q-85 0 -133 57v-324h-170zM244 209q21 -55 78 -55q36 0 52.5 18t16.5 57v789q0 43 -16.5 61.5t-52.5 18.5q-57 0 -78 -56v-833z" />
<glyph unicode="q" horiz-adv-x="622" d="M61 213v827q0 118 46.5 179t132.5 61q114 0 159 -94q0 35 7 82h143v-1553h-170v324q-48 -57 -133 -57q-95 0 -140 54.5t-45 176.5zM231 229q0 -75 70 -75q57 0 78 55v838q-21 55 -78 55q-70 0 -70 -80v-793z" />
<glyph unicode="r" horiz-adv-x="423" d="M74 0v1268h143q6 -38 6 -78q45 92 139 92q19 0 39 -8v-191q-24 15 -65 15q-69 0 -92 -56v-1042h-170z" />
<glyph unicode="s" horiz-adv-x="571" d="M51 223v201h156v-197q0 -37 19.5 -57t52.5 -20q67 0 67 77v138q0 40 -7.5 62t-31.5 54q-32 43 -101.5 117.5t-99.5 114.5q-55 70 -55 205v120q0 132 58 191t172 59q130 0 179.5 -58t49.5 -192v-200h-156v200q0 37 -18.5 57.5t-50.5 20.5q-66 0 -66 -78v-139 q0 -33 6 -54.5t27 -47.5q31 -41 98.5 -110t95.5 -105q41 -54 55.5 -106.5t14.5 -135.5v-125q0 -122 -60 -177.5t-182 -55.5q-223 0 -223 241z" />
<glyph unicode="t" horiz-adv-x="391" d="M16 1118v150h62v401h172v-401h117v-150h-117v-872q0 -117 94 -117q19 0 27 2v-141q-21 -8 -64 -8q-114 0 -171.5 68.5t-57.5 193.5v874h-62z" />
<glyph unicode="u" horiz-adv-x="616" d="M68 205v1063h170v-1037q0 -40 14 -57.5t45 -17.5q54 0 76 49v1063h172v-1268h-146q-6 38 -6 80q-59 -92 -166 -92q-76 0 -117.5 57t-41.5 160z" />
<glyph unicode="v" horiz-adv-x="569" d="M18 1268h172q19 -173 39.5 -355t32 -290t19.5 -195q12 106 45 372t57 468h164l-182 -1268h-170z" />
<glyph unicode="w" horiz-adv-x="864" d="M25 1268h157l68 -934l100 934h158l88 -934l84 934h158l-131 -1268h-201l-80 879l-88 -879h-199z" />
<glyph unicode="x" horiz-adv-x="585" d="M12 0l168 678l-143 590h178q59 -287 80 -451q23 180 82 451h170l-144 -588l170 -680h-176q-97 481 -108 561q-21 -151 -107 -561h-170z" />
<glyph unicode="y" horiz-adv-x="569" d="M18 1268h179q54 -491 86 -889q50 483 100 889h164l-172 -1221q-12 -75 -22 -119.5t-29.5 -92.5t-45.5 -73t-67 -41t-98 -16q-26 0 -76 10v170q27 -8 69 -8q40 0 58.5 33t28.5 102l4 27z" />
<glyph unicode="z" horiz-adv-x="526" d="M49 0v162l268 938h-264v168h426v-158l-260 -936h258v-174h-428z" />
<glyph unicode="{" horiz-adv-x="559" d="M31 844l155 194q18 21 24.5 41.5t6.5 57.5v430q0 282 291 282h16v-137h-14q-83 0 -120.5 -35t-37.5 -116v-416q0 -64 -12.5 -102t-46.5 -80l-96 -119l96 -121q34 -41 46.5 -81t12.5 -103v-414q0 -81 37.5 -116.5t120.5 -35.5h14v-137h-16q-291 0 -291 281v432 q0 37 -6.5 57t-24.5 41z" />
<glyph unicode="|" horiz-adv-x="413" d="M137 -164v2013h137v-2013h-137z" />
<glyph unicode="}" horiz-adv-x="559" d="M31 -27h14q83 0 120.5 35.5t37.5 116.5v414q0 63 12.5 103t46.5 81l96 121l-96 119q-34 42 -46.5 80t-12.5 102v416q0 81 -37.5 116t-120.5 35h-14v137h16q291 0 291 -282v-430q0 -37 6.5 -57.5t24.5 -41.5l155 -194l-155 -197q-18 -21 -24.5 -41t-6.5 -57v-432 q0 -281 -291 -281h-16v137z" />
<glyph unicode="~" horiz-adv-x="956" d="M74 733v168q78 78 205 78q67 0 138 -23.5t134 -47t111 -23.5q69 0 120.5 23t104.5 79v-168q-94 -76 -232 -76q-68 0 -189.5 47.5t-180.5 47.5q-60 0 -110.5 -23.5t-100.5 -81.5z" />
<glyph unicode="&#xa1;" horiz-adv-x="354" d="M80 0v748l39 612h119l36 -608v-752h-194zM80 1462v224h194v-224h-194z" />
<glyph unicode="&#xa2;" horiz-adv-x="577" d="M61 440v781q0 112 52.5 180.5t152.5 77.5v207h64v-207q98 -10 145 -77.5t47 -178.5v-279h-137v281q0 31 -17 53t-44 25v-945q61 7 61 82v271h141v-275q0 -110 -49 -176.5t-147 -75.5v-184h-64v182q-100 7 -152.5 77t-52.5 181zM211 440q0 -77 63 -80v943 q-30 -4 -46.5 -25.5t-16.5 -52.5v-785z" />
<glyph unicode="&#xa3;" horiz-adv-x="587" d="M39 -18v174q39 53 102 61q15 164 15 399v328h-111v143h111v293q0 156 65.5 240t188.5 84q69 0 104 -14v-174q-38 14 -68 14q-127 0 -127 -148v-295h195v-143h-195v-330q0 -248 -24 -430q10 -3 34 -14.5t46 -18t45 -6.5q78 0 121 62h8v-162q-43 -61 -135 -61 q-52 0 -129.5 37.5t-110.5 37.5q-73 0 -127 -77h-8z" />
<glyph unicode="&#xa4;" horiz-adv-x="1005" d="M31 428q6 7 36 36.5t62.5 61t36.5 35.5q-78 105 -78 240q0 128 78 239l-133 129l100 105l129 -137q104 80 240 80q133 0 241 -82l125 139l103 -105l-133 -129q80 -107 80 -239t-80 -240l135 -133l-103 -102l-129 139q-116 -78 -239 -78q-133 0 -238 78l-133 -139z M244 801q0 -108 75 -183t183 -75t184 75t76 183q0 107 -76.5 182.5t-183.5 75.5t-182.5 -75.5t-75.5 -182.5z" />
<glyph unicode="&#xa5;" horiz-adv-x="700" d="M23 1686h200l131 -666l135 666h187l-242 -955v-84h223v-147h-223v-174h223v-148h-223v-178h-178v178h-223v148h223v174h-223v147h223v84z" />
<glyph unicode="&#xa6;" horiz-adv-x="413" d="M137 -164v826h137v-826h-137zM137 1024v825h137v-825h-137z" />
<glyph unicode="&#xa7;" horiz-adv-x="591" d="M51 698v144q0 166 111 211q-54 67 -75 118.5t-21 133.5v157q0 123 57.5 182.5t175.5 59.5q121 0 173 -58.5t52 -183.5v-207h-153v197q0 44 -15.5 65t-52.5 21t-53.5 -18t-16.5 -58v-155q0 -65 29 -101q28 -36 99 -120t106 -132q37 -50 50 -102t13 -131v-143 q0 -168 -110 -211q58 -77 77 -123.5t19 -128.5v-158q0 -123 -57.5 -182.5t-175.5 -59.5q-121 0 -173.5 58.5t-52.5 183.5v207h154v-197q0 -44 15.5 -65t52.5 -21t53 18t16 58v156q0 64 -29 100q-27 35 -98 119t-106 133q-37 51 -50.5 103t-13.5 130zM215 700q0 -46 11 -78.5 t40 -68.5l43 -55q34 4 46 23t12 57v141q0 84 -52 147l-45 54q-32 -3 -43.5 -22t-11.5 -56v-142z" />
<glyph unicode="&#xa8;" horiz-adv-x="628" d="M74 1368v256h170v-256h-170zM385 1368v256h172v-256h-172z" />
<glyph unicode="&#xaa;" horiz-adv-x="444" d="M84 715v102q0 45 10.5 77t31 53t45 36.5t58.5 33.5q3 1 4 1.5l3 1.5l4 2v164q0 26 -25 26t-25 -26v-148h-96v148q0 137 123 137q129 0 129 -137v-512q0 -45 6 -60h-100q-4 10 -4 35q-27 -45 -72 -45q-92 0 -92 111zM193 735q0 -22 24 -22q17 0 23 16v205 q-26 -15 -36.5 -30t-10.5 -44v-125z" />
<glyph unicode="&#xab;" horiz-adv-x="798" d="M37 586v194l325 217v-159l-235 -154l235 -162v-166zM436 586v194l326 217v-159l-236 -154l236 -162v-166z" />
<glyph unicode="&#xac;" horiz-adv-x="874" d="M39 766v180h762v-946h-176v766h-586z" />
<glyph unicode="&#xad;" horiz-adv-x="372" d="M25 776v146h327v-146h-327z" />
<glyph unicode="&#xaf;" horiz-adv-x="624" d="M74 1421v148h479v-148h-479z" />
<glyph unicode="&#xb0;" horiz-adv-x="626" d="M61 1415q0 122 65 198.5t187 76.5q120 0 186 -76.5t66 -198.5t-65.5 -195t-186.5 -73q-123 0 -187.5 73t-64.5 195zM164 1415q0 -164 147 -164q75 0 109.5 40t34.5 124q0 85 -35 126.5t-109 41.5q-147 0 -147 -168z" />
<glyph unicode="&#xb1;" horiz-adv-x="954" d="M72 236v141h811v-141h-811zM74 788v142h334v334h141v-334h336v-142h-336v-335h-141v335h-334z" />
<glyph unicode="&#xb2;" horiz-adv-x="380" d="M55 864v154q0 78 15 125.5t67 124.5q43 66 60.5 112t17.5 103v90q0 31 -25 31q-24 0 -24 -31v-150h-111v148q0 76 32.5 110.5t102.5 34.5q138 0 138 -145v-103q0 -112 -84 -237q-50 -75 -64 -116.5t-14 -96.5v-43h162v-111h-273z" />
<glyph unicode="&#xb3;" horiz-adv-x="380" d="M53 997v166h113v-166q0 -30 24 -30q27 0 27 30v211q0 33 -27 33h-43v105h50q20 0 20 32v195q0 31 -27 31q-24 0 -24 -31v-152h-109v150q0 76 32 110.5t101 34.5q70 0 102 -35t32 -112v-191q0 -60 -50 -86q52 -18 52 -88v-207q0 -67 -34.5 -105t-101.5 -38 q-66 0 -101.5 38.5t-35.5 104.5z" />
<glyph unicode="&#xb4;" horiz-adv-x="591" d="M74 1343l225 330h219l-280 -330h-164z" />
<glyph unicode="&#xb6;" horiz-adv-x="884" d="M31 1450q0 106 51 171t160 65h608v-183h-123v-1777h-158v1777h-155v-1562q0 -105 -53 -172.5t-150 -67.5q-44 0 -90 14v131q27 -6 41 -6q50 0 70 23t20 80v1284h-16q-106 0 -155.5 59.5t-49.5 163.5zM160 1409q0 -39 16 -64.5t45 -25.5h31v184h-23q-69 0 -69 -94z" />
<glyph unicode="&#xb7;" horiz-adv-x="296" d="M61 717v256h177v-256h-177z" />
<glyph unicode="&#xb8;" horiz-adv-x="288" d="M74 -41h141v-180q0 -84 -90 -84h-35v57h29q22 0 22 25v35h-67v147z" />
<glyph unicode="&#xb9;" horiz-adv-x="270" d="M45 1536v109h21q36 0 36 41v20h101v-842h-111v672h-47z" />
<glyph unicode="&#xba;" horiz-adv-x="452" d="M92 743v441q0 139 133 139t133 -139v-441q0 -139 -133 -139t-133 139zM201 748q0 -31 24 -31q25 0 25 31v432q0 28 -25 28q-24 0 -24 -28v-432z" />
<glyph unicode="&#xbb;" horiz-adv-x="798" d="M37 356v166l235 162l-235 154v159l325 -217v-194zM436 356v166l236 162l-236 154v159l326 -217v-194z" />
<glyph unicode="&#xbc;" horiz-adv-x="991" d="M57 0l752 1686h125l-750 -1686h-127zM137 1536v109h21q37 0 37 41v20h100v-842h-111v672h-47zM602 141v97l172 583h103v-573h41v-107h-41v-161h-103v161h-172zM700 248h74q0 138 6 291q-16 -80 -80 -291z" />
<glyph unicode="&#xbd;" horiz-adv-x="991" d="M57 0l752 1686h125l-750 -1686h-127zM137 1536v109h21q37 0 37 41v20h100v-842h-111v672h-47zM641 -20v153q0 78 15 125.5t67 124.5q43 66 60.5 112t17.5 103v90q0 31 -25 31q-24 0 -24 -31v-149h-111v147q0 76 32.5 110.5t102.5 34.5q137 0 137 -145v-102 q0 -113 -84 -238q-49 -75 -63 -116.5t-14 -96.5v-43h161v-110h-272z" />
<glyph unicode="&#xbe;" horiz-adv-x="991" d="M57 0l752 1686h125l-750 -1686h-127zM96 997v166h113v-166q0 -30 24 -30q27 0 27 30v211q0 33 -27 33h-43v105h50q20 0 20 32v195q0 31 -27 31q-24 0 -24 -31v-152h-109v150q0 76 32 110.5t101 34.5q70 0 102 -35t32 -112v-191q0 -60 -50 -86q52 -18 52 -88v-207 q0 -67 -34.5 -105t-101.5 -38q-66 0 -101.5 38.5t-35.5 104.5zM561 141v97l172 583h103v-573h41v-107h-41v-161h-103v161h-172zM659 248h74q0 138 6 291q-16 -80 -80 -291z" />
<glyph unicode="&#xbf;" horiz-adv-x="614" d="M43 274v185q0 120 23.5 198t78.5 142q69 80 84 122.5t15 149.5v232h176v-228q0 -122 -21.5 -193.5t-79.5 -138.5q-61 -72 -75.5 -116.5t-14.5 -167.5v-189q0 -98 78 -98q80 0 80 96v299h180v-295q0 -150 -62.5 -220t-197.5 -70t-199.5 71t-64.5 221zM244 1430v256h176 v-256h-176z" />
<glyph unicode="&#xc0;" horiz-adv-x="690" d="M20 0l220 1686h219l207 -1686h-191l-31 260h-206q-19 -138 -33 -260h-185zM20 2091h218l227 -330h-164zM256 434h168q-49 428 -82 766q-41 -420 -86 -766z" />
<glyph unicode="&#xc1;" horiz-adv-x="690" d="M20 0l220 1686h219l207 -1686h-191l-31 260h-206q-19 -138 -33 -260h-185zM225 1761l226 330h219l-281 -330h-164zM256 434h168q-49 428 -82 766q-41 -420 -86 -766z" />
<glyph unicode="&#xc2;" horiz-adv-x="690" d="M20 0l220 1686h219l207 -1686h-191l-31 260h-206q-19 -138 -33 -260h-185zM41 1761l209 330h201l198 -330h-166l-139 238l-145 -238h-158zM256 434h168q-49 428 -82 766q-41 -420 -86 -766z" />
<glyph unicode="&#xc3;" horiz-adv-x="690" d="M20 0l220 1686h219l207 -1686h-191l-31 260h-206q-19 -138 -33 -260h-185zM94 1821v145q46 53 127 53q51 0 130.5 -31.5t125.5 -31.5q74 0 115 57h2v-147q-48 -51 -127 -51q-50 0 -131 32.5t-125 32.5q-69 0 -115 -59h-2zM256 434h168q-49 428 -82 766q-41 -420 -86 -766 z" />
<glyph unicode="&#xc4;" horiz-adv-x="690" d="M20 0l220 1686h219l207 -1686h-191l-31 260h-206q-19 -138 -33 -260h-185zM102 1786v256h170v-256h-170zM256 434h168q-49 428 -82 766q-41 -420 -86 -766zM414 1786v256h172v-256h-172z" />
<glyph unicode="&#xc5;" horiz-adv-x="690" d="M20 0l220 1686h219l207 -1686h-191l-31 260h-206q-19 -138 -33 -260h-185zM143 1927q0 73 51.5 118.5t147.5 45.5q98 0 150.5 -45.5t52.5 -118.5q0 -72 -52.5 -116t-150.5 -44q-96 0 -147.5 44t-51.5 116zM227 1927q0 -86 115 -86q113 0 113 86q0 90 -113 90 q-115 0 -115 -90zM256 434h168q-49 428 -82 766q-41 -420 -86 -766z" />
<glyph unicode="&#xc6;" horiz-adv-x="956" d="M23 0l219 1686h667v-191h-264v-541h178v-190h-178v-576h273v-188h-465v262h-213l-33 -262h-184zM260 434h193v1061h-64z" />
<glyph unicode="&#xc7;" horiz-adv-x="634" d="M61 266v1147q0 291 273 291q126 0 188 -70.5t62 -216.5v-299h-172v299q0 50 -18 73t-60 23q-80 0 -80 -96v-1149q0 -98 80 -98q41 0 59.5 24t18.5 74v350h172v-348q0 -148 -60 -218t-190 -70q-273 0 -273 284zM266 -41h142v-180q0 -84 -91 -84h-34v57h28q23 0 23 25v35 h-68v147z" />
<glyph unicode="&#xc8;" d="M-27 2091h217l228 -330h-164zM74 0v1686h454v-191h-266v-541h178v-190h-178v-576h277v-188h-465z" />
<glyph unicode="&#xc9;" d="M74 0v1686h454v-191h-266v-541h178v-190h-178v-576h277v-188h-465zM168 1761l225 330h219l-280 -330h-164z" />
<glyph unicode="&#xca;" d="M-6 1761l209 330h200l199 -330h-166l-139 238l-145 -238h-158zM74 0v1686h454v-191h-266v-541h178v-190h-178v-576h277v-188h-465z" />
<glyph unicode="&#xcb;" d="M57 1786v256h170v-256h-170zM74 0v1686h454v-191h-266v-541h178v-190h-178v-576h277v-188h-465zM369 1786v256h172v-256h-172z" />
<glyph unicode="&#xcc;" horiz-adv-x="344" d="M-152 2091h218l227 -330h-164zM78 0v1686h188v-1686h-188z" />
<glyph unicode="&#xcd;" horiz-adv-x="344" d="M53 1761l226 330h219l-281 -330h-164zM78 0v1686h188v-1686h-188z" />
<glyph unicode="&#xce;" horiz-adv-x="344" d="M-131 1761l209 330h201l198 -330h-166l-139 238l-145 -238h-158zM78 0v1686h188v-1686h-188z" />
<glyph unicode="&#xcf;" horiz-adv-x="344" d="M-70 1786v256h170v-256h-170zM78 0v1686h188v-1686h-188zM242 1786v256h172v-256h-172z" />
<glyph unicode="&#xd0;" horiz-adv-x="667" d="M18 764v190h52v732h268q132 0 201 -76t69 -213v-1110q0 -287 -270 -287h-268v764h-52zM260 188h78q40 0 61 26t21 73v1112q0 43 -20.5 69.5t-61.5 26.5h-78v-541h92v-190h-92v-576z" />
<glyph unicode="&#xd1;" horiz-adv-x="727" d="M68 0v1686h221q124 -697 211 -1145q-4 193 -4 571v574h161v-1686h-184q-53 242 -135 610.5t-113 519.5q4 -231 4 -694v-436h-161zM113 1821v145q46 53 127 53q51 0 130.5 -31.5t125.5 -31.5q73 0 114 57h2v-147q-48 -51 -127 -51q-50 0 -131 32.5t-125 32.5 q-68 0 -114 -59h-2z" />
<glyph unicode="&#xd2;" horiz-adv-x="661" d="M6 2091h217l228 -330h-164zM61 268v1149q0 141 67.5 214t201.5 73q270 0 270 -287v-1149q0 -286 -270 -286q-134 0 -201.5 72.5t-67.5 213.5zM250 268q0 -98 80 -98q82 0 82 98v1149q0 96 -82 96q-80 0 -80 -96v-1149z" />
<glyph unicode="&#xd3;" horiz-adv-x="661" d="M61 268v1149q0 141 67.5 214t201.5 73q270 0 270 -287v-1149q0 -286 -270 -286q-134 0 -201.5 72.5t-67.5 213.5zM211 1761l225 330h219l-280 -330h-164zM250 268q0 -98 80 -98q82 0 82 98v1149q0 96 -82 96q-80 0 -80 -96v-1149z" />
<glyph unicode="&#xd4;" horiz-adv-x="661" d="M27 1761l209 330h200l199 -330h-166l-139 238l-146 -238h-157zM61 268v1149q0 141 67.5 214t201.5 73q270 0 270 -287v-1149q0 -286 -270 -286q-134 0 -201.5 72.5t-67.5 213.5zM250 268q0 -98 80 -98q82 0 82 98v1149q0 96 -82 96q-80 0 -80 -96v-1149z" />
<glyph unicode="&#xd5;" horiz-adv-x="661" d="M61 268v1149q0 141 67.5 214t201.5 73q270 0 270 -287v-1149q0 -286 -270 -286q-134 0 -201.5 72.5t-67.5 213.5zM80 1821v145q46 53 127 53q51 0 130.5 -31.5t125.5 -31.5q74 0 115 57h2v-147q-48 -51 -127 -51q-50 0 -131 32.5t-125 32.5q-69 0 -115 -59h-2zM250 268 q0 -98 80 -98q82 0 82 98v1149q0 96 -82 96q-80 0 -80 -96v-1149z" />
<glyph unicode="&#xd6;" horiz-adv-x="661" d="M61 268v1149q0 141 67.5 214t201.5 73q270 0 270 -287v-1149q0 -286 -270 -286q-134 0 -201.5 72.5t-67.5 213.5zM88 1786v256h170v-256h-170zM250 268q0 -98 80 -98q82 0 82 98v1149q0 96 -82 96q-80 0 -80 -96v-1149zM399 1786v256h172v-256h-172z" />
<glyph unicode="&#xd7;" horiz-adv-x="954" d="M141 623l238 235l-238 236l101 100l235 -236l238 238l100 -100l-237 -238l237 -237l-100 -101l-238 238l-235 -236z" />
<glyph unicode="&#xd8;" horiz-adv-x="661" d="M59 -193l58 261q-56 74 -56 200v1149q0 141 67.5 214t201.5 73q78 0 141 -29l45 203h84l-57 -260q57 -72 57 -201v-1149q0 -286 -270 -286q-83 0 -144 28l-45 -203h-82zM250 268q0 -98 80 -98q82 0 82 98v760l-162 -731v-29zM250 672l162 733v12q0 96 -82 96 q-80 0 -80 -96v-745z" />
<glyph unicode="&#xd9;" horiz-adv-x="671" d="M12 2091h217l228 -330h-164zM68 268v1418h188v-1418q0 -98 80 -98t80 98v1418h188v-1418q0 -286 -268 -286t-268 286z" />
<glyph unicode="&#xda;" horiz-adv-x="671" d="M68 268v1418h188v-1418q0 -98 80 -98t80 98v1418h188v-1418q0 -286 -268 -286t-268 286zM215 1761l225 330h219l-280 -330h-164z" />
<glyph unicode="&#xdb;" horiz-adv-x="671" d="M33 1761l209 330h200l199 -330h-166l-139 238l-146 -238h-157zM68 268v1418h188v-1418q0 -98 80 -98t80 98v1418h188v-1418q0 -286 -268 -286t-268 286z" />
<glyph unicode="&#xdc;" horiz-adv-x="671" d="M68 268v1418h188v-1418q0 -98 80 -98t80 98v1418h188v-1418q0 -286 -268 -286t-268 286zM94 1786v256h170v-256h-170zM406 1786v256h172v-256h-172z" />
<glyph unicode="&#xdd;" horiz-adv-x="684" d="M16 1686h199q26 -156 76.5 -396.5t54.5 -269.5q4 31 57 272t80 394h185l-234 -949v-737h-192v737zM223 1761l226 330h219l-281 -330h-164z" />
<glyph unicode="&#xde;" horiz-adv-x="673" d="M74 0v1686h188v-300h84q150 0 223.5 -74t73.5 -229v-518q0 -148 -74.5 -225.5t-220.5 -77.5h-86v-262h-188zM262 451h86q105 0 105 114v518q0 113 -107 113h-84v-745z" />
<glyph unicode="&#xdf;" horiz-adv-x="675" d="M74 0v1452q0 252 237 252q116 0 176 -65t60 -187v-420q0 -46 -17 -79t-38 -44q59 -16 94 -68t35 -139v-460q0 -134 -53.5 -197t-176.5 -63q-48 0 -72 8l3 170q21 -6 55 -6q40 0 58 20.5t18 67.5v467q0 86 -76 86h-82v163h29q57 0 57 74v414q0 84 -70 84q-71 0 -71 -84 v-1446h-166z" />
<glyph unicode="&#xe0;" horiz-adv-x="583" d="M-33 1673h217l228 -330h-164zM43 182v187q0 51 9 94t21.5 74.5t37.5 60t46 47.5t58 40t62.5 33t70.5 32v286q0 80 -67 80q-40 0 -55 -19.5t-15 -60.5v-266h-150v268q0 250 224 250q227 0 227 -250v-929q0 -76 10 -109h-155q-9 27 -9 70q-50 -88 -141 -88q-174 0 -174 200 zM211 225q0 -78 70 -78q50 0 67 56v409q-23 -8 -41 -17.5t-31.5 -18.5t-24 -23t-17 -24t-11.5 -28t-7 -30t-3.5 -35.5t-1.5 -37v-42.5v-131z" />
<glyph unicode="&#xe1;" horiz-adv-x="583" d="M43 182v187q0 51 9 94t21.5 74.5t37.5 60t46 47.5t58 40t62.5 33t70.5 32v286q0 80 -67 80q-40 0 -55 -19.5t-15 -60.5v-266h-150v268q0 250 224 250q227 0 227 -250v-929q0 -76 10 -109h-155q-9 27 -9 70q-50 -88 -141 -88q-174 0 -174 200zM172 1343l225 330h219 l-280 -330h-164zM211 225q0 -78 70 -78q50 0 67 56v409q-23 -8 -41 -17.5t-31.5 -18.5t-24 -23t-17 -24t-11.5 -28t-7 -30t-3.5 -35.5t-1.5 -37v-42.5v-131z" />
<glyph unicode="&#xe2;" horiz-adv-x="583" d="M-12 1343l209 330h200l199 -330h-166l-139 238l-146 -238h-157zM43 182v187q0 51 9 94t21.5 74.5t37.5 60t46 47.5t58 40t62.5 33t70.5 32v286q0 80 -67 80q-40 0 -55 -19.5t-15 -60.5v-266h-150v268q0 250 224 250q227 0 227 -250v-929q0 -76 10 -109h-155q-9 27 -9 70 q-50 -88 -141 -88q-174 0 -174 200zM211 225q0 -78 70 -78q50 0 67 56v409q-23 -8 -41 -17.5t-31.5 -18.5t-24 -23t-17 -24t-11.5 -28t-7 -30t-3.5 -35.5t-1.5 -37v-42.5v-131z" />
<glyph unicode="&#xe3;" horiz-adv-x="583" d="M43 182v187q0 51 9 94t21.5 74.5t37.5 60t46 47.5t58 40t62.5 33t70.5 32v286q0 80 -67 80q-40 0 -55 -19.5t-15 -60.5v-266h-150v268q0 250 224 250q227 0 227 -250v-929q0 -76 10 -109h-155q-9 27 -9 70q-50 -88 -141 -88q-174 0 -174 200zM43 1403v145q47 54 127 54 q51 0 130.5 -32t125.5 -32q74 0 115 57h2v-147q-48 -51 -127 -51q-50 0 -131 32.5t-125 32.5q-69 0 -115 -59h-2zM211 225q0 -78 70 -78q50 0 67 56v409q-23 -8 -41 -17.5t-31.5 -18.5t-24 -23t-17 -24t-11.5 -28t-7 -30t-3.5 -35.5t-1.5 -37v-42.5v-131z" />
<glyph unicode="&#xe4;" horiz-adv-x="583" d="M43 182v187q0 51 9 94t21.5 74.5t37.5 60t46 47.5t58 40t62.5 33t70.5 32v286q0 80 -67 80q-40 0 -55 -19.5t-15 -60.5v-266h-150v268q0 250 224 250q227 0 227 -250v-929q0 -76 10 -109h-155q-9 27 -9 70q-50 -88 -141 -88q-174 0 -174 200zM51 1368v256h170v-256h-170z M211 225q0 -78 70 -78q50 0 67 56v409q-23 -8 -41 -17.5t-31.5 -18.5t-24 -23t-17 -24t-11.5 -28t-7 -30t-3.5 -35.5t-1.5 -37v-42.5v-131zM362 1368v256h173v-256h-173z" />
<glyph unicode="&#xe5;" horiz-adv-x="583" d="M43 182v187q0 51 9 94t21.5 74.5t37.5 60t46 47.5t58 40t62.5 33t70.5 32v286q0 80 -67 80q-40 0 -55 -19.5t-15 -60.5v-266h-150v268q0 250 224 250q227 0 227 -250v-929q0 -76 10 -109h-155q-9 27 -9 70q-50 -88 -141 -88q-174 0 -174 200zM90 1509q0 73 51.5 118.5 t147.5 45.5q98 0 150.5 -45.5t52.5 -118.5q0 -72 -52.5 -115.5t-150.5 -43.5q-97 0 -148 43.5t-51 115.5zM174 1509q0 -86 115 -86q59 0 85.5 21t26.5 65q0 45 -26.5 67.5t-85.5 22.5q-115 0 -115 -90zM211 225q0 -78 70 -78q50 0 67 56v409q-23 -8 -41 -17.5t-31.5 -18.5 t-24 -23t-17 -24t-11.5 -28t-7 -30t-3.5 -35.5t-1.5 -37v-42.5v-131z" />
<glyph unicode="&#xe6;" horiz-adv-x="868" d="M43 182v187q0 51 9 94t21.5 74.5t37.5 60t46 47.5t58 40t62.5 33t70.5 32v288q0 78 -67 78q-70 0 -70 -78v-268h-150v268q0 250 224 250q96 0 149 -47q53 47 144 47q229 0 229 -260v-418h-295v-379q0 -37 18 -56t48 -19q69 0 69 82v278h160v-278q0 -256 -229 -256 q-67 0 -107.5 22.5t-69.5 71.5q-50 -94 -174 -94q-87 0 -135.5 49t-48.5 151zM211 250q0 -53 14.5 -78t55.5 -25q50 0 67 56v409q-23 -8 -41 -17.5t-31.5 -18.5t-24 -23t-17 -24t-11.5 -28t-7 -30t-3.5 -35.5t-1.5 -37v-42.5v-106zM512 733h135v295q0 38 -18.5 60t-50.5 22 q-66 0 -66 -82v-295z" />
<glyph unicode="&#xe7;" horiz-adv-x="581" d="M61 240v786q0 121 59.5 191.5t176.5 70.5q114 0 169.5 -69.5t55.5 -190.5v-274h-155v278q0 80 -70 80q-33 0 -51.5 -21.5t-18.5 -60.5v-790q0 -84 70 -84t70 84v278h159v-282q0 -118 -57 -186t-172 -68q-117 0 -176.5 69.5t-59.5 188.5zM229 -41h142v-180q0 -84 -90 -84 h-35v57h28q23 0 23 25v35h-68v147z" />
<glyph unicode="&#xe8;" d="M-37 1673h217l228 -330h-164zM61 238v790q0 129 57 194.5t167 65.5q229 0 229 -260v-418h-295v-372q0 -82 66 -82q69 0 69 84v276h160v-278q0 -256 -229 -256q-224 0 -224 256zM219 733h135v295q0 82 -69 82q-66 0 -66 -82v-295z" />
<glyph unicode="&#xe9;" d="M61 238v790q0 129 57 194.5t167 65.5q229 0 229 -260v-418h-295v-372q0 -82 66 -82q69 0 69 84v276h160v-278q0 -256 -229 -256q-224 0 -224 256zM168 1343l225 330h219l-280 -330h-164zM219 733h135v295q0 82 -69 82q-66 0 -66 -82v-295z" />
<glyph unicode="&#xea;" d="M-16 1343l209 330h200l199 -330h-166l-139 238l-146 -238h-157zM61 238v790q0 129 57 194.5t167 65.5q229 0 229 -260v-418h-295v-372q0 -82 66 -82q69 0 69 84v276h160v-278q0 -256 -229 -256q-224 0 -224 256zM219 733h135v295q0 82 -69 82q-66 0 -66 -82v-295z" />
<glyph unicode="&#xeb;" d="M47 1368v256h170v-256h-170zM61 238v790q0 129 57 194.5t167 65.5q229 0 229 -260v-418h-295v-372q0 -82 66 -82q69 0 69 84v276h160v-278q0 -256 -229 -256q-224 0 -224 256zM219 733h135v295q0 82 -69 82q-66 0 -66 -82v-295zM358 1368v256h172v-256h-172z" />
<glyph unicode="&#xec;" horiz-adv-x="348" d="M-137 1673h217l227 -330h-164zM102 0v1268h170v-1268h-170z" />
<glyph unicode="&#xed;" horiz-adv-x="380" d="M43 1343l225 330h219l-280 -330h-164zM78 0v1268h170v-1268h-170z" />
<glyph unicode="&#xee;" horiz-adv-x="493" d="M-57 1343l209 330h200l199 -330h-166l-139 238l-146 -238h-157zM162 0v1268h170v-1268h-170z" />
<glyph unicode="&#xef;" horiz-adv-x="389" d="M-49 1368v256h170v-256h-170zM109 0v1268h170v-1268h-170zM262 1368v256h172v-256h-172z" />
<glyph unicode="&#xf0;" horiz-adv-x="661" d="M61 274v541q0 250 228 250q90 0 137 -66v197q0 116 -23 190l-190 -233l-63 55l206 256q-45 43 -149 49v191q178 0 270 -92l88 106l64 -55l-99 -121q70 -126 70 -371v-897q0 -141 -68 -216.5t-202 -75.5q-132 0 -200.5 75.5t-68.5 216.5zM250 281q0 -111 80 -111t80 98 v535q-7 36 -23.5 56t-52.5 20q-84 0 -84 -97v-501z" />
<glyph unicode="&#xf1;" horiz-adv-x="620" d="M61 1403v145q47 54 127 54q51 0 130.5 -32t125.5 -32q74 0 115 57h2v-147q-48 -51 -127 -51q-50 0 -131 32.5t-125 32.5q-69 0 -115 -59h-2zM74 0v1268h143q6 -38 6 -82q60 102 170 102q162 0 162 -233v-1055h-172v1044q0 40 -14.5 58t-46.5 18q-56 0 -78 -49v-1071h-170 z" />
<glyph unicode="&#xf2;" horiz-adv-x="595" d="M-27 1673h217l228 -330h-164zM61 233v801q0 254 238 254q117 0 177.5 -65.5t60.5 -188.5v-801q0 -122 -60.5 -186.5t-177.5 -64.5q-238 0 -238 251zM227 238q0 -41 16.5 -61.5t55.5 -20.5q38 0 54 20.5t16 63.5v788q0 42 -16 63t-54 21q-72 0 -72 -84v-790z" />
<glyph unicode="&#xf3;" horiz-adv-x="595" d="M61 233v801q0 254 238 254q117 0 177.5 -65.5t60.5 -188.5v-801q0 -122 -60.5 -186.5t-177.5 -64.5q-238 0 -238 251zM178 1343l225 330h220l-281 -330h-164zM227 238q0 -41 16.5 -61.5t55.5 -20.5q38 0 54 20.5t16 63.5v788q0 42 -16 63t-54 21q-72 0 -72 -84v-790z" />
<glyph unicode="&#xf4;" horiz-adv-x="595" d="M-6 1343l209 330h200l199 -330h-166l-139 238l-145 -238h-158zM61 233v801q0 254 238 254q117 0 177.5 -65.5t60.5 -188.5v-801q0 -122 -60.5 -186.5t-177.5 -64.5q-238 0 -238 251zM227 238q0 -41 16.5 -61.5t55.5 -20.5q38 0 54 20.5t16 63.5v788q0 42 -16 63t-54 21 q-72 0 -72 -84v-790z" />
<glyph unicode="&#xf5;" horiz-adv-x="595" d="M49 1403v145q47 54 127 54q51 0 130.5 -32t125.5 -32q74 0 115 57h2v-147q-48 -51 -127 -51q-50 0 -131 32.5t-125 32.5q-69 0 -115 -59h-2zM61 233v801q0 254 238 254q117 0 177.5 -65.5t60.5 -188.5v-801q0 -122 -60.5 -186.5t-177.5 -64.5q-238 0 -238 251zM227 238 q0 -41 16.5 -61.5t55.5 -20.5q38 0 54 20.5t16 63.5v788q0 42 -16 63t-54 21q-72 0 -72 -84v-790z" />
<glyph unicode="&#xf6;" horiz-adv-x="595" d="M57 1368v256h170v-256h-170zM61 233v801q0 254 238 254q117 0 177.5 -65.5t60.5 -188.5v-801q0 -122 -60.5 -186.5t-177.5 -64.5q-238 0 -238 251zM227 238q0 -41 16.5 -61.5t55.5 -20.5q38 0 54 20.5t16 63.5v788q0 42 -16 63t-54 21q-72 0 -72 -84v-790zM369 1368v256 h172v-256h-172z" />
<glyph unicode="&#xf7;" horiz-adv-x="954" d="M74 788v142h811v-142h-811zM389 369v256h176v-256h-176zM389 1094v256h176v-256h-176z" />
<glyph unicode="&#xf8;" horiz-adv-x="595" d="M59 -193l58 242q-56 65 -56 184v801q0 254 238 254q63 0 109 -18l45 190h82l-58 -239q60 -66 60 -187v-801q0 -122 -60.5 -186.5t-177.5 -64.5q-57 0 -113 18l-45 -193h-82zM227 514l133 561q-12 37 -61 37q-72 0 -72 -84v-514zM233 193q12 -37 66 -37q38 0 54 20.5 t16 63.5v522z" />
<glyph unicode="&#xf9;" horiz-adv-x="616" d="M-16 1673h217l227 -330h-164zM68 205v1063h170v-1037q0 -40 14 -57.5t45 -17.5q54 0 76 49v1063h172v-1268h-146q-6 38 -6 80q-59 -92 -166 -92q-76 0 -117.5 57t-41.5 160z" />
<glyph unicode="&#xfa;" horiz-adv-x="616" d="M68 205v1063h170v-1037q0 -40 14 -57.5t45 -17.5q54 0 76 49v1063h172v-1268h-146q-6 38 -6 80q-59 -92 -166 -92q-76 0 -117.5 57t-41.5 160zM188 1343l226 330h219l-281 -330h-164z" />
<glyph unicode="&#xfb;" horiz-adv-x="616" d="M4 1343l209 330h201l198 -330h-166l-139 238l-145 -238h-158zM68 205v1063h170v-1037q0 -40 14 -57.5t45 -17.5q54 0 76 49v1063h172v-1268h-146q-6 38 -6 80q-59 -92 -166 -92q-76 0 -117.5 57t-41.5 160z" />
<glyph unicode="&#xfc;" horiz-adv-x="616" d="M68 205v1063h170v-1037q0 -40 14 -57.5t45 -17.5q54 0 76 49v1063h172v-1268h-146q-6 38 -6 80q-59 -92 -166 -92q-76 0 -117.5 57t-41.5 160zM68 1368v256h170v-256h-170zM379 1368v256h172v-256h-172z" />
<glyph unicode="&#xfd;" horiz-adv-x="569" d="M18 1268h179q54 -491 86 -889q50 483 100 889h164l-172 -1221q-12 -75 -22 -119.5t-29.5 -92.5t-45.5 -73t-67 -41t-98 -16q-26 0 -76 10v170q27 -8 69 -8q40 0 58.5 33t28.5 102l4 27zM164 1343l225 330h219l-280 -330h-164z" />
<glyph unicode="&#xfe;" horiz-adv-x="622" d="M74 -285v1971h170v-457q49 59 133 59q95 0 139.5 -55.5t44.5 -177.5v-842q0 -122 -44.5 -176.5t-139.5 -54.5q-85 0 -133 57v-324h-170zM244 213q20 -53 78 -53q36 0 52.5 17.5t16.5 58.5v796q0 41 -16.5 59.5t-52.5 18.5q-57 0 -78 -55v-842z" />
<glyph unicode="&#xff;" horiz-adv-x="569" d="M18 1268h179q54 -491 86 -889q50 483 100 889h164l-172 -1221q-12 -75 -22 -119.5t-29.5 -92.5t-45.5 -73t-67 -41t-98 -16q-26 0 -76 10v170q27 -8 69 -8q40 0 58.5 33t28.5 102l4 27zM43 1368v256h170v-256h-170zM354 1368v256h172v-256h-172z" />
<glyph unicode="&#x152;" horiz-adv-x="892" d="M61 268v1149q0 141 67.5 214t201.5 73q66 0 112 -18h404v-191h-266v-541h178v-190h-178v-576h276v-188h-414q-46 -18 -112 -18q-134 0 -201.5 72.5t-67.5 213.5zM250 268q0 -98 80 -98q29 0 61 8v1327q-21 8 -61 8q-80 0 -80 -96v-1149z" />
<glyph unicode="&#x153;" horiz-adv-x="890" d="M61 233v801q0 254 238 254q97 0 154 -51q57 51 147 51q231 0 231 -260v-418h-294v-372q0 -82 63 -82q70 0 70 84v276h161v-278q0 -256 -231 -256q-93 0 -149 47q-53 -47 -152 -47q-238 0 -238 251zM227 238q0 -41 16.5 -61.5t55.5 -20.5q38 0 54 20.5t16 63.5v788 q0 42 -16 63t-54 21q-72 0 -72 -84v-790zM537 733h133v295q0 82 -70 82q-63 0 -63 -82v-295z" />
<glyph unicode="&#x178;" horiz-adv-x="684" d="M16 1686h199q26 -156 76.5 -396.5t54.5 -269.5q4 31 57 272t80 394h185l-234 -949v-737h-192v737zM100 1786v256h170v-256h-170zM412 1786v256h172v-256h-172z" />
<glyph unicode="&#x2c6;" horiz-adv-x="792" d="M92 1343l209 330h201l198 -330h-165l-140 238l-145 -238h-158z" />
<glyph unicode="&#x2dc;" horiz-adv-x="645" d="M72 1403v145q47 54 127 54q51 0 130.5 -32t125.5 -32q73 0 114 57h2v-147q-48 -51 -127 -51q-50 0 -131 32.5t-125 32.5q-68 0 -114 -59h-2z" />
<glyph unicode="&#x2000;" horiz-adv-x="1045" />
<glyph unicode="&#x2001;" horiz-adv-x="2091" />
<glyph unicode="&#x2002;" horiz-adv-x="1045" />
<glyph unicode="&#x2003;" horiz-adv-x="2091" />
<glyph unicode="&#x2004;" horiz-adv-x="697" />
<glyph unicode="&#x2005;" horiz-adv-x="522" />
<glyph unicode="&#x2006;" horiz-adv-x="348" />
<glyph unicode="&#x2007;" horiz-adv-x="348" />
<glyph unicode="&#x2008;" horiz-adv-x="261" />
<glyph unicode="&#x2009;" horiz-adv-x="418" />
<glyph unicode="&#x200a;" horiz-adv-x="116" />
<glyph unicode="&#x2010;" horiz-adv-x="372" d="M25 776v146h327v-146h-327z" />
<glyph unicode="&#x2011;" horiz-adv-x="372" d="M25 776v146h327v-146h-327z" />
<glyph unicode="&#x2012;" horiz-adv-x="372" d="M25 776v146h327v-146h-327z" />
<glyph unicode="&#x2013;" horiz-adv-x="573" d="M25 776v146h526v-146h-526z" />
<glyph unicode="&#x2014;" horiz-adv-x="905" d="M25 776v146h860v-146h-860z" />
<glyph unicode="&#x2018;" horiz-adv-x="299" d="M61 1321v250q0 59 33.5 95t100.5 36h20v-78h-20q-20 0 -28.5 -9t-8.5 -32v-51h80v-211h-177z" />
<glyph unicode="&#x2019;" horiz-adv-x="299" d="M61 1475v211h177v-248q0 -60 -33 -96.5t-101 -36.5h-20v77h18q22 0 30.5 10t8.5 33v50h-80z" />
<glyph unicode="&#x201a;" horiz-adv-x="313" d="M70 45v211h176v-248q0 -59 -33 -96t-100 -37h-21v78h19q22 0 30.5 10t8.5 33v49h-80z" />
<glyph unicode="&#x201c;" horiz-adv-x="598" d="M61 1321v250q0 59 33.5 95t100.5 36h20v-78h-20q-20 0 -28.5 -9t-8.5 -32v-51h80v-211h-177zM360 1321v250q0 59 33.5 95t100.5 36h20v-78h-20q-20 0 -28.5 -9t-8.5 -32v-51h80v-211h-177z" />
<glyph unicode="&#x201d;" horiz-adv-x="598" d="M61 1475v211h177v-248q0 -60 -33 -96.5t-101 -36.5h-20v77h18q22 0 30.5 10t8.5 33v50h-80zM360 1475v211h177v-248q0 -60 -33 -96.5t-101 -36.5h-20v77h18q22 0 30.5 10t8.5 33v50h-80z" />
<glyph unicode="&#x201e;" horiz-adv-x="626" d="M70 45v211h176v-248q0 -59 -33 -96t-100 -37h-21v78h19q22 0 30.5 10t8.5 33v49h-80zM383 45v211h176v-248q0 -59 -33 -96t-100 -37h-20v78h18q22 0 30.5 10t8.5 33v49h-80z" />
<glyph unicode="&#x2022;" horiz-adv-x="430" d="M61 963q0 76 42 126t114 50q69 0 111.5 -50.5t42.5 -125.5q0 -77 -42.5 -128t-111.5 -51q-72 0 -114 51t-42 128z" />
<glyph unicode="&#x2026;" horiz-adv-x="1484" d="M61 0v256h177v-256h-177zM655 0v256h176v-256h-176zM1249 0v256h176v-256h-176z" />
<glyph unicode="&#x202f;" horiz-adv-x="418" />
<glyph unicode="&#x2039;" horiz-adv-x="399" d="M37 586v194l325 217v-159l-235 -154l235 -162v-166z" />
<glyph unicode="&#x203a;" horiz-adv-x="399" d="M37 356v166l235 162l-235 154v159l325 -217v-194z" />
<glyph unicode="&#x205f;" horiz-adv-x="522" />
<glyph unicode="&#x20ac;" horiz-adv-x="706" d="M16 594l23 143h74v240h-97l23 145h74v254q0 171 81 249.5t281 78.5q115 0 213 -10l-31 -191q-93 13 -176 13q-75 0 -114 -16t-51.5 -44t-12.5 -80v-254h295l-25 -145h-270v-240h236l-25 -143h-211v-330q0 -41 24 -69.5t64 -28.5q54 0 72 33.5t18 109.5v117h187v-158 q0 -286 -277 -286q-278 0 -278 286v326h-97z" />
<glyph unicode="&#x2122;" horiz-adv-x="999" d="M51 1595v91h326v-91h-105v-688h-116v688h-105zM449 907v779h153q44 -328 84 -576q5 33 16.5 111t28.5 194t39 271h156v-779h-107v226q0 153 6 303l-88 -529h-100l-88 529q6 -300 6 -303v-226h-106z" />
<glyph unicode="&#xfb01;" horiz-adv-x="714" d="M18 1118v150h62v176q0 252 199 252q50 0 94 -13v-145q-10 4 -41 4q-82 0 -82 -102v-172h119v-150h-119v-1118h-170v1118h-62zM469 0v1268h170v-1268h-170zM469 1430v256h170v-256h-170z" />
<glyph unicode="&#xfb02;" horiz-adv-x="708" d="M18 1118v150h62v176q0 252 199 252q50 0 94 -13v-145q-10 4 -41 4q-82 0 -82 -102v-172h119v-150h-119v-1118h-170v1118h-62zM465 0v1686h170v-1686h-170z" />
</font>
</defs>
</svg>
