<?xml version="1.0" standalone="no"?>
<!DOCTYPE svg PUBLIC "-//W3C//DTD SVG 1.1//EN" "http://www.w3.org/Graphics/SVG/1.1/DTD/svg11.dtd" >
<svg xmlns="http://www.w3.org/2000/svg">
<metadata></metadata>
<defs>
<font id="square_721bold_condensed" horiz-adv-x="1024" >
<font-face units-per-em="2048" ascent="1638" descent="-410" />
<missing-glyph horiz-adv-x="512" />
<glyph unicode="&#xfb01;" horiz-adv-x="1110" d="M45 819v230h96v151q0 168 71 239.5t245 71.5q31 0 64.5 -2t70.5 -6v-223q-12 2 -22.5 3t-20.5 1q-104 0 -105 -96v-139h148v-230h-148v-819h-303v819h-96zM711 0v1049h303v-1049h-303zM711 1270v241h303v-241h-303z" />
<glyph unicode="&#xfb02;" horiz-adv-x="1114" d="M45 819v230h96v151q0 168 71 239.5t245 71.5q31 0 64.5 -2t70.5 -6v-223q-12 2 -22.5 3t-20.5 1q-104 0 -105 -96v-139h148v-230h-148v-819h-303v819h-96zM711 0v1511h303v-1511h-303z" />
<glyph horiz-adv-x="2048" />
<glyph horiz-adv-x="2048" />
<glyph unicode="&#xd;" horiz-adv-x="512" />
<glyph unicode=" "  horiz-adv-x="512" />
<glyph unicode="&#x09;" horiz-adv-x="512" />
<glyph unicode="&#xa0;" horiz-adv-x="512" />
<glyph unicode="!" horiz-adv-x="587" d="M139 0v328h310v-328h-310zM139 465v1020h310v-1020h-310z" />
<glyph unicode="&#x22;" horiz-adv-x="677" d="M80 879v559h192v-559h-192zM406 879v559h192v-559h-192z" />
<glyph unicode="#" horiz-adv-x="1574" d="M45 406l76 200h282l86 242h-299l74 201h297l148 415h221l-146 -415h242l148 415h221l-148 -415h283l-74 -201h-280l-84 -242h290l-71 -200h-291l-148 -416h-221l148 416h-244l-149 -416h-220l146 416h-287zM621 606h251l86 242h-249z" />
<glyph unicode="$" d="M68 350v135h276v-159q0 -59 23.5 -87t87.5 -32v452q-106 23 -178 50.5t-115 67.5t-61.5 95.5t-18.5 135.5v135q0 92 19.5 157.5t62.5 106.5t114.5 62.5t176.5 25.5v156h127v-156q117 -2 188.5 -19.5t112.5 -57.5t55 -104.5t14 -160.5v-104h-268v122q0 57 -21.5 84 t-80.5 35v-397q100 -27 171.5 -54.5t115.5 -67.5t64.5 -96.5t20.5 -137.5v-189q0 -182 -87 -262t-285 -82v-176h-127v176h-19q-104 0 -175 18.5t-114 59.5t-61 106.5t-18 161.5zM346 1055q0 -106 109 -125v360q-59 -4 -84 -28.5t-25 -77.5v-129zM582 207q59 6 83.5 28.5 t24.5 73.5v185q0 55 -24.5 84.5t-83.5 44.5v-416z" />
<glyph unicode="%" horiz-adv-x="1792" d="M61 868v322q0 94 14.5 154.5t51.5 95.5t98.5 49t155.5 14q92 0 153.5 -13t98.5 -49t52 -96.5t15 -154.5v-322q0 -92 -14 -153.5t-51 -97t-98.5 -50t-155.5 -14.5t-155.5 14.5t-98.5 50t-51.5 97t-14.5 153.5zM293 885q0 -63 17.5 -84t70.5 -21t70.5 20.5t17.5 84.5v286 q0 63 -17.5 84t-70.5 21t-70.5 -20.5t-17.5 -84.5v-286zM449 -18l710 1521h182l-708 -1521h-184zM1090 295v321q0 94 14 154.5t51 95.5t98.5 49.5t155.5 14.5q92 0 153.5 -13.5t98.5 -49.5t52.5 -96t15.5 -155v-321q0 -92 -14.5 -153.5t-51.5 -96.5t-98.5 -49t-155.5 -14 t-155.5 14t-98.5 49t-51 96.5t-14 153.5zM1321 313q0 -63 17.5 -83.5t70.5 -20.5t71.5 20.5t18.5 83.5v285q0 63 -18.5 83.5t-71.5 20.5t-70.5 -20t-17.5 -84v-285z" />
<glyph unicode="&#x26;" horiz-adv-x="1146" d="M84 336v178q0 164 57.5 246t182.5 90l-35 47q-53 78 -87 145.5t-34 145.5q0 88 20.5 148.5t63.5 97t111.5 53t164.5 16.5q117 0 193 -12t122 -46t64.5 -92.5t18.5 -148.5v-114h-283v61q0 66 -14.5 91.5t-71.5 25.5q-90 0 -90 -76q0 -37 41 -102l221 -357l-8 187h268v-527 l164 -235l-227 -176l-62 81q-59 -82 -231 -81h-164q-109 0 -182.5 17t-118.5 59t-64.5 110t-19.5 168zM397 387q0 -49 3 -78.5t18.5 -45t44.5 -20.5t82 -5q76 0 106.5 11t30.5 60v13.5t-2 15.5l-207 293q-35 0 -55.5 -31t-20.5 -84v-129z" />
<glyph unicode="'" horiz-adv-x="352" d="M80 879v559h192v-559h-192z" />
<glyph unicode="(" horiz-adv-x="739" d="M180 524v434q0 147 17.5 251t62.5 168.5t124 94t204 29.5h49v-233q-43 -6 -70.5 -22.5t-43 -44t-20.5 -68.5t-5 -99v-585q0 -57 5 -98.5t20.5 -69t43 -44t70.5 -22.5v-233h-49q-125 0 -204 29.5t-124 94t-62.5 168t-17.5 250.5z" />
<glyph unicode=")" horiz-adv-x="739" d="M109 -18v231q43 6 70.5 22.5t42 44t19.5 69.5t5 100v583q0 57 -5 99.5t-19.5 70t-42 44t-70.5 22.5v233h49q123 0 201.5 -29.5t123.5 -94t62.5 -168t17.5 -251.5v-434q0 -147 -17.5 -250.5t-62.5 -168t-123.5 -94t-201.5 -29.5h-49z" />
<glyph unicode="*" horiz-adv-x="901" d="M72 985v180h227l-141 236l188 102l105 -227l102 227l197 -102l-146 -236h227v-180h-227l141 -235l-190 -103l-104 225l-101 -225l-196 103l145 235h-227zM319 993l132 -86l129 88v144l-134 102l-127 -98v-150z" />
<glyph unicode="+" horiz-adv-x="1705" d="M254 512v199h498v510h202v-510h498v-199h-498v-512h-202v512h-498z" />
<glyph unicode="," horiz-adv-x="512" d="M104 0v328h304v-353q0 -301 -299 -307v166q63 4 90.5 36t27.5 97q0 8 -1 15.5t-1 17.5h-121z" />
<glyph unicode="-" horiz-adv-x="692" d="M76 408v256h540v-256h-540z" />
<glyph unicode="." horiz-adv-x="512" d="M104 0v328h304v-328h-304z" />
<glyph unicode="/" horiz-adv-x="559" d="M-80 -190l483 1693h193l-485 -1693h-191z" />
<glyph unicode="0" d="M86 399v686q0 125 19.5 206t68.5 128t131 65.5t207 18.5t207 -18.5t131 -65.5t68.5 -128t19.5 -206v-686q0 -125 -19.5 -205.5t-68.5 -128t-131 -65.5t-207 -18t-207 18t-131 65.5t-68.5 128t-19.5 205.5zM426 336q0 -61 17.5 -83t68.5 -22t67.5 20.5t16.5 84.5v811 q0 63 -16.5 83.5t-67.5 20.5t-68.5 -21.5t-17.5 -82.5v-811z" />
<glyph unicode="1" d="M43 1102q88 98 166 192.5t147 190.5h430v-1483h-331v1239q-100 -166 -226 -317z" />
<glyph unicode="2" d="M96 0v238q0 66 4 127t27 124q23 59 62.5 104.5t101.5 88.5q61 43 129.5 69.5t122.5 63.5q33 23 32 90v242q0 59 -12 81.5t-53 22.5t-53.5 -22.5t-12.5 -81.5v-201h-329v139q0 123 18.5 204t64.5 129t123.5 66.5t196.5 18.5t197 -18.5t123 -65.5t63.5 -128t18.5 -206v-186 q0 -61 -9.5 -108.5t-33 -84t-63.5 -67.5t-101 -59q-66 -31 -118 -54.5t-89 -49t-56.5 -60.5t-19.5 -88v-62h479v-266h-813z" />
<glyph unicode="3" d="M90 340v158h324v-162q0 -61 18.5 -83t71.5 -22t70.5 20.5t17.5 84.5v199q0 72 -31 90t-119 18h-123v244h115q47 0 76 6t44 21.5t20.5 41t5.5 66.5v125q0 61 -16.5 82.5t-67.5 21.5q-49 0 -66.5 -21.5t-17.5 -82.5v-94h-306v90q0 109 19.5 179.5t66 110.5t123 55t193.5 15 t194.5 -15t123.5 -55t64.5 -111t18.5 -179v-117q0 -113 -39 -167t-145 -75q113 -16 157 -77.5t44 -186.5v-180q0 -109 -20.5 -178.5t-69 -109.5t-128 -55t-200.5 -15t-201 14t-128 54t-68.5 109.5t-20.5 180.5z" />
<glyph unicode="4" d="M45 307v357l332 821h506v-926h88v-252h-88v-307h-318v307h-520zM287 559h278v739z" />
<glyph unicode="5" d="M100 340v121h316v-125q0 -61 15 -83t69 -22q49 0 67.5 21.5t18.5 83.5v369q0 61 -18.5 82.5t-71.5 21.5q-55 0 -74 -20.5t-19 -83.5v-19h-288v799h749v-256h-446v-273q47 51 102 73t129 22q94 0 148.5 -22.5t82 -72t35 -126t7.5 -183.5v-307q0 -109 -19.5 -178.5 t-67 -109.5t-126 -55t-197.5 -15t-197.5 14t-127 54t-68 109.5t-19.5 180.5z" />
<glyph unicode="6" d="M90 399v762q0 104 19.5 171t67.5 105t127 52t196 14q123 0 205.5 -12t136.5 -59q51 -45 59 -107.5t8 -148.5v-74h-307v61q0 63 -17.5 84t-68.5 21t-68.5 -21.5t-17.5 -83.5v-305q59 47 114.5 69.5t127.5 22.5q168 0 235 -102q35 -55 35 -264v-185q0 -125 -19.5 -205.5 t-68.5 -128t-131 -65.5t-207 -18t-207 18t-131 65.5t-68.5 128t-19.5 205.5zM430 336q0 -63 17.5 -84t68.5 -21q53 0 68.5 21.5t15.5 83.5v270q0 61 -15.5 83t-68.5 22q-51 0 -68.5 -20.5t-17.5 -84.5v-270z" />
<glyph unicode="7" d="M94 1229v256h742v-256l-287 -1229h-336l291 1229h-410z" />
<glyph unicode="8" d="M76 399v62q0 72 8 125t31.5 91t65.5 60.5t108 34.5q-106 20 -148.5 84t-42.5 193v45q0 123 19.5 201.5t66.5 124.5t127 64.5t201 18.5t200 -18.5t126 -64.5t66.5 -124.5t19.5 -201.5v-45q0 -129 -42.5 -193t-148.5 -84q66 -12 108 -34.5t65.5 -60.5t31.5 -91.5t8 -124.5 v-62q0 -125 -20.5 -205.5t-69.5 -128t-133 -65.5t-211 -18t-211 18t-134 65.5t-70.5 128t-20.5 205.5zM412 338q0 -72 20.5 -94.5t79.5 -22.5t79.5 23.5t20.5 93.5v176q0 72 -20.5 94.5t-79.5 22.5t-79.5 -23.5t-20.5 -93.5v-176zM412 981q0 -68 20.5 -90.5t79.5 -22.5 q61 0 80.5 22.5t19.5 90.5v172q0 68 -20.5 90.5t-79.5 22.5t-79.5 -22.5t-20.5 -90.5v-172z" />
<glyph unicode="9" d="M80 965v120q0 125 19.5 206t68.5 128t131 65.5t207 18.5t207 -18.5t131 -65.5t69.5 -128t20.5 -206v-761q0 -106 -20.5 -173t-67.5 -105t-126 -51t-198 -13q-129 0 -217 11t-143 58q-27 23 -41.5 49.5t-20.5 57t-7 68.5t-1 81v148h322v-133q0 -63 18.5 -84t71.5 -21 q55 0 71.5 20.5t16.5 84.5v368q-59 -47 -113.5 -69.5t-126.5 -22.5q-168 0 -235 102q-37 57 -37 265zM422 938q0 -61 16.5 -82.5t69.5 -21.5q51 0 67.5 20t16.5 84v209q0 63 -16.5 83.5t-67.5 20.5q-53 0 -69.5 -21.5t-16.5 -82.5v-209z" />
<glyph unicode=":" horiz-adv-x="577" d="M137 0v328h303v-328h-303zM137 721v328h303v-328h-303z" />
<glyph unicode=";" horiz-adv-x="577" d="M137 0v328h303v-353q0 -301 -299 -307v166q63 4 91 36t28 97q0 8 -1 15.5t-1 17.5h-121zM137 721v328h303v-328h-303z" />
<glyph unicode="&#x3c;" horiz-adv-x="1705" d="M264 512v199l1178 483v-219l-893 -365l893 -364v-219z" />
<glyph unicode="=" horiz-adv-x="1705" d="M254 297v199h1198v-199h-1198zM254 727v199h1198v-199h-1198z" />
<glyph unicode="&#x3e;" horiz-adv-x="1705" d="M264 27v219l895 364l-895 365v219l1178 -483v-199z" />
<glyph unicode="?" horiz-adv-x="985" d="M70 1040v45q0 125 19.5 206t66.5 128t126.5 65.5t202.5 18.5q117 0 195 -15t126 -52t68.5 -99.5t20.5 -156.5v-156q0 -53 -5 -93t-20.5 -74t-42 -62.5t-71.5 -59.5q-29 -18 -55.5 -33.5t-47 -34t-33 -43t-12.5 -63.5v-96h-321v145q0 72 17.5 121t70.5 90q53 39 91 68 t60 51q20 23 24.5 49.5t4.5 67.5v102q0 63 -17.5 84t-68.5 21t-67.5 -21.5t-16.5 -83.5v-119h-315zM289 0v328h319v-328h-319z" />
<glyph unicode="@" horiz-adv-x="2048" d="M90 520q0 168 52.5 318.5t154.5 275.5q147 180 354 273.5t465 93.5q174 0 321.5 -46t254.5 -128q268 -207 268 -543q0 -166 -65.5 -305.5t-188.5 -237.5q-143 -115 -324 -115q-213 0 -215 166q-55 -86 -126.5 -124.5t-170.5 -38.5q-160 0 -241.5 87t-81.5 253 q0 121 38 224t103.5 178t153.5 118t188 43q160 0 236 -131l53 98h178l-147 -598q-6 -25 -7 -41q0 -70 95 -70q37 0 79 18.5t82 57.5q174 162 175 422q0 117 -47.5 217t-134.5 174t-209.5 116t-272.5 42q-285 0 -483 -135q-170 -115 -261.5 -285t-91.5 -375 q0 -154 54.5 -278.5t154 -211.5t239.5 -135.5t312 -48.5q164 0 317.5 49.5t286.5 141.5l82 -117q-309 -231 -682 -231q-197 0 -356.5 49t-282.5 143q-309 240 -309 637zM760 444q0 -188 158 -188q80 0 149.5 60.5t95.5 166.5l54 217q-25 166 -175 166q-55 0 -106 -32.5 t-90 -90t-62.5 -134.5t-23.5 -165z" />
<glyph unicode="A" horiz-adv-x="1062" d="M31 0l221 1485h553l227 -1485h-354l-41 365h-219l-41 -365h-346zM449 612h157l-76 701z" />
<glyph unicode="B" horiz-adv-x="1093" d="M109 0v1485h462q115 0 196 -12.5t131 -46t73.5 -94t23.5 -158.5v-130q0 -125 -54 -186t-181 -84q250 -12 250 -297v-168q0 -98 -22.5 -158.5t-74 -94t-131.5 -45t-194 -11.5h-479zM451 260h104q59 0 83 20.5t24 86.5v172q0 66 -24 87t-83 21h-104v-387zM451 877h96 q59 0 82.5 20.5t23.5 85.5v133q0 66 -23.5 86.5t-82.5 20.5h-96v-346z" />
<glyph unicode="C" horiz-adv-x="999" d="M90 399v686q0 111 12.5 190t65.5 138q57 61 146 75.5t225 14.5q121 0 198.5 -14t124.5 -74q47 -59 58.5 -139t11.5 -191v-102h-316v150q0 63 -16 83.5t-70 20.5q-53 0 -68.5 -20.5t-15.5 -83.5v-783q0 -63 15.5 -83.5t68.5 -20.5t69.5 20.5t16.5 83.5v203h316v-154 q0 -111 -10.5 -190.5t-57.5 -138.5q-27 -33 -59.5 -50.5t-72.5 -25.5t-88 -10t-105 -2q-66 0 -120 1t-99.5 9t-83 26.5t-68.5 51.5q-53 59 -65.5 139t-12.5 190z" />
<glyph unicode="D" horiz-adv-x="1085" d="M109 0v1485h438q135 0 221 -21.5t137 -75t70.5 -141.5t19.5 -223v-563q0 -135 -19.5 -223t-70.5 -141.5t-137 -75t-221 -21.5h-438zM455 264h92q53 0 72.5 19.5t19.5 81.5v753q0 61 -18.5 81t-73.5 20h-92v-955z" />
<glyph unicode="E" horiz-adv-x="847" d="M109 0v1485h653v-266h-307v-328h288v-256h-288v-369h336v-266h-682z" />
<glyph unicode="F" horiz-adv-x="815" d="M109 0v1485h651v-266h-305v-369h276v-266h-276v-584h-346z" />
<glyph unicode="G" horiz-adv-x="1067" d="M90 399v686q0 111 12.5 190t65.5 138q57 61 146 75.5t225 14.5q131 0 218 -15t142 -75q53 -57 64.5 -137t11.5 -191v-77h-330v125q0 66 -21.5 85t-82.5 19t-83 -19.5t-22 -84.5v-783q0 -66 21.5 -85t83.5 -19q61 0 82.5 19.5t21.5 84.5v191h-98v266h430v-408 q0 -111 -11.5 -190.5t-64.5 -138.5q-59 -66 -148 -77t-214 -11q-66 0 -120 1t-99.5 9t-83 26.5t-68.5 51.5q-53 59 -65.5 139t-12.5 190z" />
<glyph unicode="H" horiz-adv-x="1089" d="M109 0v1485h346v-572h180v572h346v-1485h-346v647h-180v-647h-346z" />
<glyph unicode="I" horiz-adv-x="579" d="M115 0v1485h346v-1485h-346z" />
<glyph unicode="J" horiz-adv-x="886" d="M27 315v228h305v-244q0 -35 10 -46t41 -11t40 11t9 46v1186h348v-1112q0 -109 -17.5 -182.5t-60.5 -120.5t-116.5 -67.5t-188.5 -20.5q-111 0 -182.5 17t-113.5 57t-58 103.5t-16 155.5z" />
<glyph unicode="K" horiz-adv-x="1056" d="M109 0v1485h337v-641l226 641h352l-283 -699l328 -786h-358l-265 676v-676h-337z" />
<glyph unicode="L" horiz-adv-x="786" d="M109 0v1485h346v-1219h327v-266h-673z" />
<glyph unicode="M" horiz-adv-x="1626" d="M111 0v1485h501l199 -1172l209 1172h493v-1485h-313l21 1255l-230 -1255h-383l-223 1255l25 -1255h-299z" />
<glyph unicode="N" horiz-adv-x="1265" d="M109 0v1485h487l268 -1174l-20 1174h313v-1485h-485l-273 1206l23 -1206h-313z" />
<glyph unicode="O" horiz-adv-x="1075" d="M90 399v686q0 111 12.5 190t65.5 138q57 61 146 75.5t225 14.5q135 0 223 -14t145 -76q53 -59 65.5 -138t12.5 -190v-686q0 -111 -11 -190.5t-65 -138.5q-31 -33 -68.5 -51.5t-82.5 -26.5t-100.5 -9t-118.5 -1q-66 0 -120 1t-99.5 9t-83 26.5t-68.5 51.5 q-53 59 -65.5 139t-12.5 190zM446 350q0 -63 18.5 -83.5t74.5 -20.5q55 0 73.5 20.5t18.5 83.5v783q0 63 -18.5 83.5t-73.5 20.5t-74 -20.5t-19 -83.5v-783z" />
<glyph unicode="P" horiz-adv-x="1034" d="M109 0v1485h346q141 0 241.5 -13.5t164 -54.5t93 -115.5t29.5 -197.5v-301q0 -113 -25.5 -186.5t-82 -116.5t-145.5 -60.5t-218 -17.5h-57v-422h-346zM455 694h77q59 0 81 20.5t22 86.5v315q0 66 -21.5 86.5t-81.5 20.5h-77v-529z" />
<glyph unicode="Q" horiz-adv-x="1075" d="M90 399v686q0 111 12.5 190t65.5 138q57 61 146 75.5t225 14.5q135 0 223 -14t145 -76q53 -59 65.5 -138t12.5 -190v-686v-49q0 -53 -4 -103t-27 -102l78 -110l-119 -109l-69 99q-47 -31 -133 -37t-219 -6q-123 0 -201 19t-122 67.5t-61.5 128t-17.5 202.5zM438 350 q0 -66 21.5 -85t83.5 -19q53 0 75.5 14t26.5 57l-160 215l101 115l61 -90v576q0 66 -21.5 85t-82.5 19t-83 -19.5t-22 -84.5v-783z" />
<glyph unicode="R" horiz-adv-x="1089" d="M109 0v1485h360q141 0 241.5 -13.5t164 -54.5t92 -115.5t28.5 -197.5v-170q0 -129 -55 -196.5t-184 -90.5q231 -33 231 -258v-389h-340v375q0 80 -29.5 107.5t-105.5 27.5h-57v-510h-346zM455 764h84q63 0 87.5 20.5t24.5 85.5v246q0 66 -24.5 86.5t-87.5 20.5h-84v-459z " />
<glyph unicode="S" horiz-adv-x="1019" d="M84 334v162h319v-144q0 -59 24 -82.5t77 -23.5q59 0 80.5 22.5t21.5 87.5v105q0 35 -4 62.5t-22 49.5q-18 20 -43 32.5t-55.5 21t-67.5 15.5t-78 20q-74 20 -123 48.5t-78 69.5t-40 96.5t-11 131.5v137q0 94 16.5 162.5t56.5 111.5t106.5 63.5t166.5 20.5h102 q117 0 194 -19.5t124 -66.5q43 -43 53 -106.5t10 -155.5v-115h-307v93q0 72 -18.5 94t-75.5 22q-53 0 -73.5 -21.5t-20.5 -80.5v-96q0 -49 16.5 -76t50 -43.5t85 -28.5t118.5 -31q74 -20 122 -47.5t76.5 -66.5t40 -94.5t11.5 -131.5v-200q0 -186 -88 -268t-289 -82h-92 q-111 0 -184.5 17t-118.5 58t-63.5 108.5t-18.5 168.5z" />
<glyph unicode="T" horiz-adv-x="839" d="M14 1219v266h811v-266h-233v-1219h-346v1219h-232z" />
<glyph unicode="U" horiz-adv-x="1067" d="M102 479v1006h347v-1131q0 -63 18 -83.5t74 -20.5q55 0 73.5 20.5t18.5 83.5v1131h332v-1006q0 -129 -12.5 -224t-65.5 -167q-51 -66 -136 -86t-219 -20q-133 0 -218 19t-136 87q-53 72 -64.5 167t-11.5 224z" />
<glyph unicode="V" horiz-adv-x="1038" d="M33 1485h356l127 -1301l131 1301h357l-209 -1485h-555z" />
<glyph unicode="W" horiz-adv-x="1669" d="M37 1485h336l92 -1235l137 1235h463l137 -1235l92 1235h336l-174 -1485h-487l-135 1251l-134 -1251h-487z" />
<glyph unicode="X" horiz-adv-x="1009" d="M35 0l188 784l-172 701h336l115 -608l125 608h331l-172 -701l189 -784h-346l-125 668l-125 -668h-344z" />
<glyph unicode="Y" horiz-adv-x="944" d="M-6 1485h350l143 -672l134 672h327l-301 -1004v-481h-346v481z" />
<glyph unicode="Z" horiz-adv-x="847" d="M43 0v266l391 953h-354v266h715v-236l-400 -983h400v-266h-752z" />
<glyph unicode="[" horiz-adv-x="739" d="M197 0v1485h440v-230h-137v-1028h137v-227h-440z" />
<glyph unicode="\" horiz-adv-x="559" d="M-35 1503h191l483 -1693h-190z" />
<glyph unicode="]" horiz-adv-x="739" d="M100 0v227h138v1028h-138v230h441v-1485h-441z" />
<glyph unicode="^" horiz-adv-x="2048" d="M416 899l481 561h252l481 -561h-235l-371 371l-373 -371h-235z" />
<glyph unicode="_" d="M0 -279h1024v-204h-1024v204z" />
<glyph unicode="`" d="M219 1536h258l197 -371h-142z" />
<glyph unicode="a" horiz-adv-x="915" d="M70 266v127q0 131 59 193.5t188 62.5q55 0 106.5 -16.5t92.5 -44.5v155q0 61 -13.5 83t-60.5 22q-45 0 -58 -21.5t-15 -83.5h-267v76q0 80 19.5 128t61.5 75t110.5 36t167.5 9q98 0 166.5 -9t110.5 -36t61.5 -75t19.5 -128v-819h-287v84q-37 -59 -90 -80.5t-135 -21.5 q-68 0 -114 15t-73.5 49t-38.5 88t-11 132zM369 279q0 -72 73 -72q74 0 74 72v112q0 72 -74 72t-73 -72v-112z" />
<glyph unicode="b" horiz-adv-x="952" d="M100 0v1511h303v-569q72 125 232 125q133 0 182 -82t49 -258v-405q0 -88 -10 -152t-35.5 -105.5t-69.5 -62t-110 -20.5q-84 0 -140.5 35.5t-109.5 115.5v-133h-291zM403 317q0 -61 14.5 -82.5t61.5 -21.5t60.5 21.5t13.5 82.5v412q0 61 -13.5 83t-60.5 22t-61.5 -21.5 t-14.5 -83.5v-412z" />
<glyph unicode="c" horiz-adv-x="876" d="M70 393v260q0 121 18 201t64.5 127t123 66.5t193.5 19.5q98 0 164.5 -14.5t106.5 -51t56.5 -100t16.5 -160.5v-51h-285v39q0 61 -14 83t-59 22t-59.5 -21.5t-14.5 -83.5v-412q0 -61 14.5 -82.5t59.5 -21.5t59 21.5t14 82.5v97h285v-107q0 -96 -16.5 -159.5t-56.5 -100.5 t-106.5 -51t-164.5 -14q-117 0 -193.5 18t-123 65.5t-64.5 127t-18 200.5z" />
<glyph unicode="d" horiz-adv-x="952" d="M86 322v405q0 176 50 258t183 82q160 0 232 -125v569h303v-1511h-291v133q-53 -80 -109.5 -115.5t-140.5 -35.5q-66 0 -109.5 20.5t-70.5 62t-37 105t-10 152.5zM399 317q0 -61 13.5 -82.5t60.5 -21.5t62.5 21.5t15.5 82.5v412q0 61 -14.5 83t-61.5 22t-61.5 -21.5 t-14.5 -83.5v-412z" />
<glyph unicode="e" horiz-adv-x="933" d="M70 393v260q0 121 18 201t64.5 127t122 66.5t192.5 19.5t192.5 -19.5t121.5 -66.5t64.5 -127t18.5 -201v-204h-483v-132q0 -63 17.5 -83.5t74.5 -20.5q55 0 73.5 20.5t18.5 83.5v23h299v-70q0 -90 -22.5 -146t-73.5 -88t-131 -43t-195 -11q-109 0 -180.5 21.5 t-114.5 69.5t-60 127t-17 193zM381 655h192v101q0 68 -18 88t-78 20q-57 0 -76.5 -21.5t-19.5 -86.5v-101z" />
<glyph unicode="f" horiz-adv-x="616" d="M45 819v230h96v151q0 168 71 239.5t245 71.5q31 0 64.5 -2t70.5 -6v-223q-12 2 -22.5 3t-20.5 1q-104 0 -105 -96v-139h148v-230h-148v-819h-303v819h-96z" />
<glyph unicode="g" horiz-adv-x="952" d="M84 338v389q0 176 49 258t184 82q168 0 246 -145v127h289v-1020q0 -115 -15.5 -194t-55.5 -128t-106.5 -70.5t-168.5 -21.5q-106 0 -180 11.5t-120 44t-67.5 88t-21.5 145.5v6h262q0 -45 18.5 -61.5t65.5 -16.5q53 0 69.5 21.5t16.5 83.5v153q-51 -53 -103.5 -72.5 t-121.5 -19.5q-72 0 -118 19.5t-74 60.5t-38 105.5t-10 154.5zM397 328q0 -61 14.5 -83t61.5 -22t61.5 21.5t14.5 83.5v401q0 61 -14.5 83t-61.5 22t-61.5 -21.5t-14.5 -83.5v-401z" />
<glyph unicode="h" horiz-adv-x="948" d="M98 0v1511h303v-569q74 125 234 125q68 0 110.5 -18.5t67.5 -57.5t34 -99.5t9 -143.5v-748h-303v731q0 53 -15.5 74.5t-60.5 21.5t-60.5 -21.5t-15.5 -74.5v-731h-303z" />
<glyph unicode="i" horiz-adv-x="493" d="M94 0v1049h303v-1049h-303zM94 1270v241h303v-241h-303z" />
<glyph unicode="j" horiz-adv-x="507" d="M6 -141q37 2 56.5 11t28.5 25.5t11 44t2 66.5v1043h306v-1129q0 -84 -13.5 -141.5t-44 -94t-83 -53t-130.5 -16.5q-18 0 -52 2t-81 6v236zM104 1270v241h306v-241h-306z" />
<glyph unicode="k" horiz-adv-x="872" d="M98 0v1511h295v-884l158 422h283l-168 -449l223 -600h-314l-182 551v-551h-295z" />
<glyph unicode="l" horiz-adv-x="501" d="M98 0v1511h305v-1511h-305z" />
<glyph unicode="m" horiz-adv-x="1394" d="M94 0v1049h281v-136q47 84 104.5 119t147.5 35q180 0 204 -145q45 78 101.5 111.5t142.5 33.5q68 0 111 -18.5t66.5 -57.5t32.5 -99.5t9 -143.5v-748h-301v731q0 53 -14 74.5t-59 21.5q-43 0 -59.5 -21.5t-16.5 -74.5v-731h-301v731q0 53 -14.5 74.5t-59.5 21.5 q-43 0 -59.5 -21.5t-16.5 -74.5v-731h-299z" />
<glyph unicode="n" horiz-adv-x="944" d="M94 0v1049h283v-136q47 82 105.5 118t148.5 36q68 0 110.5 -18.5t67.5 -57.5t34 -99.5t9 -143.5v-748h-303v731q0 53 -15.5 74.5t-60.5 21.5t-60.5 -21.5t-15.5 -74.5v-731h-303z" />
<glyph unicode="o" horiz-adv-x="933" d="M70 393v260q0 121 18 201t64.5 127t122 66.5t192.5 19.5t192.5 -19.5t121.5 -66.5t64.5 -127t18.5 -201v-260q0 -121 -18.5 -199.5t-64.5 -126t-121.5 -66.5t-192.5 -19t-192.5 18t-122 65.5t-64.5 127t-18 200.5zM381 317q0 -63 17.5 -83.5t68.5 -20.5t67.5 21.5 t16.5 82.5v412q0 63 -16.5 84t-67.5 21t-68.5 -21.5t-17.5 -83.5v-412z" />
<glyph unicode="p" horiz-adv-x="952" d="M100 -383v1432h289v-127q41 76 99.5 110.5t144.5 34.5q135 0 184 -82t49 -258v-405q0 -88 -10 -152t-35.5 -105.5t-69.5 -62t-110 -20.5q-84 0 -140.5 33.5t-97.5 109.5v-508h-303zM403 317q0 -61 14.5 -82.5t61.5 -21.5t60.5 21.5t13.5 82.5v412q0 61 -13.5 83t-60.5 22 t-61.5 -21.5t-14.5 -83.5v-412z" />
<glyph unicode="q" horiz-adv-x="952" d="M86 322v405q0 176 49 258t184 82q168 0 246 -145v127h289v-1432h-303v508q-41 -76 -97.5 -109.5t-140.5 -33.5q-66 0 -109.5 20.5t-70.5 62t-37 105t-10 152.5zM399 317q0 -61 13.5 -82.5t60.5 -21.5t62.5 21.5t15.5 82.5v412q0 61 -14.5 83t-61.5 22t-61.5 -21.5 t-14.5 -83.5v-412z" />
<glyph unicode="r" horiz-adv-x="794" d="M94 0v1049h283v-115q41 72 92 102.5t129 30.5q98 0 136 -50t38 -165v-231h-252v110q0 53 -12 74.5t-49 21.5q-39 0 -50.5 -21.5t-11.5 -74.5v-731h-303z" />
<glyph unicode="s" horiz-adv-x="862" d="M70 246v80h278q0 -78 13.5 -107t66.5 -29q80 0 80 76v66q0 33 -14.5 50t-44 27.5t-75.5 17.5t-110 22q-53 12 -89 25t-58.5 35.5t-31.5 56.5t-9 87v123q0 154 67.5 222.5t227.5 68.5h141q78 0 129 -14.5t81 -44t42 -77.5t12 -116v-74h-258v58q0 41 -19.5 55t-66.5 14 q-84 0 -84 -65v-58q0 -31 13.5 -45t41 -22t69.5 -13.5t99 -17.5q61 -14 104.5 -32.5t70 -46t38 -66.5t11.5 -94v-125q0 -88 -17.5 -145.5t-58.5 -92.5t-106.5 -49t-161.5 -14h-80q-86 0 -144.5 13t-93.5 44t-49 82t-14 125z" />
<glyph unicode="t" horiz-adv-x="649" d="M37 819v230h92v278h305v-278h172v-230h-172v-489q0 -115 115 -115h19.5t19.5 2v-225q-41 -6 -81 -10.5t-81 -4.5q-94 0 -152.5 16.5t-90 55.5t-43 99.5t-11.5 150.5v520h-92z" />
<glyph unicode="u" horiz-adv-x="944" d="M92 301v748h305v-732q0 -53 14.5 -74.5t59.5 -21.5t60.5 21.5t15.5 74.5v732h305v-1049h-285v133q-47 -82 -105.5 -116.5t-148.5 -34.5q-68 0 -110.5 18t-67 57t-34 99.5t-9.5 144.5z" />
<glyph unicode="v" horiz-adv-x="858" d="M27 1049h299l98 -879l119 879h286l-170 -1049h-475z" />
<glyph unicode="w" horiz-adv-x="1460" d="M33 1049h293l98 -824l104 824h398l108 -824l99 824h292l-159 -1049h-424l-113 838l-111 -838h-425z" />
<glyph unicode="x" horiz-adv-x="839" d="M12 0l160 571l-127 478h305l76 -437l80 437h287l-125 -478l157 -571h-311l-92 471l-94 -471h-316z" />
<glyph unicode="y" horiz-adv-x="858" d="M35 1049h303l94 -897l103 897h292l-145 -975q-18 -117 -39.5 -204t-58.5 -143.5t-94.5 -84t-147.5 -27.5q-41 0 -82 7t-86 20v213q49 -12 80 -13q131 0 143 158h-225z" />
<glyph unicode="z" horiz-adv-x="735" d="M51 0v227l307 592h-282v230h592v-244l-306 -578h322v-227h-633z" />
<glyph unicode="{" d="M158 426v209q10 0 20 -1t21 -1q123 0 173 59.5t50 194.5v250q0 109 16.5 180.5t87.5 112.5q51 29 120 39t161 10q18 0 36.5 -1t39.5 -1v-209q-12 0 -24.5 1t-22.5 1q-55 0 -89 -10.5t-52.5 -34t-24.5 -62.5t-6 -94v-240q0 -68 -8.5 -117.5t-32 -84.5t-63.5 -58.5 t-103 -38.5q63 -14 103 -36.5t63.5 -58.5t32 -85t8.5 -117v-241q0 -55 6 -94t24.5 -61.5t52 -33t89.5 -10.5q10 0 22 1t25 1v-209q-20 0 -39 -1t-37 -1q-92 0 -160.5 10.5t-120.5 38.5q-72 41 -88 112t-16 179v252q0 135 -50 193.5t-173 58.5q-10 0 -20.5 -1t-20.5 -1z" />
<glyph unicode="|" d="M410 -483v2048h206v-2048h-206z" />
<glyph unicode="}" d="M143 -205q12 0 24.5 -1t22.5 -1q55 0 89 10.5t52.5 33t24.5 61.5t6 94v239q0 68 8.5 118t31 85t62.5 58.5t105 37.5q-63 14 -103 38t-63.5 59t-32 85t-8.5 117v242q0 55 -6 94t-24.5 61.5t-52 33t-89.5 10.5q-10 0 -22 -1t-25 -1v209h68q96 0 167 -10.5t122 -39.5 q70 -41 87 -111.5t17 -178.5v-252q0 -135 50.5 -193.5t172.5 -58.5q10 0 20.5 1t20.5 1v-209h-37q-127 0 -177 -56.5t-50 -193.5v-252q0 -109 -16.5 -180.5t-87.5 -110.5q-51 -29 -120 -39t-161 -10q-18 0 -36.5 1t-39.5 1v209z" />
<glyph unicode="~" horiz-adv-x="1705" d="M178 418v221q213 143 387 143q90 0 160 -18.5t135 -40.5q74 -25 145.5 -49.5t149.5 -24.5q92 0 181 39t194 115v-221q-100 -68 -192.5 -103t-186.5 -35q-92 0 -184 31q-106 35 -202.5 67.5t-201.5 32.5q-92 0 -184 -39.5t-201 -117.5z" />
<glyph unicode="&#xa1;" horiz-adv-x="587" d="M139 0v1020h310v-1020h-310zM139 1157v328h310v-328h-310z" />
<glyph unicode="&#xa2;" d="M127 -268l131 305q-72 43 -97.5 129t-25.5 227v260q0 121 18.5 201t64.5 127t123 66.5t194 19.5q49 0 90 -2t71 -8l95 215h131l-117 -273q43 -35 59.5 -97t16.5 -161v-51h-211l-201 -475q10 -8 23.5 -9t35.5 -1q53 0 70.5 20.5t17.5 85.5v103h281v-107 q0 -90 -16.5 -152.5t-54.5 -101.5t-102.5 -55t-158.5 -16q-43 0 -92 2t-102 6l-111 -258h-133zM422 387l174 428q-16 20 -35.5 24.5t-44.5 4.5q-55 0 -74.5 -21.5t-19.5 -87.5v-348z" />
<glyph unicode="&#xa3;" d="M76 0v266q88 0 118.5 32t30.5 118v131h-149v246h141q-18 272 -18 374q0 174 93 255t292 81q203 0 296 -73.5t93 -233.5v-129h-303v100q0 51 -13.5 73t-54.5 22q-45 0 -61.5 -22.5t-16.5 -76.5q0 -29 6.5 -121t12.5 -249h256v-246h-244q2 -18 2 -36.5v-35.5 q0 -127 -41 -209h457v-266h-897z" />
<glyph unicode="&#xa4;" horiz-adv-x="1241" d="M68 438l202 205q-76 106 -75 242q0 135 75 241l-202 205l104 107l205 -203q51 37 110.5 57.5t133.5 20.5q139 0 247 -78l203 203l105 -107l-203 -205q76 -106 76 -241q0 -133 -76 -242l203 -205l-105 -104l-203 203q-51 -37 -111.5 -57.5t-133.5 -20.5q-141 0 -246 78 l-205 -203zM346 885q0 -57 21.5 -107.5t59.5 -87.5t88 -58.5t108 -21.5q57 0 107 21.5t88 58.5t59.5 87t21.5 108q0 55 -21.5 105t-59.5 88t-88 60.5t-107 22.5t-107.5 -22.5t-88.5 -60.5t-59.5 -88t-21.5 -105z" />
<glyph unicode="&#xa5;" d="M20 555v104h277l-68 213h-209v105h177l-164 508h332l161 -754l154 754h309l-162 -508h179v-105h-213l-68 -213h281v-104h-316l-20 -74v-481h-316v481l-24 74h-310z" />
<glyph unicode="&#xa6;" d="M410 -350v758h206v-758h-206zM410 674v758h206v-758h-206z" />
<glyph unicode="&#xa7;" horiz-adv-x="1114" d="M102 731q0 84 41 145.5t119 96.5q-92 82 -92 219q0 311 405 311q203 0 292 -60.5t89 -205.5v-49h-288v22q0 61 -88 62q-49 0 -72 -14.5t-23 -51.5q0 -29 13.5 -47t41 -32.5t69.5 -30t100 -35.5q74 -29 129 -55.5t92 -60.5t56.5 -78t19.5 -103q0 -172 -156 -246 q104 -104 104 -244q0 -293 -415 -292q-215 0 -311.5 60t-96.5 206v67h303v-28q0 -41 20.5 -58.5t73.5 -17.5q55 0 77 13.5t22 47.5q0 31 -12.5 50.5t-35 34t-58.5 27.5t-81 30q-86 33 -149.5 62.5t-105.5 65.5t-62.5 81t-20.5 108zM360 817q0 -37 24 -59.5t73 -40.5 l262 -103q33 27 33 64t-25 59.5t-74 40.5l-262 103q-31 -25 -31 -64z" />
<glyph unicode="&#xa8;" d="M225 1225v245h226v-245h-226zM573 1225v245h226v-245h-226z" />
<glyph unicode="&#xa9;" horiz-adv-x="1705" d="M111 733q0 147 55 282.5t164 246.5q104 106 236 161.5t286 55.5t288 -55.5t242 -163.5q104 -104 159.5 -239.5t55.5 -287.5q0 -154 -55 -285t-160 -235q-111 -109 -247 -166t-283 -57t-280.5 56t-241.5 165q-106 106 -162.5 240.5t-56.5 281.5zM233 735 q0 -125 46.5 -236.5t136.5 -201.5t202.5 -136t235.5 -46t236.5 46t205.5 138q88 86 133.5 196.5t45.5 239.5q0 127 -46.5 238.5t-134.5 200.5q-182 182 -440 182q-129 0 -239.5 -45t-198.5 -135q-90 -92 -136.5 -205t-46.5 -236zM453 729q0 104 28.5 187t81.5 141.5 t128 90.5t165 32q76 0 140.5 -20.5t110.5 -57.5t73.5 -89t31.5 -116h-188q-8 72 -53 109.5t-119 37.5q-88 0 -141.5 -78.5t-53.5 -230.5q0 -147 52.5 -224t150.5 -77q72 0 116 42t54 120h193q-4 -70 -32 -126t-76 -96t-114.5 -62.5t-146.5 -22.5q-186 0 -293.5 116.5 t-107.5 323.5z" />
<glyph unicode="&#xaa;" horiz-adv-x="686" d="M53 938v88q0 92 44 136t141 44q84 0 149 -43v109q0 43 -10 58.5t-45 15.5t-44 -15.5t-12 -58.5h-198v53q0 55 14 89t46 53.5t83 25.5t125 6t125 -6t83 -25.5t46 -53.5t14 -89v-573h-215v59q-29 -41 -68.5 -56.5t-99.5 -15.5q-102 0 -140 44t-38 155zM276 946 q0 -49 56 -49q55 0 55 49v80q0 49 -55 49t-56 -49v-80z" />
<glyph unicode="&#xab;" horiz-adv-x="1013" d="M70 524l157 322h299l-151 -322l162 -323h-310zM494 524l159 322h297l-149 -322l160 -323h-308z" />
<glyph unicode="&#xac;" horiz-adv-x="1705" d="M254 668v196h1198v-502h-199v306h-999z" />
<glyph unicode="&#xad;" horiz-adv-x="692" d="M76 408v256h540v-256h-540z" />
<glyph unicode="&#xae;" horiz-adv-x="1705" d="M111 733q0 203 108 387q100 170 265 264.5t368 94.5q154 0 290 -56.5t244 -167.5q104 -104 157.5 -238t53.5 -284q0 -154 -56 -288t-163 -238q-111 -106 -246 -161.5t-280 -55.5q-150 0 -285 57t-243 168q-104 106 -158.5 239.5t-54.5 278.5zM233 735q0 -123 45.5 -234.5 t133.5 -199.5q90 -92 203.5 -140t236.5 -48t235.5 47t204.5 135q88 86 135.5 196.5t47.5 231.5q0 266 -177 446q-182 187 -444 187q-256 0 -432 -176q-92 -92 -140.5 -207t-48.5 -238zM545 336v825h323q352 0 353 -237q0 -82 -47.5 -139.5t-133.5 -79.5l185 -369h-224 l-157 338h-99v-338h-200zM745 795h99q86 0 128 27.5t42 88.5q0 66 -44 94.5t-136 28.5h-89v-239z" />
<glyph unicode="&#xaf;" d="M225 1270v155h574v-155h-574z" />
<glyph unicode="&#xb0;" horiz-adv-x="673" d="M35 1159q0 63 23.5 118.5t64.5 97.5t96.5 65.5t118.5 23.5t118.5 -24.5t96.5 -65.5t64.5 -96t23.5 -119q0 -61 -23.5 -116.5t-65.5 -97.5t-97.5 -65.5t-118.5 -23.5t-117.5 23.5t-95.5 64.5t-64.5 96.5t-23.5 118.5zM162 1161q0 -74 51 -125t125 -51q37 0 68.5 14.5 t55 39t37 56t13.5 66.5q0 72 -51 123t-123 51q-37 0 -68.5 -13t-55.5 -36.5t-38 -55.5t-14 -69z" />
<glyph unicode="&#xb1;" horiz-adv-x="1705" d="M254 -2v199h1198v-199h-1198zM254 698v199h498v326h202v-326h498v-199h-498v-325h-202v325h-498z" />
<glyph unicode="&#xb2;" horiz-adv-x="675" d="M63 594v143q0 39 3.5 76t17.5 74t41 63.5t68 53.5t86 42t79 37q20 12 21 54v145q0 35 -7 49.5t-36 14.5q-27 0 -35 -14.5t-8 -49.5v-121h-217v84q0 74 12 123t43 77t82 39t129 11t129 -11t81 -39t42 -77t12 -123v-112q0 -74 -27.5 -115t-107.5 -76q-43 -18 -78 -32.5 t-58.5 -30t-36.5 -36t-13 -52.5v-37h315v-160h-537z" />
<glyph unicode="&#xb3;" horiz-adv-x="675" d="M59 799v94h213v-98q0 -37 12.5 -49.5t47.5 -12.5t47 12.5t12 49.5v120q0 43 -19.5 53.5t-78.5 10.5h-82v147h76q61 0 78.5 16.5t17.5 63.5v76q0 37 -10.5 50.5t-44.5 13.5q-33 0 -44.5 -13.5t-11.5 -50.5v-57h-202v55q0 66 12 108t43 65.5t82 32.5t129 9t129 -9 t80.5 -32.5t42 -65.5t12.5 -108v-70q0 -68 -24.5 -100.5t-96.5 -44.5q74 -10 102.5 -46t28.5 -114v-106q0 -66 -13 -108t-45 -65.5t-84 -32.5t-132 -9t-133 9t-85 32.5t-45.5 65.5t-13.5 108z" />
<glyph unicode="&#xb4;" d="M350 1165l197 371h258l-313 -371h-142z" />
<glyph unicode="&#xb6;" d="M41 1130q0 76 26.5 140.5t78 110.5t124 72t162.5 26h551v-111h-113v-1368h-151v1368h-160v-1368h-151v784q-86 2 -154 30t-115 73t-72.5 107.5t-25.5 135.5z" />
<glyph unicode="&#xb7;" horiz-adv-x="512" d="M80 741q0 37 13 69t38 55.5t56.5 38t68.5 14.5q74 0 124 -52.5t50 -124.5q0 -74 -50 -124t-124 -50q-72 0 -124 50t-52 124z" />
<glyph unicode="&#xb8;" d="M283 -309q88 -23 151.5 -33t104.5 -10q100 0 100 73q0 39 -28.5 54.5t-92.5 15.5h-27.5t-29.5 -2v211h102v-90h15q236 0 235 -191q0 -201 -264 -200q-47 0 -113.5 10t-152.5 33v129z" />
<glyph unicode="&#xb9;" horiz-adv-x="675" d="M29 1255q57 59 108 115.5t99 114.5h282v-889h-219v743q-33 -51 -69.5 -98t-77.5 -92z" />
<glyph unicode="&#xba;" horiz-adv-x="700" d="M53 1026v182q0 86 14.5 141.5t48.5 89.5t91 47t143 13t144.5 -13t92.5 -47t48 -90.5t14 -140.5v-182q0 -84 -14 -139.5t-48 -88t-92.5 -46t-144.5 -13.5t-143 13.5t-91 46t-48.5 88t-14.5 139.5zM287 973q0 -43 12 -57.5t51 -14.5t51.5 14.5t12.5 57.5v289q0 45 -12.5 59 t-51.5 14t-51 -15t-12 -58v-289z" />
<glyph unicode="&#xbb;" horiz-adv-x="1013" d="M51 846h309l158 -322l-158 -323h-299l152 323zM479 846h307l160 -322l-160 -323h-299l152 323z" />
<glyph unicode="&#xbc;" horiz-adv-x="1632" d="M27 1270q55 55 104 108.5t92 106.5h273v-830h-209v693q-33 -47 -68 -91.5t-76 -85.5zM303 -18l836 1521h188l-833 -1521h-191zM1016 172v199l209 460h319v-518h55v-141h-55v-172h-201v172h-327zM1167 313h176v414z" />
<glyph unicode="&#xbd;" horiz-adv-x="1632" d="M27 1270q55 55 104 108.5t92 106.5h273v-830h-209v693q-33 -47 -68 -91.5t-76 -85.5zM303 -18l836 1521h188l-833 -1521h-191zM1049 0v133q0 35 2 71t16 70q14 35 38.5 59.5t63.5 47.5q41 25 83 39t77 37q20 10 21 51v135q0 33 -7.5 45t-33.5 12q-27 0 -34 -12t-7 -45 v-113h-209v78q0 70 11 115t41 71.5t79 37t123 10.5q76 0 125 -10.5t77.5 -37t40 -71.5t11.5 -115v-104q0 -35 -6.5 -61.5t-21.5 -47t-39.5 -38t-63.5 -33.5q-41 -16 -74 -29.5t-56.5 -28t-36 -33t-12.5 -49.5v-34h304v-150h-512z" />
<glyph unicode="&#xbe;" horiz-adv-x="1632" d="M57 844v88h203v-90q0 -35 12.5 -47.5t44.5 -12.5q33 0 44.5 12.5t11.5 47.5v110q0 41 -18.5 51.5t-75.5 10.5h-78v135h73q59 0 75 15.5t16 60.5v71q0 35 -10.5 46.5t-43.5 11.5q-31 0 -41 -11.5t-10 -46.5v-53h-192v49q0 61 12 100.5t41 63t77 31.5t121 8q74 0 123.5 -8 t79 -31.5t40.5 -62.5t11 -101v-63q0 -63 -24.5 -94t-91.5 -43q72 -8 99.5 -42t27.5 -106v-100q0 -61 -12.5 -100t-43 -62t-82 -31t-127.5 -8t-126 8t-80.5 31t-43 61.5t-12.5 100.5zM303 -18l836 1521h188l-833 -1521h-191zM1016 172v199l209 460h319v-518h55v-141h-55v-172 h-201v172h-327zM1167 313h176v414z" />
<glyph unicode="&#xbf;" horiz-adv-x="985" d="M90 305v156q0 53 5 93t20.5 72.5t42 61.5t71.5 60q29 18 55.5 34.5t47 35t33 43t12.5 63.5v96h321v-146q0 -72 -17 -122t-71 -90q-53 -39 -92 -67t-61 -50q-20 -23 -23.5 -49.5t-3.5 -67.5v-102q0 -63 16.5 -84t67.5 -21t68.5 21.5t17.5 83.5v116h315v-43 q0 -125 -19 -205.5t-66.5 -128t-127 -65.5t-202.5 -18q-117 0 -195 15t-126 52t-68.5 99.5t-20.5 156.5zM377 1157v328h319v-328h-319z" />
<glyph unicode="&#xc0;" horiz-adv-x="1062" d="M31 0l221 1485h553l227 -1485h-354l-41 365h-219l-41 -365h-346zM239 1974h258l197 -371h-142zM449 612h157l-76 701z" />
<glyph unicode="&#xc1;" horiz-adv-x="1062" d="M31 0l221 1485h553l227 -1485h-354l-41 365h-219l-41 -365h-346zM370 1603l197 371h258l-313 -371h-142zM449 612h157l-76 701z" />
<glyph unicode="&#xc2;" horiz-adv-x="1062" d="M31 0l221 1485h553l227 -1485h-354l-41 365h-219l-41 -365h-346zM217 1603l196 371h238l196 -371h-141l-174 219l-176 -219h-139zM449 612h157l-76 701z" />
<glyph unicode="&#xc3;" horiz-adv-x="1062" d="M31 0l221 1485h553l227 -1485h-354l-41 365h-219l-41 -365h-346zM215 1650q25 121 73.5 179.5t130.5 58.5q41 0 86 -14l93 -27q14 -4 27 -5t28 -1q66 0 86 84h110q-51 -242 -208 -242q-16 0 -35 2t-39 8l-88 25q-16 4 -32.5 8t-33.5 4q-63 0 -88 -80h-110zM449 612h157 l-76 701z" />
<glyph unicode="&#xc4;" horiz-adv-x="1062" d="M31 0l221 1485h553l227 -1485h-354l-41 365h-219l-41 -365h-346zM245 1663v245h226v-245h-226zM449 612h157l-76 701zM593 1663v245h226v-245h-226z" />
<glyph unicode="&#xc5;" horiz-adv-x="1062" d="M31 0l221 1485h190q-164 68 -163 235q0 51 19 97.5t54 81t80 54t98 19.5t99.5 -19.5t81 -54t54 -80.5t19.5 -98q0 -82 -43 -143t-123 -92h187l227 -1485h-354l-41 365h-219l-41 -365h-346zM416 1720q0 -49 32.5 -82.5t81.5 -33.5t83 33.5t34 82.5q0 47 -34.5 81t-82.5 34 q-47 0 -80.5 -33t-33.5 -82zM449 612h157l-76 701z" />
<glyph unicode="&#xc6;" horiz-adv-x="1449" d="M-53 0l469 1485h950v-266h-309v-328h289v-256h-289v-369h338v-266h-670v387h-317l-111 -387h-350zM479 643h246v594h-78z" />
<glyph unicode="&#xc7;" horiz-adv-x="999" d="M90 399v686q0 111 12.5 190t65.5 138q57 61 146 75.5t225 14.5q121 0 198.5 -14t124.5 -74q47 -59 58.5 -139t11.5 -191v-102h-316v150q0 63 -16 83.5t-70 20.5q-53 0 -68.5 -20.5t-15.5 -83.5v-783q0 -63 15.5 -83.5t68.5 -20.5t69.5 20.5t16.5 83.5v203h316v-154 q0 -111 -10.5 -190.5t-57.5 -138.5q-27 -33 -59.5 -50.5t-72.5 -25.5t-88 -10t-105 -2q-66 0 -120 1t-99.5 9t-83 26.5t-68.5 51.5q-53 59 -65.5 139t-12.5 190zM277 -309q88 -23 151.5 -33t104.5 -10q100 0 100 73q0 39 -28.5 54.5t-92.5 15.5h-27.5t-29.5 -2v211h102v-90 h15q236 0 235 -191q0 -201 -264 -200q-47 0 -113.5 10t-152.5 33v129z" />
<glyph unicode="&#xc8;" horiz-adv-x="847" d="M109 0v1485h653v-266h-307v-328h288v-256h-288v-369h336v-266h-682zM145 1974h258l197 -371h-142z" />
<glyph unicode="&#xc9;" horiz-adv-x="847" d="M109 0v1485h653v-266h-307v-328h288v-256h-288v-369h336v-266h-682zM276 1603l197 371h258l-313 -371h-142z" />
<glyph unicode="&#xca;" horiz-adv-x="847" d="M109 0v1485h653v-266h-307v-328h288v-256h-288v-369h336v-266h-682zM123 1603l196 371h238l196 -371h-141l-174 219l-176 -219h-139z" />
<glyph unicode="&#xcb;" horiz-adv-x="847" d="M109 0v1485h653v-266h-307v-328h288v-256h-288v-369h336v-266h-682zM151 1663v245h226v-245h-226zM499 1663v245h226v-245h-226z" />
<glyph unicode="&#xcc;" horiz-adv-x="579" d="M0 1974h258l197 -371h-142zM115 0v1485h346v-1485h-346z" />
<glyph unicode="&#xcd;" horiz-adv-x="579" d="M115 0v1485h346v-1485h-346zM131 1603l197 371h258l-313 -371h-142z" />
<glyph unicode="&#xce;" horiz-adv-x="579" d="M-22 1603l196 371h238l196 -371h-141l-174 219l-176 -219h-139zM115 0v1485h346v-1485h-346z" />
<glyph unicode="&#xcf;" horiz-adv-x="579" d="M6 1663v245h226v-245h-226zM115 0v1485h346v-1485h-346zM354 1663v245h226v-245h-226z" />
<glyph unicode="&#xd0;" horiz-adv-x="1095" d="M0 698v162h119v625h438q135 0 221 -21.5t137.5 -75t71 -141.5t19.5 -223v-563q0 -135 -19.5 -223t-71 -141.5t-137.5 -75t-221 -21.5h-438v698h-119zM455 264h102q53 0 72.5 19.5t19.5 81.5v753q0 61 -18.5 81t-73.5 20h-102v-359h116v-162h-116v-434z" />
<glyph unicode="&#xd1;" horiz-adv-x="1265" d="M109 0v1485h487l268 -1174l-20 1174h313v-1485h-485l-273 1206l23 -1206h-313zM316 1650q25 121 73.5 179.5t130.5 58.5q41 0 86 -14l93 -27q14 -4 27 -5t28 -1q66 0 86 84h110q-51 -242 -208 -242q-16 0 -35 2t-39 8l-88 25q-16 4 -32.5 8t-33.5 4q-63 0 -88 -80h-110z " />
<glyph unicode="&#xd2;" horiz-adv-x="1075" d="M90 399v686q0 111 12.5 190t65.5 138q57 61 146 75.5t225 14.5q135 0 223 -14t145 -76q53 -59 65.5 -138t12.5 -190v-686q0 -111 -11 -190.5t-65 -138.5q-31 -33 -68.5 -51.5t-82.5 -26.5t-100.5 -9t-118.5 -1q-66 0 -120 1t-99.5 9t-83 26.5t-68.5 51.5 q-53 59 -65.5 139t-12.5 190zM246 1974h258l197 -371h-142zM446 350q0 -63 18.5 -83.5t74.5 -20.5q55 0 73.5 20.5t18.5 83.5v783q0 63 -18.5 83.5t-73.5 20.5t-74 -20.5t-19 -83.5v-783z" />
<glyph unicode="&#xd3;" horiz-adv-x="1075" d="M90 399v686q0 111 12.5 190t65.5 138q57 61 146 75.5t225 14.5q135 0 223 -14t145 -76q53 -59 65.5 -138t12.5 -190v-686q0 -111 -11 -190.5t-65 -138.5q-31 -33 -68.5 -51.5t-82.5 -26.5t-100.5 -9t-118.5 -1q-66 0 -120 1t-99.5 9t-83 26.5t-68.5 51.5 q-53 59 -65.5 139t-12.5 190zM377 1603l197 371h258l-313 -371h-142zM446 350q0 -63 18.5 -83.5t74.5 -20.5q55 0 73.5 20.5t18.5 83.5v783q0 63 -18.5 83.5t-73.5 20.5t-74 -20.5t-19 -83.5v-783z" />
<glyph unicode="&#xd4;" horiz-adv-x="1075" d="M90 399v686q0 111 12.5 190t65.5 138q57 61 146 75.5t225 14.5q135 0 223 -14t145 -76q53 -59 65.5 -138t12.5 -190v-686q0 -111 -11 -190.5t-65 -138.5q-31 -33 -68.5 -51.5t-82.5 -26.5t-100.5 -9t-118.5 -1q-66 0 -120 1t-99.5 9t-83 26.5t-68.5 51.5 q-53 59 -65.5 139t-12.5 190zM224 1603l196 371h238l196 -371h-141l-174 219l-176 -219h-139zM446 350q0 -63 18.5 -83.5t74.5 -20.5q55 0 73.5 20.5t18.5 83.5v783q0 63 -18.5 83.5t-73.5 20.5t-74 -20.5t-19 -83.5v-783z" />
<glyph unicode="&#xd5;" horiz-adv-x="1075" d="M90 399v686q0 111 12.5 190t65.5 138q57 61 146 75.5t225 14.5q135 0 223 -14t145 -76q53 -59 65.5 -138t12.5 -190v-686q0 -111 -11 -190.5t-65 -138.5q-31 -33 -68.5 -51.5t-82.5 -26.5t-100.5 -9t-118.5 -1q-66 0 -120 1t-99.5 9t-83 26.5t-68.5 51.5 q-53 59 -65.5 139t-12.5 190zM222 1650q25 121 73.5 179.5t130.5 58.5q41 0 86 -14l93 -27q14 -4 27 -5t28 -1q66 0 86 84h110q-51 -242 -208 -242q-16 0 -35 2t-39 8l-88 25q-16 4 -32.5 8t-33.5 4q-63 0 -88 -80h-110zM446 350q0 -63 18.5 -83.5t74.5 -20.5 q55 0 73.5 20.5t18.5 83.5v783q0 63 -18.5 83.5t-73.5 20.5t-74 -20.5t-19 -83.5v-783z" />
<glyph unicode="&#xd6;" horiz-adv-x="1075" d="M90 399v686q0 111 12.5 190t65.5 138q57 61 146 75.5t225 14.5q135 0 223 -14t145 -76q53 -59 65.5 -138t12.5 -190v-686q0 -111 -11 -190.5t-65 -138.5q-31 -33 -68.5 -51.5t-82.5 -26.5t-100.5 -9t-118.5 -1q-66 0 -120 1t-99.5 9t-83 26.5t-68.5 51.5 q-53 59 -65.5 139t-12.5 190zM252 1663v245h226v-245h-226zM446 350q0 -63 18.5 -83.5t74.5 -20.5q55 0 73.5 20.5t18.5 83.5v783q0 63 -18.5 83.5t-73.5 20.5t-74 -20.5t-19 -83.5v-783zM600 1663v245h226v-245h-226z" />
<glyph unicode="&#xd7;" horiz-adv-x="1705" d="M276 160l451 450l-451 453l140 139l450 -450l451 450l141 -139l-450 -453l450 -450l-141 -140l-451 451l-450 -451z" />
<glyph unicode="&#xd8;" horiz-adv-x="1075" d="M-4 -76l121 223q-20 57 -23.5 120t-3.5 132v686q0 111 12.5 190t65.5 138q57 61 146 75.5t225 14.5q72 0 142.5 -4t141.5 -26l84 153l148 -80l-105 -196q25 -47 30 -111.5t5 -153.5v-686q0 -123 -17.5 -203.5t-62.5 -129t-124 -66.5t-201 -18q-119 0 -203 4t-137 32 l-95 -178zM434 344q0 -66 21.5 -86t83.5 -20q59 0 80.5 20.5t21.5 85.5v453l-207 -428v-25zM434 717l207 426q-2 63 -22.5 83.5t-79.5 20.5q-61 0 -83 -20.5t-22 -85.5v-424z" />
<glyph unicode="&#xd9;" horiz-adv-x="1067" d="M102 479v1006h347v-1131q0 -63 18 -83.5t74 -20.5q55 0 73.5 20.5t18.5 83.5v1131h332v-1006q0 -129 -12.5 -224t-65.5 -167q-51 -66 -136 -86t-219 -20q-133 0 -218 19t-136 87q-53 72 -64.5 167t-11.5 224zM242 1974h258l197 -371h-142z" />
<glyph unicode="&#xda;" horiz-adv-x="1067" d="M102 479v1006h347v-1131q0 -63 18 -83.5t74 -20.5q55 0 73.5 20.5t18.5 83.5v1131h332v-1006q0 -129 -12.5 -224t-65.5 -167q-51 -66 -136 -86t-219 -20q-133 0 -218 19t-136 87q-53 72 -64.5 167t-11.5 224zM373 1603l197 371h258l-313 -371h-142z" />
<glyph unicode="&#xdb;" horiz-adv-x="1067" d="M102 479v1006h347v-1131q0 -63 18 -83.5t74 -20.5q55 0 73.5 20.5t18.5 83.5v1131h332v-1006q0 -129 -12.5 -224t-65.5 -167q-51 -66 -136 -86t-219 -20q-133 0 -218 19t-136 87q-53 72 -64.5 167t-11.5 224zM220 1603l196 371h238l196 -371h-141l-174 219l-176 -219 h-139z" />
<glyph unicode="&#xdc;" horiz-adv-x="1067" d="M102 479v1006h347v-1131q0 -63 18 -83.5t74 -20.5q55 0 73.5 20.5t18.5 83.5v1131h332v-1006q0 -129 -12.5 -224t-65.5 -167q-51 -66 -136 -86t-219 -20q-133 0 -218 19t-136 87q-53 72 -64.5 167t-11.5 224zM248 1663v245h226v-245h-226zM596 1663v245h226v-245h-226z " />
<glyph unicode="&#xdd;" horiz-adv-x="944" d="M-6 1485h350l143 -672l134 672h327l-301 -1004v-481h-346v481zM313 1603l197 371h258l-313 -371h-142z" />
<glyph unicode="&#xde;" horiz-adv-x="1034" d="M109 0v1485h346v-211h49q129 0 220 -17.5t148.5 -60.5t84 -116.5t26.5 -186.5v-301q0 -113 -25.5 -186.5t-82 -116.5t-146.5 -60.5t-217 -17.5h-57v-211h-346zM455 483h77q59 0 81 20.5t22 86.5v315q0 66 -21.5 86.5t-81.5 20.5h-77v-529z" />
<glyph unicode="&#xdf;" horiz-adv-x="999" d="M98 0v1147q0 186 95.5 275t293.5 89q199 0 289 -77.5t90 -243.5v-94q0 -115 -50 -176.5t-161 -83.5q74 -14 124 -38t80 -62t43 -91t13 -127v-180q0 -182 -74.5 -269t-232.5 -87q-82 0 -145 34v242q31 -14 67 -14q47 0 62.5 34.5t15.5 112.5v133q0 84 -30.5 121t-114.5 47 v248q39 2 62.5 10t34.5 23.5t14.5 40t3.5 61.5v103q0 66 -17.5 87t-71.5 21q-53 0 -70.5 -21.5t-17.5 -86.5v-1178h-303z" />
<glyph unicode="&#xe0;" horiz-adv-x="915" d="M70 266v127q0 131 59 193.5t188 62.5q55 0 106.5 -16.5t92.5 -44.5v155q0 61 -13.5 83t-60.5 22q-45 0 -58 -21.5t-15 -83.5h-267v76q0 80 19.5 128t61.5 75t110.5 36t167.5 9q98 0 166.5 -9t110.5 -36t61.5 -75t19.5 -128v-819h-287v84q-37 -59 -90 -80.5t-135 -21.5 q-68 0 -114 15t-73.5 49t-38.5 88t-11 132zM186 1536h258l197 -371h-142zM369 279q0 -72 73 -72q74 0 74 72v112q0 72 -74 72t-73 -72v-112z" />
<glyph unicode="&#xe1;" horiz-adv-x="915" d="M70 266v127q0 131 59 193.5t188 62.5q55 0 106.5 -16.5t92.5 -44.5v155q0 61 -13.5 83t-60.5 22q-45 0 -58 -21.5t-15 -83.5h-267v76q0 80 19.5 128t61.5 75t110.5 36t167.5 9q98 0 166.5 -9t110.5 -36t61.5 -75t19.5 -128v-819h-287v84q-37 -59 -90 -80.5t-135 -21.5 q-68 0 -114 15t-73.5 49t-38.5 88t-11 132zM317 1165l197 371h258l-313 -371h-142zM369 279q0 -72 73 -72q74 0 74 72v112q0 72 -74 72t-73 -72v-112z" />
<glyph unicode="&#xe2;" horiz-adv-x="915" d="M70 266v127q0 131 59 193.5t188 62.5q55 0 106.5 -16.5t92.5 -44.5v155q0 61 -13.5 83t-60.5 22q-45 0 -58 -21.5t-15 -83.5h-267v76q0 80 19.5 128t61.5 75t110.5 36t167.5 9q98 0 166.5 -9t110.5 -36t61.5 -75t19.5 -128v-819h-287v84q-37 -59 -90 -80.5t-135 -21.5 q-68 0 -114 15t-73.5 49t-38.5 88t-11 132zM164 1165l196 371h238l196 -371h-141l-174 219l-176 -219h-139zM369 279q0 -72 73 -72q74 0 74 72v112q0 72 -74 72t-73 -72v-112z" />
<glyph unicode="&#xe3;" horiz-adv-x="915" d="M70 266v127q0 131 59 193.5t188 62.5q55 0 106.5 -16.5t92.5 -44.5v155q0 61 -13.5 83t-60.5 22q-45 0 -58 -21.5t-15 -83.5h-267v76q0 80 19.5 128t61.5 75t110.5 36t167.5 9q98 0 166.5 -9t110.5 -36t61.5 -75t19.5 -128v-819h-287v84q-37 -59 -90 -80.5t-135 -21.5 q-68 0 -114 15t-73.5 49t-38.5 88t-11 132zM162 1212q25 121 73.5 179.5t130.5 58.5q41 0 86 -14l93 -27q14 -4 27 -5t28 -1q66 0 86 84h110q-51 -242 -208 -242q-16 0 -35 2t-39 8l-88 25q-16 4 -32.5 8t-33.5 4q-63 0 -88 -80h-110zM369 279q0 -72 73 -72q74 0 74 72v112 q0 72 -74 72t-73 -72v-112z" />
<glyph unicode="&#xe4;" horiz-adv-x="915" d="M70 266v127q0 131 59 193.5t188 62.5q55 0 106.5 -16.5t92.5 -44.5v155q0 61 -13.5 83t-60.5 22q-45 0 -58 -21.5t-15 -83.5h-267v76q0 80 19.5 128t61.5 75t110.5 36t167.5 9q98 0 166.5 -9t110.5 -36t61.5 -75t19.5 -128v-819h-287v84q-37 -59 -90 -80.5t-135 -21.5 q-68 0 -114 15t-73.5 49t-38.5 88t-11 132zM192 1225v245h226v-245h-226zM369 279q0 -72 73 -72q74 0 74 72v112q0 72 -74 72t-73 -72v-112zM540 1225v245h226v-245h-226z" />
<glyph unicode="&#xe5;" horiz-adv-x="915" d="M70 266v127q0 131 59 193.5t188 62.5q55 0 106.5 -16.5t92.5 -44.5v155q0 61 -13.5 83t-60.5 22q-45 0 -58 -21.5t-15 -83.5h-267v76q0 80 19.5 128t61.5 75t110.5 36t167.5 9q98 0 166.5 -9t110.5 -36t61.5 -75t19.5 -128v-819h-287v84q-37 -59 -90 -80.5t-135 -21.5 q-68 0 -114 15t-73.5 49t-38.5 88t-11 132zM213 1399q0 55 20.5 103t56.5 85t85 57.5t104 20.5t104.5 -20.5t85.5 -57.5t56 -85t20 -103t-20 -104.5t-56 -85t-85 -56t-105 -20.5q-55 0 -104 20.5t-85 56t-56.5 85t-20.5 104.5zM356 1399q0 -53 35 -87t88 -34t88 35t35 86 t-36 87t-87 36q-53 0 -88 -35t-35 -88zM369 279q0 -72 73 -72q74 0 74 72v112q0 72 -74 72t-73 -72v-112z" />
<glyph unicode="&#xe6;" horiz-adv-x="1380" d="M84 266v127q0 131 59.5 193.5t188.5 62.5q111 0 211 -61v155q0 63 -15.5 84t-64.5 21q-47 0 -62.5 -21.5t-15.5 -83.5h-268v76q0 72 16.5 120t54 76.5t98 40t148.5 11.5q111 0 176.5 -16.5t94.5 -63.5q37 47 95 63.5t148 16.5q106 0 177 -21.5t112 -69.5t58.5 -127 t17.5 -196v-204h-475v-132q0 -63 18 -83.5t76 -20.5q57 0 76.5 19.5t19.5 84.5v23h285v-70q0 -82 -19.5 -137t-61.5 -89t-108.5 -48t-162.5 -14q-131 0 -209 25.5t-113 86.5q-39 -68 -106.5 -90t-178.5 -22q-147 0 -208.5 67.5t-61.5 216.5zM385 279q0 -33 20.5 -52.5 t57.5 -19.5t58.5 19.5t21.5 52.5v112q0 33 -21.5 52.5t-58.5 19.5t-57.5 -19.5t-20.5 -52.5v-112zM838 655h192v95q0 63 -20.5 83.5t-77.5 20.5q-59 0 -76.5 -20.5t-17.5 -83.5v-95z" />
<glyph unicode="&#xe7;" horiz-adv-x="876" d="M70 393v260q0 121 18 201t64.5 127t123 66.5t193.5 19.5q98 0 164.5 -14.5t106.5 -51t56.5 -100t16.5 -160.5v-51h-285v39q0 61 -14 83t-59 22t-59.5 -21.5t-14.5 -83.5v-412q0 -61 14.5 -82.5t59.5 -21.5t59 21.5t14 82.5v97h285v-107q0 -96 -16.5 -159.5t-56.5 -100.5 t-106.5 -51t-164.5 -14q-117 0 -193.5 18t-123 65.5t-64.5 127t-18 200.5zM211 -309q88 -23 151.5 -33t104.5 -10q100 0 100 73q0 39 -28.5 54.5t-92.5 15.5h-27.5t-29.5 -2v211h102v-90h15q236 0 235 -191q0 -201 -264 -200q-47 0 -113.5 10t-152.5 33v129z" />
<glyph unicode="&#xe8;" horiz-adv-x="933" d="M70 393v260q0 121 18 201t64.5 127t122 66.5t192.5 19.5t192.5 -19.5t121.5 -66.5t64.5 -127t18.5 -201v-204h-483v-132q0 -63 17.5 -83.5t74.5 -20.5q55 0 73.5 20.5t18.5 83.5v23h299v-70q0 -90 -22.5 -146t-73.5 -88t-131 -43t-195 -11q-109 0 -180.5 21.5 t-114.5 69.5t-60 127t-17 193zM176 1536h258l197 -371h-142zM381 655h192v101q0 68 -18 88t-78 20q-57 0 -76.5 -21.5t-19.5 -86.5v-101z" />
<glyph unicode="&#xe9;" horiz-adv-x="933" d="M70 393v260q0 121 18 201t64.5 127t122 66.5t192.5 19.5t192.5 -19.5t121.5 -66.5t64.5 -127t18.5 -201v-204h-483v-132q0 -63 17.5 -83.5t74.5 -20.5q55 0 73.5 20.5t18.5 83.5v23h299v-70q0 -90 -22.5 -146t-73.5 -88t-131 -43t-195 -11q-109 0 -180.5 21.5 t-114.5 69.5t-60 127t-17 193zM307 1165l197 371h258l-313 -371h-142zM381 655h192v101q0 68 -18 88t-78 20q-57 0 -76.5 -21.5t-19.5 -86.5v-101z" />
<glyph unicode="&#xea;" horiz-adv-x="933" d="M70 393v260q0 121 18 201t64.5 127t122 66.5t192.5 19.5t192.5 -19.5t121.5 -66.5t64.5 -127t18.5 -201v-204h-483v-132q0 -63 17.5 -83.5t74.5 -20.5q55 0 73.5 20.5t18.5 83.5v23h299v-70q0 -90 -22.5 -146t-73.5 -88t-131 -43t-195 -11q-109 0 -180.5 21.5 t-114.5 69.5t-60 127t-17 193zM154 1165l196 371h238l196 -371h-141l-174 219l-176 -219h-139zM381 655h192v101q0 68 -18 88t-78 20q-57 0 -76.5 -21.5t-19.5 -86.5v-101z" />
<glyph unicode="&#xeb;" horiz-adv-x="933" d="M70 393v260q0 121 18 201t64.5 127t122 66.5t192.5 19.5t192.5 -19.5t121.5 -66.5t64.5 -127t18.5 -201v-204h-483v-132q0 -63 17.5 -83.5t74.5 -20.5q55 0 73.5 20.5t18.5 83.5v23h299v-70q0 -90 -22.5 -146t-73.5 -88t-131 -43t-195 -11q-109 0 -180.5 21.5 t-114.5 69.5t-60 127t-17 193zM182 1225v245h226v-245h-226zM381 655h192v101q0 68 -18 88t-78 20q-57 0 -76.5 -21.5t-19.5 -86.5v-101zM530 1225v245h226v-245h-226z" />
<glyph unicode="&#xec;" horiz-adv-x="493" d="M-43 1536h258l197 -371h-142zM94 0v1049h303v-1049h-303z" />
<glyph unicode="&#xed;" horiz-adv-x="493" d="M88 1165l197 371h258l-313 -371h-142zM94 0v1049h303v-1049h-303z" />
<glyph unicode="&#xee;" horiz-adv-x="493" d="M-65 1165l196 371h238l196 -371h-141l-174 219l-176 -219h-139zM94 0v1049h303v-1049h-303z" />
<glyph unicode="&#xef;" horiz-adv-x="493" d="M-37 1225v245h226v-245h-226zM94 0v1049h303v-1049h-303zM311 1225v245h226v-245h-226z" />
<glyph unicode="&#xf0;" horiz-adv-x="933" d="M68 418v217q0 219 68.5 324.5t225.5 105.5q76 0 124.5 -32t95.5 -103q-45 145 -123 280l-234 -82l-53 134l213 75l-92 152h260l49 -74l139 51l60 -135l-115 -39q94 -156 134 -309.5t40 -331.5v-233q0 -117 -17.5 -199t-56 -134t-104.5 -75.5t-160 -23.5h-116 q-96 0 -161 23.5t-105 75.5t-56 134t-16 199zM381 317q0 -63 16.5 -83.5t69.5 -20.5q51 0 67.5 21.5t16.5 82.5v412q0 63 -15.5 84t-68.5 21q-51 0 -68.5 -21.5t-17.5 -83.5v-412z" />
<glyph unicode="&#xf1;" horiz-adv-x="944" d="M94 0v1049h283v-136q47 82 105.5 118t148.5 36q68 0 110.5 -18.5t67.5 -57.5t34 -99.5t9 -143.5v-748h-303v731q0 53 -15.5 74.5t-60.5 21.5t-60.5 -21.5t-15.5 -74.5v-731h-303zM158 1212q25 121 73.5 179.5t130.5 58.5q41 0 86 -14l93 -27q14 -4 27 -5t28 -1 q66 0 86 84h110q-51 -242 -208 -242q-16 0 -35 2t-39 8l-88 25q-16 4 -32.5 8t-33.5 4q-63 0 -88 -80h-110z" />
<glyph unicode="&#xf2;" horiz-adv-x="933" d="M70 393v260q0 121 18 201t64.5 127t122 66.5t192.5 19.5t192.5 -19.5t121.5 -66.5t64.5 -127t18.5 -201v-260q0 -121 -18.5 -199.5t-64.5 -126t-121.5 -66.5t-192.5 -19t-192.5 18t-122 65.5t-64.5 127t-18 200.5zM176 1536h258l197 -371h-142zM381 317q0 -63 17.5 -83.5 t68.5 -20.5t67.5 21.5t16.5 82.5v412q0 63 -16.5 84t-67.5 21t-68.5 -21.5t-17.5 -83.5v-412z" />
<glyph unicode="&#xf3;" horiz-adv-x="933" d="M70 393v260q0 121 18 201t64.5 127t122 66.5t192.5 19.5t192.5 -19.5t121.5 -66.5t64.5 -127t18.5 -201v-260q0 -121 -18.5 -199.5t-64.5 -126t-121.5 -66.5t-192.5 -19t-192.5 18t-122 65.5t-64.5 127t-18 200.5zM307 1165l197 371h258l-313 -371h-142zM381 317 q0 -63 17.5 -83.5t68.5 -20.5t67.5 21.5t16.5 82.5v412q0 63 -16.5 84t-67.5 21t-68.5 -21.5t-17.5 -83.5v-412z" />
<glyph unicode="&#xf4;" horiz-adv-x="933" d="M70 393v260q0 121 18 201t64.5 127t122 66.5t192.5 19.5t192.5 -19.5t121.5 -66.5t64.5 -127t18.5 -201v-260q0 -121 -18.5 -199.5t-64.5 -126t-121.5 -66.5t-192.5 -19t-192.5 18t-122 65.5t-64.5 127t-18 200.5zM154 1165l196 371h238l196 -371h-141l-174 219 l-176 -219h-139zM381 317q0 -63 17.5 -83.5t68.5 -20.5t67.5 21.5t16.5 82.5v412q0 63 -16.5 84t-67.5 21t-68.5 -21.5t-17.5 -83.5v-412z" />
<glyph unicode="&#xf5;" horiz-adv-x="933" d="M70 393v260q0 121 18 201t64.5 127t122 66.5t192.5 19.5t192.5 -19.5t121.5 -66.5t64.5 -127t18.5 -201v-260q0 -121 -18.5 -199.5t-64.5 -126t-121.5 -66.5t-192.5 -19t-192.5 18t-122 65.5t-64.5 127t-18 200.5zM152 1212q25 121 73.5 179.5t130.5 58.5q41 0 86 -14 l93 -27q14 -4 27 -5t28 -1q66 0 86 84h110q-51 -242 -208 -242q-16 0 -35 2t-39 8l-88 25q-16 4 -32.5 8t-33.5 4q-63 0 -88 -80h-110zM381 317q0 -63 17.5 -83.5t68.5 -20.5t67.5 21.5t16.5 82.5v412q0 63 -16.5 84t-67.5 21t-68.5 -21.5t-17.5 -83.5v-412z" />
<glyph unicode="&#xf6;" horiz-adv-x="933" d="M70 393v260q0 121 18 201t64.5 127t122 66.5t192.5 19.5t192.5 -19.5t121.5 -66.5t64.5 -127t18.5 -201v-260q0 -121 -18.5 -199.5t-64.5 -126t-121.5 -66.5t-192.5 -19t-192.5 18t-122 65.5t-64.5 127t-18 200.5zM182 1225v245h226v-245h-226zM381 317q0 -63 17.5 -83.5 t68.5 -20.5t67.5 21.5t16.5 82.5v412q0 63 -16.5 84t-67.5 21t-68.5 -21.5t-17.5 -83.5v-412zM530 1225v245h226v-245h-226z" />
<glyph unicode="&#xf7;" horiz-adv-x="1705" d="M254 512v199h1198v-199h-1198zM702 217q0 66 45.5 109t106.5 43t106.5 -44t45.5 -108q0 -59 -44 -104t-108 -45q-63 0 -107.5 43t-44.5 106zM702 1004q0 66 45.5 108.5t106.5 42.5t106.5 -44t45.5 -107q0 -61 -43 -106.5t-109 -45.5q-63 0 -107.5 44t-44.5 108z" />
<glyph unicode="&#xf8;" horiz-adv-x="933" d="M2 -57l113 172q-27 47 -36 116.5t-9 161.5v260q0 121 18 201t64.5 127t122 66.5t192.5 19.5q70 0 129 -6t113 -29l94 144l125 -84l-107 -168q23 -43 33 -109.5t10 -161.5v-260q0 -121 -18.5 -199.5t-64.5 -126t-121.5 -66.5t-192.5 -19q-66 0 -125 4t-113 28l-98 -155z M358 461l207 340q-6 35 -29.5 47t-70.5 12q-63 0 -85 -21.5t-22 -90.5v-287zM365 231q16 -29 38.5 -35t61.5 -6q63 0 83.5 24t20.5 89v264z" />
<glyph unicode="&#xf9;" horiz-adv-x="944" d="M92 301v748h305v-732q0 -53 14.5 -74.5t59.5 -21.5t60.5 21.5t15.5 74.5v732h305v-1049h-285v133q-47 -82 -105.5 -116.5t-148.5 -34.5q-68 0 -110.5 18t-67 57t-34 99.5t-9.5 144.5zM182 1536h258l197 -371h-142z" />
<glyph unicode="&#xfa;" horiz-adv-x="944" d="M92 301v748h305v-732q0 -53 14.5 -74.5t59.5 -21.5t60.5 21.5t15.5 74.5v732h305v-1049h-285v133q-47 -82 -105.5 -116.5t-148.5 -34.5q-68 0 -110.5 18t-67 57t-34 99.5t-9.5 144.5zM313 1165l197 371h258l-313 -371h-142z" />
<glyph unicode="&#xfb;" horiz-adv-x="944" d="M92 301v748h305v-732q0 -53 14.5 -74.5t59.5 -21.5t60.5 21.5t15.5 74.5v732h305v-1049h-285v133q-47 -82 -105.5 -116.5t-148.5 -34.5q-68 0 -110.5 18t-67 57t-34 99.5t-9.5 144.5zM160 1165l196 371h238l196 -371h-141l-174 219l-176 -219h-139z" />
<glyph unicode="&#xfc;" horiz-adv-x="944" d="M92 301v748h305v-732q0 -53 14.5 -74.5t59.5 -21.5t60.5 21.5t15.5 74.5v732h305v-1049h-285v133q-47 -82 -105.5 -116.5t-148.5 -34.5q-68 0 -110.5 18t-67 57t-34 99.5t-9.5 144.5zM188 1225v245h226v-245h-226zM536 1225v245h226v-245h-226z" />
<glyph unicode="&#xfd;" horiz-adv-x="858" d="M35 1049h303l94 -897l103 897h292l-145 -975q-18 -117 -39.5 -204t-58.5 -143.5t-94.5 -84t-147.5 -27.5q-41 0 -82 7t-86 20v213q49 -12 80 -13q131 0 143 158h-225zM270 1165l197 371h258l-313 -371h-142z" />
<glyph unicode="&#xfe;" horiz-adv-x="952" d="M100 -383v1894h303v-565q72 121 230 121q133 0 183 -82t50 -258v-405q0 -88 -10 -152t-35.5 -105.5t-69.5 -62t-110 -20.5q-86 0 -142.5 33.5t-95.5 109.5v-508h-303zM403 317q0 -61 14.5 -82.5t61.5 -21.5t60.5 21.5t13.5 82.5v412q0 61 -13.5 83t-60.5 22t-61.5 -21.5 t-14.5 -83.5v-412z" />
<glyph unicode="&#xff;" horiz-adv-x="858" d="M35 1049h303l94 -897l103 897h292l-145 -975q-18 -117 -39.5 -204t-58.5 -143.5t-94.5 -84t-147.5 -27.5q-41 0 -82 7t-86 20v213q49 -12 80 -13q131 0 143 158h-225zM145 1225v245h226v-245h-226zM493 1225v245h226v-245h-226z" />
<glyph unicode="&#x152;" horiz-adv-x="1370" d="M90 399v686q0 113 16.5 193t57.5 130t113.5 72.5t187.5 22.5q170 0 244 -86v68h575v-266h-307v-328h289v-256h-289v-369h336v-266h-604v68q-35 -47 -95.5 -67.5t-152.5 -20.5q-115 0 -186.5 24.5t-112.5 74.5t-56.5 130t-15.5 190zM446 350q0 -63 18.5 -83.5t74.5 -20.5 q55 0 73.5 20.5t18.5 83.5v783q0 63 -18.5 83.5t-73.5 20.5t-74 -20.5t-19 -83.5v-783z" />
<glyph unicode="&#x153;" horiz-adv-x="1388" d="M68 393v260q0 121 18 201t62.5 127t118 66.5t184.5 19.5q84 0 145 -13.5t113 -66.5q41 47 100 63.5t149 16.5q106 0 177 -21.5t112 -69.5t58.5 -127t17.5 -196v-204h-477v-132q0 -63 18.5 -83.5t75.5 -20.5t76.5 19.5t19.5 84.5v23h287v-70q0 -86 -20.5 -141t-64.5 -88 t-115.5 -46t-174.5 -13q-78 0 -136.5 14t-111.5 61q-33 -47 -92 -61t-157 -14q-111 0 -184.5 19t-118 66.5t-62.5 126t-18 199.5zM369 322q0 -66 17 -87.5t71 -21.5q53 0 70.5 21.5t17.5 87.5v423q0 66 -17.5 86.5t-70.5 20.5t-70.5 -20.5t-17.5 -86.5v-423zM846 655h192v95 q0 63 -19.5 83.5t-76.5 20.5q-59 0 -77.5 -20.5t-18.5 -83.5v-95z" />
<glyph unicode="&#x178;" horiz-adv-x="944" d="M-6 1485h350l143 -672l134 672h327l-301 -1004v-481h-346v481zM188 1663v245h226v-245h-226zM536 1663v245h226v-245h-226z" />
<glyph unicode="&#x2c6;" d="M197 1165l196 371h238l196 -371h-141l-174 219l-176 -219h-139z" />
<glyph unicode="&#x2dc;" d="M195 1212q25 121 73.5 179.5t130.5 58.5q41 0 86 -14l93 -27q14 -4 27 -5t28 -1q66 0 86 84h110q-51 -242 -208 -242q-16 0 -35 2t-39 8l-88 25q-16 4 -32.5 8t-33.5 4q-63 0 -88 -80h-110z" />
<glyph unicode="&#x2000;" horiz-adv-x="987" />
<glyph unicode="&#x2001;" horiz-adv-x="1974" />
<glyph unicode="&#x2002;" horiz-adv-x="987" />
<glyph unicode="&#x2003;" horiz-adv-x="1974" />
<glyph unicode="&#x2004;" horiz-adv-x="658" />
<glyph unicode="&#x2005;" horiz-adv-x="493" />
<glyph unicode="&#x2006;" horiz-adv-x="329" />
<glyph unicode="&#x2007;" horiz-adv-x="329" />
<glyph unicode="&#x2008;" horiz-adv-x="246" />
<glyph unicode="&#x2009;" horiz-adv-x="394" />
<glyph unicode="&#x200a;" horiz-adv-x="109" />
<glyph unicode="&#x2010;" horiz-adv-x="692" d="M76 408v256h540v-256h-540z" />
<glyph unicode="&#x2011;" horiz-adv-x="692" d="M76 408v256h540v-256h-540z" />
<glyph unicode="&#x2012;" horiz-adv-x="692" d="M76 408v256h540v-256h-540z" />
<glyph unicode="&#x2013;" d="M0 436v199h1024v-199h-1024z" />
<glyph unicode="&#x2014;" horiz-adv-x="2048" d="M0 436v199h2048v-199h-2048z" />
<glyph unicode="&#x2018;" horiz-adv-x="512" d="M109 870v336q0 291 290 297v-160q-61 -4 -88.5 -34.5t-27.5 -94.5q0 -8 1 -15t1 -15h118v-314h-294z" />
<glyph unicode="&#x2019;" horiz-adv-x="512" d="M109 1169v316h292v-338q0 -291 -290 -297v160q61 4 88.5 34.5t27.5 94.5q0 8 -1 15t-1 15h-116z" />
<glyph unicode="&#x201a;" horiz-adv-x="512" d="M109 12v316h292v-338q0 -291 -290 -297v160q61 4 88.5 34.5t27.5 94.5q0 8 -1 15t-1 15h-116z" />
<glyph unicode="&#x201c;" horiz-adv-x="901" d="M109 868v338q0 291 290 297v-160q-61 -4 -88.5 -34.5t-27.5 -94.5q0 -8 1 -15t1 -15h116v-316h-292zM498 868v338q0 291 288 297v-160q-61 -4 -88.5 -34.5t-27.5 -94.5q0 -8 1 -15t1 -15h119v-316h-293z" />
<glyph unicode="&#x201d;" horiz-adv-x="901" d="M109 1169v316h292v-338q0 -291 -290 -297v160q61 4 88.5 34.5t27.5 94.5q0 8 -1 15t-1 15h-116zM498 1169v316h293v-338q0 -291 -291 -297v160q61 4 88.5 34.5t27.5 94.5q0 8 -1 15t-1 15h-116z" />
<glyph unicode="&#x201e;" horiz-adv-x="901" d="M109 12v316h292v-338q0 -291 -290 -297v160q61 4 88.5 34.5t27.5 94.5q0 8 -1 15t-1 15h-116zM498 12v316h293v-338q0 -291 -291 -297v160q61 4 88.5 34.5t27.5 94.5q0 8 -1 15t-1 15h-116z" />
<glyph unicode="&#x2022;" horiz-adv-x="1208" d="M307 762q0 61 23.5 114.5t63.5 93.5t94.5 63.5t115.5 23.5t114.5 -23.5t93.5 -63.5t63.5 -93.5t23.5 -114.5t-23.5 -114.5t-63.5 -94.5t-94 -64.5t-116 -23.5q-61 0 -115.5 23.5t-94.5 63.5t-62.5 94.5t-22.5 115.5z" />
<glyph unicode="&#x2026;" horiz-adv-x="2048" d="M190 0v328h304v-328h-304zM872 0v328h304v-328h-304zM1556 0v328h304v-328h-304z" />
<glyph unicode="&#x202f;" horiz-adv-x="394" />
<glyph unicode="&#x2039;" horiz-adv-x="587" d="M70 524l157 322h299l-151 -322l162 -323h-310z" />
<glyph unicode="&#x203a;" horiz-adv-x="587" d="M51 846h309l158 -322l-158 -323h-299l152 323z" />
<glyph unicode="&#x205f;" horiz-adv-x="493" />
<glyph unicode="&#x2122;" horiz-adv-x="1705" d="M207 1350v112h485v-112h-168v-435h-149v435h-168zM803 915v547h196l127 -332l123 332h197v-547h-135v410l-154 -410h-61l-158 410v-410h-135z" />
</font>
</defs>
</svg>
