<?xml version="1.0" standalone="no"?>
<!DOCTYPE svg PUBLIC "-//W3C//DTD SVG 1.1//EN" "http://www.w3.org/Graphics/SVG/1.1/DTD/svg11.dtd" >
<svg xmlns="http://www.w3.org/2000/svg">
<metadata></metadata>
<defs>
<font id="petitaboldregular" horiz-adv-x="749" >
<font-face units-per-em="2048" ascent="1638" descent="-410" />
<missing-glyph horiz-adv-x="626" />
<glyph horiz-adv-x="0" />
<glyph horiz-adv-x="682" />
<glyph d="M23 1376h188q25 -53 43 -76.5t35 -33.5q39 -27 84 -27t86 25q16 12 34.5 35.5t43.5 76.5h190q-41 -111 -76 -167t-80 -93q-88 -76 -198 -76q-104 0 -197 76q-43 37 -79 93.5t-74 166.5z" />
<glyph d="M233 1071v283h283v-283h-283z" />
<glyph d="M147 1212q0 96 66 162t162 66q94 0 160 -66q70 -70 69 -162q0 -94 -67 -161q-66 -66 -162 -66t-162 65.5t-66 161.5zM305 1212q0 -31 19 -49q20 -20 51 -20q29 0 49 20q23 23 22 49q0 29 -20 49.5t-51 20.5t-51 -20q-18 -18 -19 -50z" />
<glyph unicode="&#xa;" d="M-59 1016l282 422h314l-408 -422h-188zM295 1016l283 422h313q-53 -53 -90 -92t-64.5 -68t-48 -49.5t-39.5 -38.5q-37 -35 -77 -77t-89 -97h-188z" />
<glyph d="M170 -176q0 80 47 145q51 68 141 103h222q-49 -41 -78 -65.5t-47.5 -42t-28.5 -28t-20 -22.5q-27 -33 -27 -59q0 -23 6 -32t10 -13q33 -23 66 -21l90 4v-176l-131 -16q-102 0 -174 57q-76 61 -76 166z" />
<glyph d="M-2 1436h197l180 -197l182 197h195l-291 -439h-174z" />
<glyph unicode="&#xd;" horiz-adv-x="423" d="M111 -51v1022h200v-1022h-200z" />
<glyph horiz-adv-x="305" d="M-528 -106l1151 1572h208l-1153 -1572h-206z" />
<glyph horiz-adv-x="1079" d="M78 788v183h170v80q0 92 24.5 168.5t77.5 134.5q104 113 279 112q143 1 245 -67q57 -39 87 -106.5t40 -186.5h-79h-121q-8 72 -20.5 101.5t-28.5 41.5q-18 16 -49 24.5t-78 8.5q-86 0 -127 -51q-23 -27 -36 -70t-13 -110v-80h192v-183h-192v-839h-201v839h-170zM795 -51 v1022h200v-1022h-200z" />
<glyph horiz-adv-x="1079" d="M82 788h170v-839h201v839h190v183h-190v116q0 80 41 134q18 23 44.5 35t67.5 12q37 0 74 -13q23 -6 44 -12t71 -18v-1276h200v1499h-200v-37q-14 18 -39 27q-6 2 -13.5 4t-17.5 6q-25 10 -52.5 14t-56.5 4q-158 0 -262 -104q-102 -104 -102 -272v-119h-170v-183z" />
<glyph horiz-adv-x="1056" d="M-47 219v240l248 203v786h211v-614l342 278v-240l-342 -278v-453h690v-192h-901v473z" />
<glyph horiz-adv-x="423" d="M-90 315v232l199 166v735h200v-569l205 170v-232l-205 -170v-698h-200v532z" />
<glyph horiz-adv-x="1431" d="M45 41l995 1214h-942v193h1260l26 -102l-995 -1205h997v-192h-1310zM356 1944h197l180 -197l182 197h195l-291 -439h-174z" />
<glyph horiz-adv-x="892" d="M6 41l561 737h-522v193h817l25 -92l-557 -738h553v-192h-846zM76 1436h196l181 -197l182 197h194l-290 -439h-174z" />
<glyph unicode=" "  horiz-adv-x="626" />
<glyph unicode="&#x09;" horiz-adv-x="626" />
<glyph unicode="&#xa0;" horiz-adv-x="626" />
<glyph unicode="!" horiz-adv-x="399" d="M80 1448h239l-38 -1106h-162zM82 -51v301h235v-301h-235z" />
<glyph unicode="&#x22;" horiz-adv-x="626" d="M53 1167v285h238v-287l-29 -295h-178zM334 1167v285h237v-287l-28 -295h-178z" />
<glyph unicode="#" horiz-adv-x="1486" d="M174 379v196h201l57 289h-258v197h301l86 420h201l-86 -420h280l86 420h201l-86 -420h156v-197h-199l-57 -289h256v-196h-299l-88 -430h-201l88 430h-281l-88 -430h-200l88 430h-158zM575 575h281l57 289h-280z" />
<glyph unicode="$" horiz-adv-x="1173" d="M90 123v237q59 -45 104.5 -76.5t81 -53t65.5 -37t58 -25.5q113 -43 199 -43q121 0 203 63q78 66 78 148q0 90 -74 139q-45 29 -113.5 58.5t-167.5 58.5q-100 29 -179 63.5t-132 79.5q-59 47 -86 113.5t-27 150.5q0 172 146 289q104 88 243 111l3 170h200l-2 -170 q82 -10 146 -37q51 -23 96 -46.5t92 -62.5v-243q-47 37 -81 61.5t-60.5 41.5t-49 29.5t-45.5 22.5q-86 43 -206 43q-61 0 -110.5 -16t-90.5 -45q-39 -29 -55.5 -62.5t-16.5 -72.5q0 -80 60 -119q37 -27 97 -54.5t148 -54.5q123 -39 213.5 -80t143.5 -88q115 -100 114 -278 q0 -174 -149 -293q-53 -45 -113.5 -71.5t-130.5 -39.5v-225h-200v223q-98 12 -185 50q-61 29 -114.5 61.5t-102.5 79.5z" />
<glyph unicode="%" horiz-adv-x="1572" d="M57 -74l1209 1532h233l-1206 -1532h-236zM59 1087q0 158 111 269q113 111 270 110q158 1 269 -110q113 -113 112 -269q0 -156 -112.5 -268t-268.5 -112q-164 0 -270 110q-111 113 -111 270zM250 1090q0 -80 55 -136q57 -57 137 -57q78 0 131 55q57 55 58 131 q0 80 -56 136q-57 57 -131 57q-84 0 -139 -55.5t-55 -130.5zM752 301q0 158 110 268q113 111 271 111q153 0 268 -111t115 -268q0 -154 -113 -266q-111 -111 -270 -111q-154 0 -269 111q-113 113 -112 266zM942 303q0 -76 55 -131q57 -57 138 -57q80 0 133 53q57 55 57 129 q0 76 -55 137q-55 55 -133 55q-80 0 -138 -55q-57 -57 -57 -131z" />
<glyph unicode="&#x26;" horiz-adv-x="1386" d="M10 315q0 166 117 293q82 93 195 148q-49 57 -89 123q-51 92 -51 192q0 145 115 250q117 100 262 100q143 0 250 -88q113 -92 113 -250q0 -156 -109 -268q-33 -33 -70.5 -62.5t-80.5 -54.5l223 -237q10 16 17 28.5t13 26.5q23 41 45.5 93.5t51.5 138.5h223 q-39 -113 -66.5 -180.5t-58.5 -127.5q-37 -72 -76 -133l340 -358h-278l-189 198q-80 -86 -168 -139q-139 -78 -313 -78q-98 0 -176 28t-133 89q-106 119 -107 268zM229 334q0 -55 14.5 -91t43.5 -59q57 -51 157 -51q107 0 187 49q70 37 135 113l-297 309q-104 -51 -170 -110 q-70 -68 -70 -160zM389 1073q0 -53 35 -110q20 -31 42.5 -59.5t51.5 -55.5q90 41 139 90q61 63 62 135q0 66 -43 103q-53 43 -115 43q-66 0 -123 -43q-49 -37 -49 -103z" />
<glyph unicode="'" horiz-adv-x="499" d="M131 1167v285h238v-287l-29 -295h-180z" />
<glyph unicode="(" d="M31 473q0 336 133 582q66 123 137.5 219t157.5 174h262q-76 -66 -132.5 -122t-99.5 -110.5t-75.5 -107.5t-61.5 -113q-115 -233 -114 -522q-1 -295 112 -522q29 -59 62.5 -112.5t76.5 -108t99.5 -110.5t132.5 -122h-262q-86 78 -157 174.5t-136 216.5q-135 252 -135 584z " />
<glyph unicode=")" d="M27 -502q78 66 135 122t100 110.5t77 107.5t62 113q115 233 115 522t-115 522q-29 59 -62.5 112.5t-76.5 108t-100.5 110.5t-134.5 122h264q88 -78 159.5 -173t137.5 -218q70 -125 102.5 -271.5t32.5 -312.5t-33 -311.5t-102 -270.5q-66 -121 -137.5 -218t-159.5 -175 h-264z" />
<glyph unicode="*" horiz-adv-x="1056" d="M70 864q57 23 95 39.5t68.5 30.5t60.5 29.5t68 35.5q-41 20 -71.5 37t-62 31t-68.5 30.5t-90 37.5l108 196q37 -29 62.5 -49t45 -33.5t35 -24t31.5 -20.5q20 -14 43 -28.5t54 -32.5q-2 45 -4.5 79.5t-5.5 70.5t-8 77t-11 96h217q-8 -59 -12 -101t-7.5 -76t-5.5 -67.5 t-4 -78.5q31 18 53.5 32.5t43.5 28.5q16 10 31.5 20.5t35 24t44 34t61.5 48.5l110 -196q-57 -23 -95 -39.5t-68.5 -30.5t-61.5 -30t-70 -36q39 -20 70 -35.5t61.5 -29.5t68.5 -30.5t95 -39.5l-110 -196q-37 29 -61.5 49t-44 33.5t-35 23.5t-31.5 21q-20 14 -43 28.5 t-54 32.5q2 -45 4 -81t5.5 -70.5t8.5 -75.5t11 -97h-217q8 59 12 101.5t7 76t5 67.5t5 79q-57 -35 -97 -61q-16 -10 -31.5 -20.5t-35 -24t-45 -34t-62.5 -48.5z" />
<glyph unicode="+" horiz-adv-x="1486" d="M156 627v192h491v486h193v-486h491v-192h-491v-492h-193v492h-491z" />
<glyph unicode="," horiz-adv-x="399" d="M72 -152q10 16 15 22.5t9 10.5l14.5 14.5t12.5 14.5q6 14 10 39h-41v301h236v-215q0 -92 -43 -178q-16 -35 -43 -62.5t-58 -50.5q-4 -4 -9 -8t-16.5 -12.5t-32 -23.5t-54.5 -40v188z" />
<glyph unicode="-" horiz-adv-x="704" d="M59 477v199h588v-199h-588z" />
<glyph unicode="." horiz-adv-x="399" d="M82 -51v303h233v-303h-233z" />
<glyph unicode="/" horiz-adv-x="632" d="M-27 -70l484 1536h202l-483 -1536h-203z" />
<glyph unicode="0" horiz-adv-x="1126" d="M63 692v13q0 324 130 538q137 223 372 223q117 0 210 -56t159 -167q129 -214 129 -538v-13q0 -324 -129 -538q-137 -223 -373 -224q-117 0 -210 56.5t-158 167.5q-129 215 -130 538zM272 690q0 -248 88 -411q45 -80 95.5 -114t109.5 -34q55 0 104.5 34t94.5 114 q43 80 66.5 182t23.5 229v17q0 127 -23.5 229t-66.5 182q-41 80 -92 114t-111 34q-55 0 -104 -34t-95 -114q-43 -80 -66.5 -182t-23.5 -229v-17z" />
<glyph unicode="1" horiz-adv-x="755" d="M72 911l401 400v137h209v-1499h-209v1075l-258 -260z" />
<glyph unicode="2" horiz-adv-x="1126" d="M76 1044v267q39 35 76.5 58.5t78.5 45.5q94 51 224 51q193 0 327 -131q135 -133 136 -325q0 -143 -72 -297q-35 -76 -69 -133.5t-64 -100.5q-39 -55 -76 -107.5t-78 -103.5q-23 -31 -47.5 -60.5t-50.5 -60.5h590v-198h-959v100q76 78 134.5 140.5t107.5 117.5 q98 106 203 258q39 57 68.5 113.5t56.5 114.5q47 111 47 215q0 109 -76 184q-74 74 -189 74q-86 0 -147 -37q-18 -10 -36.5 -22.5t-43 -33t-58.5 -52t-83 -77.5z" />
<glyph unicode="3" horiz-adv-x="1126" d="M141 20v207q76 -35 115 -50t74 -25q37 -10 79 -15.5t93 -5.5q66 0 115 17.5t85 50.5q76 72 76 178q0 117 -73 184q-35 35 -89.5 54.5t-128.5 19.5h-71v201h65q117 0 201 65q80 59 80 152q0 88 -72 147q-76 66 -194 66q-53 0 -93.5 -8.5t-72.5 -24.5q-18 -8 -34.5 -16.5 t-36 -20.5t-44.5 -27.5t-61 -40.5v222q35 27 65.5 44t69.5 33q90 39 223 39q94 0 176 -26.5t148 -83.5q133 -117 133 -297q0 -113 -70 -213q-43 -59 -115 -105q72 -43 117 -102q84 -106 84 -246q0 -209 -133 -336t-342 -127q-109 0 -201 27q-45 12 -84 25.5t-84 37.5z" />
<glyph unicode="4" horiz-adv-x="1126" d="M43 487v105l731 874h117v-792h192v-187h-194v-538h-207v538h-639zM350 674h334v403z" />
<glyph unicode="5" horiz-adv-x="1126" d="M119 45v250q39 -29 67.5 -48.5t52 -32.5t45 -23.5t44.5 -20.5q90 -39 180 -39q131 0 211 84q84 84 84 215q0 137 -88 213q-43 39 -103.5 59.5t-144.5 20.5q-51 0 -86 -8q-10 -2 -21.5 -4t-28 -6.5t-40 -11.5t-58.5 -17v772h695v-199h-494v-336l66 5q115 6 204.5 -30 t161.5 -102q141 -133 142 -352q0 -219 -138 -362q-141 -141 -356 -142q-61 0 -117.5 8.5t-107.5 26.5q-49 18 -89 35.5t-81 44.5z" />
<glyph unicode="6" horiz-adv-x="1126" d="M100 477q0 313 189 570q92 125 200.5 230t253.5 208l127 -154q-152 -106 -253 -203.5t-173 -203.5q-51 -74 -86 -168q53 25 106.5 38t113.5 13q198 0 321 -123q127 -127 127 -324q0 -182 -131 -307q-129 -123 -320 -123q-201 0 -337 144q-70 74 -104 175t-34 228z M303 463q0 -86 20.5 -145.5t59.5 -100.5q78 -86 188 -86q105 1 179 64q70 66 69 161q0 109 -69 179q-72 72 -183 71q-102 0 -176 -43q-59 -37 -86 -61q-2 -10 -2 -21v-18z" />
<glyph unicode="7" horiz-adv-x="1126" d="M43 1249v199h1040l-692 -1534l-182 80l567 1255h-733z" />
<glyph unicode="8" horiz-adv-x="1126" d="M113 379q0 131 67 235q45 72 107 115q-66 55 -99 123q-23 45 -35 92t-12 94q0 180 125 305q123 123 307 123q168 0 289 -127q123 -123 123 -295q0 -98 -36 -173.5t-107 -141.5q57 -41 102 -111q70 -109 70 -235q0 -193 -131 -324q-129 -129 -322 -129q-182 0 -315 129 q-133 133 -133 320zM319 377q0 -104 70 -174q72 -72 178 -72q100 0 170 70q70 76 70 178t-70 172q-70 72 -172 72q-106 0 -176 -70t-70 -176zM348 1032q0 -84 64 -145q63 -63 153 -64q87 1 150 64t63 151q0 53 -15 93t-44 71q-61 61 -156 62q-96 0 -153 -62 q-29 -31 -45.5 -73t-16.5 -97z" />
<glyph unicode="9" horiz-adv-x="1126" d="M98 1024q0 193 127 317.5t318 124.5q211 0 348 -143q72 -74 104.5 -178.5t32.5 -235.5q0 -244 -143 -487q-72 -123 -196 -246t-320 -266l-119 160q147 102 246.5 194t173.5 197q59 82 98 186l-14 -8q-98 -45 -213 -45q-184 0 -314 123q-129 125 -129 307zM305 1024 q0 -92 70 -160q70 -70 172 -69q98 0 178 43q63 34 90 61q2 8 2 23q0 98 -19.5 162.5t-54.5 101.5q-35 39 -84 59.5t-114 20.5q-100 0 -170 -70t-70 -172z" />
<glyph unicode=":" horiz-adv-x="399" d="M82 -51v303h233v-303h-233zM82 670v303h233v-303h-233z" />
<glyph unicode=";" horiz-adv-x="399" d="M72 -152q10 16 15 22.5t9 10.5l14.5 14.5t12.5 14.5q6 14 10 39h-41v301h236v-215q0 -92 -43 -178q-16 -35 -43 -62.5t-58 -50.5q-4 -4 -9 -8t-16.5 -12.5t-32 -23.5t-54.5 -40v188zM92 670v303h234v-303h-234z" />
<glyph unicode="&#x3c;" horiz-adv-x="1486" d="M156 641v156l1175 493v-213l-868 -358l868 -359v-213z" />
<glyph unicode="=" horiz-adv-x="1486" d="M156 375v192h1175v-192h-1175zM156 870v193h1175v-193h-1175z" />
<glyph unicode="&#x3e;" horiz-adv-x="1486" d="M156 147v213l866 359l-866 358v213l1175 -493v-156z" />
<glyph unicode="?" horiz-adv-x="632" d="M39 1382q4 2 31.5 15.5t63.5 31t48 21.5q45 18 103 18q155 0 235 -106q74 -100 74 -236q0 -125 -49 -223q-23 -47 -61 -106.5t-89 -130.5q-23 -33 -35 -57.5t-18 -43.5q-12 -37 -12 -73q0 -10 1 -18.5t1 -18.5q4 -8 13 -30t34 -69l-103 -90q-41 47 -60 74t-34 55 q-33 57 -32 121q0 68 18 129q10 31 29.5 68t46.5 78q35 55 61.5 103t44.5 89q37 74 37 154q0 61 -33 104q-29 37 -71 37q-8 0 -27.5 -8t-44.5 -20.5t-50.5 -27t-47.5 -26.5zM172 -51v301h236v-301h-236z" />
<glyph unicode="@" horiz-adv-x="1802" d="M211 551q0 281 199 491q203 213 489 213q276 0 455 -178q176 -176 176 -418q0 -229 -135 -391q-66 -80 -140.5 -125t-158.5 -45q-27 0 -46.5 12.5t-35.5 32.5q-8 8 -14.5 20.5t-16.5 35.5q-59 -47 -112.5 -72t-118.5 -25q-123 0 -217 99q-92 98 -93 272q0 180 117 340 q119 166 322 166q35 0 71.5 -11.5t75.5 -31.5q14 -8 27.5 -17.5t36.5 -29.5l12 59h176l-137 -641q-4 -10 -6 -23.5t-2 -33.5q41 10 79.5 36.5t79.5 82.5q96 121 97 295q0 80 -27 147.5t-74 124.5q-147 178 -387 178q-221 0 -385 -164t-164 -407q0 -248 168 -406 q168 -160 379 -160q178 0 316 70q70 35 117.5 75t84.5 95h164q-31 -53 -61.5 -94t-63.5 -73t-68.5 -57.5t-76.5 -49.5q-180 -106 -400 -107q-311 0 -507 215q-195 217 -195 500zM618 467q0 -59 14.5 -98t37.5 -64q29 -29 53.5 -40t46.5 -11q53 0 98 32.5t84 106.5 q82 152 82 246q0 84 -47 141q-41 53 -115 54q-104 0 -178 -113q-76 -119 -76 -254z" />
<glyph unicode="A" horiz-adv-x="1503" d="M-2 -51l692 1509h125l690 -1509h-223l-221 483h-617l-221 -483h-225zM532 625h441l-221 483z" />
<glyph unicode="B" horiz-adv-x="1196" d="M109 -51v1499h354q111 0 203 -25.5t161 -79.5q139 -115 140 -311q0 -178 -133 -289q84 -31 145 -92q109 -102 108 -272q0 -203 -143 -320q-140 -110 -373 -110h-4h-458zM319 141h228q84 0 143.5 16.5t102.5 45.5q77 58 77 163q0 69 -20.5 110.5t-61.5 68.5 q-45 31 -111.5 47t-164.5 16h-193v-467zM319 801h113q164 0 240 57q37 29 56.5 68t19.5 96q0 63 -19.5 105t-54.5 69q-39 29 -99.5 44t-148.5 15h-107v-454z" />
<glyph unicode="C" horiz-adv-x="1525" d="M90 698q0 328 232 549q117 111 261 165t314 54q121 0 250 -32q70 -16 133 -41t137 -64v-239q-104 59 -169.5 88.5t-125.5 48.5q-121 37 -243 37q-244 0 -406 -162q-164 -160 -164 -404q0 -252 160 -407q162 -158 416 -158q139 0 260 43q31 10 60.5 22.5t63.5 29t74 37.5 t91 50v-229q-70 -41 -133.5 -67.5t-131.5 -47.5q-72 -23 -137 -32t-129 -9q-352 0 -581 215q-231 215 -232 553z" />
<glyph unicode="D" horiz-adv-x="1667" d="M158 -51v1499h549q182 0 327 -49.5t256 -151.5t165 -239.5t54 -311.5q0 -328 -209 -538q-106 -106 -251.5 -157.5t-327.5 -51.5h-563zM369 141h323q274 0 436 152t162 403q0 252 -159.5 405.5t-434.5 153.5h-327v-1114z" />
<glyph unicode="E" horiz-adv-x="1103" d="M111 -51v1499h868v-193h-657v-456h639v-193h-639v-465h671v-192h-882z" />
<glyph unicode="F" horiz-adv-x="987" d="M80 -51v1499h825v-193h-614v-428h551v-192h-551v-686h-211z" />
<glyph unicode="G" horiz-adv-x="1619" d="M131 702q0 326 227 545q225 219 564 219q170 0 311 -45q70 -23 123 -44t106 -52v-242q-109 63 -175 94t-126 50q-121 37 -239 37q-246 0 -408 -160q-164 -160 -164 -404q0 -258 164 -411q168 -156 442 -156q109 0 205 25q37 10 65.5 20t51.5 21v295h-295v192h504v-616 q-72 -37 -133.5 -61.5t-126.5 -41.5q-135 -37 -285 -37q-346 0 -577 220q-233 221 -234 552z" />
<glyph unicode="H" horiz-adv-x="1619" d="M184 -51v1499h211v-645h828v645h211v-1499h-211v661h-828v-661h-211z" />
<glyph unicode="I" horiz-adv-x="468" d="M129 -51v1499h209v-1499h-209z" />
<glyph unicode="J" horiz-adv-x="468" d="M-150 -242l127 -16q37 0 60.5 13.5t40.5 41.5q18 35 29.5 87.5t11.5 123.5v1440h211v-1462q0 -104 -21.5 -188.5t-72.5 -141.5q-47 -55 -110 -87q-56 -28 -123 -28h-17l-113 6z" />
<glyph unicode="K" horiz-adv-x="1230" d="M82 -51v1499h211v-621l596 621h276l-712 -746l784 -753h-285l-659 631v-631h-211z" />
<glyph unicode="L" horiz-adv-x="1056" d="M78 -51v1499h211v-1307h690v-192h-901z" />
<glyph unicode="M" horiz-adv-x="1759" d="M188 -51v1499h185l508 -621l505 621h185v-1499h-211v1149l-479 -594l-482 594v-1149h-211z" />
<glyph unicode="N" horiz-adv-x="1736" d="M186 -51v1499h168q143 -174 276.5 -327.5t268.5 -301.5q111 -125 220.5 -251t219.5 -255v1135h211v-1499h-166l-987 1134v-1134h-211z" />
<glyph unicode="O" horiz-adv-x="1853" d="M137 698q0 328 225 547q227 221 566 221q332 0 561 -219q229 -223 229 -549q0 -324 -229 -546q-227 -221 -561 -222q-338 0 -563 220q-227 221 -228 548zM356 698q0 -236 164 -399q166 -166 408 -166q237 0 403 166q168 168 168 399t-168 400q-166 166 -403 166 q-240 0 -406 -166t-166 -400z" />
<glyph unicode="P" horiz-adv-x="1148" d="M102 -51v1499h449q111 0 201.5 -27t156.5 -80q70 -55 104 -136t34 -181q0 -98 -35 -178t-107 -137q-137 -106 -366 -107h-226v-653h-211zM313 795h219q150 0 224 61q35 29 54 70t19 100q0 55 -18 96t-53 70q-39 31 -91.5 47t-123.5 16h-230v-460z" />
<glyph unicode="Q" horiz-adv-x="1853" d="M137 698q0 328 225 547q227 221 566 221q336 0 561 -219q229 -221 229 -549q0 -326 -229 -548q-72 -72 -159 -119t-185 -74q20 -10 40.5 -19.5t43.5 -19.5q31 -12 75 -21.5t87 -15.5t79.5 -10t53.5 -6l16 -209q-90 0 -172 17.5t-180 52t-187.5 87t-173.5 124.5 q-137 16 -253.5 68t-211.5 145q-115 111 -170 249t-55 299zM356 698q0 -236 164 -399q166 -166 408 -166q237 0 403 166q168 168 168 399t-168 400q-166 166 -403 166q-240 0 -406 -166t-166 -400z" />
<glyph unicode="R" horiz-adv-x="1290" d="M111 -51v1499h403q117 0 211 -24.5t166 -77.5q72 -55 107.5 -135.5t35.5 -178.5q0 -156 -94 -252q-59 -59 -125 -98q16 -16 31.5 -34.5t32.5 -41.5q33 -47 62 -90l58 -86l314 -481h-250l-260 405q-39 59 -73 108.5t-68 88.5q-56 67 -175 67h-4h-161v-669h-211zM322 811 h180q82 0 140 15t97 44q37 29 56.5 68t19.5 96q0 102 -74 160q-84 61 -229 61h-190v-444z" />
<glyph unicode="S" horiz-adv-x="1056" d="M86 1051q0 172 135 292q131 123 314 123q131 0 229 -39q49 -16 83 -33.5t64 -39.5l4 -238q-41 25 -70.5 42.5t-52 29.5t-42 21.5t-39.5 19.5q-68 35 -164 35q-104 0 -172 -62q-70 -68 -70 -147q0 -49 14.5 -81t36.5 -52q59 -53 213 -111q109 -39 187 -81t123 -93 q90 -102 90 -283q0 -174 -131 -299t-316 -125q-129 0 -241 50q-49 23 -92.5 45t-84.5 55v254q55 -41 95.5 -69.5t71 -47t53 -31t41.5 -20.5q72 -33 139 -33q106 0 178 66q70 68 70 161q0 53 -15.5 90t-46.5 64q-37 29 -95 58.5t-144 58.5q-178 61 -269 151q-49 51 -72.5 119 t-23.5 150z" />
<glyph unicode="T" horiz-adv-x="1290" d="M16 1255v193h1260v-193h-524v-1306h-211v1306h-525z" />
<glyph unicode="U" horiz-adv-x="1572" d="M150 596v852h210v-844q0 -115 30 -200t87 -146q115 -125 311 -125q195 0 308 129q55 63 84.5 150.5t29.5 201.5v834h211v-842q0 -145 -43 -266t-131 -217q-178 -193 -461 -193q-281 0 -458.5 186.5t-177.5 479.5z" />
<glyph unicode="V" horiz-adv-x="1337" d="M-12 1448h219l463 -1100l456 1100h224l-633 -1514h-99z" />
<glyph unicode="W" horiz-adv-x="2322" d="M29 1448h221l428 -1071l434 1071h102l433 -1073l428 1073h219l-600 -1514h-97l-434 1092l-434 -1092h-98z" />
<glyph unicode="X" horiz-adv-x="1632" d="M-4 -51l678 766l-645 733h276l510 -576l506 576h276l-645 -733l684 -766h-278l-543 612l-543 -612h-276z" />
<glyph unicode="Y" horiz-adv-x="1423" d="M12 1448h264l443 -524l442 524h264l-602 -717v-782h-211v782z" />
<glyph unicode="Z" horiz-adv-x="1431" d="M45 41l995 1214h-942v193h1260l26 -102l-995 -1205h997v-192h-1310z" />
<glyph unicode="[" horiz-adv-x="679" d="M57 -502v1950h566v-199h-365v-1552h365v-199h-566z" />
<glyph unicode="\" horiz-adv-x="632" d="M-25 1466h201l481 -1536h-200z" />
<glyph unicode="]" horiz-adv-x="679" d="M57 -303h365v1552h-365v199h566v-1950h-566v199z" />
<glyph unicode="^" horiz-adv-x="1486" d="M223 877l490 583h59l492 -583l-140 -127l-381 454l-381 -454z" />
<glyph unicode="_" horiz-adv-x="1126" d="M-14 -469h1155v-205h-1155v205z" />
<glyph unicode="`" d="M78 1438h313l283 -422h-182z" />
<glyph unicode="a" horiz-adv-x="1148" d="M104 434q0 119 35 219.5t109 177.5q143 158 373 158q59 0 115.5 -23.5t109.5 -45.5v51h198v-1026h-200v51q-18 -6 -37 -22.5t-35 -20.5q-86 -23 -172 -23q-215 0 -356 142q-139 145 -140 362zM311 436q0 -147 84 -227q82 -86 223 -86q91 0 144 20q23 10 44 30t40 30v508 q-12 8 -28.5 25.5t-39.5 27.5q-55 27 -137 27q-143 0 -235 -99q-94 -100 -95 -256z" />
<glyph unicode="b" horiz-adv-x="1148" d="M104 1448h201v-547q43 29 84 47q94 41 191 41q211 0 338 -139q66 -72 96 -164t30 -203q0 -244 -153 -399q-158 -154 -420 -154q-94 0 -176 21q-45 10 -87 25.5t-102 41.5zM305 158q10 -4 20.5 -7.5t24.5 -7.5q29 -6 61.5 -10t73.5 -4q154 0 252 100q102 100 103 250 q0 145 -76 238q-74 88 -186 88q-96 0 -166 -51q-74 -53 -107 -90v-506z" />
<glyph unicode="c" horiz-adv-x="940" d="M66 459q0 219 133 370q70 82 162 121t206 39q76 0 140 -14q29 -6 62.5 -16.5t88.5 -28.5v-225q-74 33 -107.5 45t-60.5 22q-49 18 -121 19q-135 0 -213 -91q-84 -90 -84 -241q0 -80 21.5 -139.5t60.5 -102.5q82 -88 228 -88q68 0 127 16q14 4 28.5 9.5t32.5 12.5 t43.5 17.5t60.5 26.5v-219q-41 -14 -69.5 -22.5t-65.5 -18.5q-74 -20 -161 -21q-117 0 -211.5 36t-163.5 110q-72 72 -104.5 169t-32.5 214z" />
<glyph unicode="d" horiz-adv-x="1148" d="M104 459q0 231 148 383q150 147 385 147q55 0 105.5 -11t101.5 -32v502h200v-1499h-200v53q-16 -10 -31.5 -26.5t-32.5 -22.5q-37 -12 -76.5 -17.5t-80.5 -5.5q-219 0 -369 154q-76 76 -113 170t-37 205zM311 459q0 -139 95 -234q96 -96 239 -96q90 0 139 27 q18 10 32.5 28.5t25.5 24.5v518q-29 14 -74 37q-59 27 -137 27q-143 0 -230 -91q-90 -94 -90 -241z" />
<glyph unicode="e" horiz-adv-x="1079" d="M72 473q0 104 32.5 196.5t100.5 168.5q134 151 339 151h3q203 0 332 -141q66 -72 96.5 -167t30.5 -239h-727q4 -133 92 -219q94 -94 233 -94q102 0 176 43q23 12 43.5 24.5t43 30t51 43t69.5 62.5v-252q-90 -70 -182 -110t-209 -40q-229 0 -376.5 154t-147.5 389z M309 604h461q-10 35 -25.5 72t-35.5 57q-57 57 -160 58q-123 0 -195 -91q-12 -16 -23.5 -44.5t-21.5 -51.5z" />
<glyph unicode="f" horiz-adv-x="540" d="M-111 788v183h172v100q0 174 103 283q103 112 267 112h3q66 0 121 -18q31 -10 52 -19.5t44 -25.5v-191q-55 18 -78.5 25.5t-48.5 15.5q-41 14 -98 15q-45 0 -73.5 -13.5t-47.5 -35.5q-20 -23 -32.5 -66t-12.5 -113v-69h180v-183h-180v-839h-201v839h-170z" />
<glyph unicode="g" horiz-adv-x="1148" d="M104 434q0 119 35 219.5t107 177.5q145 158 375 158q59 0 114.5 -23.5t110.5 -45.5v51h198v-1159q0 -68 -43 -128.5t-105 -105.5t-132 -71.5t-125 -26.5q-66 0 -142.5 21.5t-129.5 66.5q-53 43 -94.5 107.5t-79.5 185.5l204 4q31 -61 61.5 -91t53.5 -44 q23 -16 60.5 -24.5t66.5 -8.5q27 0 62.5 12t67.5 29.5t53.5 37t21.5 36.5v163q-18 -6 -37 -12t-37 -10q-84 -23 -170 -23q-215 0 -356 142q-72 74 -106 164t-34 198zM311 436q0 -147 84 -227q80 -86 223 -86q91 0 144 20q23 10 44 19.5t40 19.5v529q-12 8 -28.5 25.5 t-39.5 27.5q-59 27 -137 27q-143 0 -235 -99q-94 -100 -95 -256z" />
<glyph unicode="h" horiz-adv-x="1103" d="M125 -51v1499h203v-553q14 14 29.5 25.5t31.5 21.5q84 47 189 47q180 0 292 -119q55 -59 82 -139t27 -176v-606h-203v575q0 72 -14 121t-37 82q-47 63 -150 64q-49 0 -84.5 -11.5t-64.5 -34.5q-55 -47 -100 -110v-686h-201z" />
<glyph unicode="i" horiz-adv-x="423" d="M111 -51v1022h200v-1022h-200zM111 1178v270h200v-270h-200z" />
<glyph unicode="j" horiz-adv-x="423" d="M-94 -336h78q66 0 98 43q16 23 27.5 70t11.5 127v1067h201v-1037q0 -121 -24 -212t-79 -144q-47 -47 -106.5 -73.5t-147.5 -26.5zM121 1178v270h201v-270h-201z" />
<glyph unicode="k" horiz-adv-x="1114" d="M160 -51v1499h200v-965v-534h-200zM244 483l569 488h285l-563 -488l645 -534h-293z" />
<glyph unicode="l" horiz-adv-x="423" d="M111 -51v1499h200v-1499h-200z" />
<glyph unicode="m" horiz-adv-x="1736" d="M154 -51v1022h198v-74q27 27 58 45q84 47 186 47h25q90 0 174 -53q59 -39 106 -117q16 23 36.5 43.5t43.5 40.5q92 86 231 86h25q158 0 254 -127q94 -121 94 -307v-606h-201v575q0 72 -14 121t-39 82q-25 31 -58.5 47.5t-82.5 16.5q-70 0 -121 -54q-31 -31 -54.5 -61.5 t-43.5 -63.5v-663h-201v575q0 72 -14.5 121t-36.5 82q-45 63 -135 64q-84 0 -135 -46q-27 -23 -49.5 -51t-45.5 -61v-684h-200z" />
<glyph unicode="n" horiz-adv-x="1103" d="M125 -51v1022h201v-76q14 14 29.5 25.5t31.5 21.5q84 47 191 47q180 0 292 -119q55 -59 82 -139t27 -176v-606h-203v575q0 72 -14 121t-37 82q-47 63 -150 64q-49 0 -84.5 -11.5t-64.5 -34.5q-55 -47 -100 -110v-686h-201z" />
<glyph unicode="o" horiz-adv-x="1220" d="M90 459q0 225 148 377q76 78 169 115.5t203 37.5h3q222 0 368 -153q150 -156 149 -377q0 -225 -147 -375q-76 -78 -169 -116t-204 -38q-223 0 -370 154q-150 156 -150 375zM297 459q0 -135 92 -234q94 -96 221 -96q129 0 221 94t93 236q0 137 -93 235q-94 96 -221 97 q-129 0 -221 -95q-92 -98 -92 -237z" />
<glyph unicode="p" horiz-adv-x="1148" d="M190 -522v1493h203v-43q33 12 92.5 36.5t120.5 24.5q223 0 371 -147q147 -150 147 -381q0 -106 -36.5 -199.5t-108.5 -171.5q-145 -160 -352 -160q-88 0 -162 19q-20 4 -38.5 10t-35.5 12v-493h-201zM391 178q14 -8 30.5 -14t37.5 -12q57 -23 135 -23q145 0 229 90 q90 94 90 240q0 141 -94 235q-96 96 -237 97q-41 0 -74 -15.5t-57 -25.5q-18 -8 -34 -14.5t-26 -10.5v-547z" />
<glyph unicode="q" horiz-adv-x="1148" d="M104 434q0 119 35 219.5t109 177.5q143 158 373 158q59 0 115.5 -23.5t109.5 -45.5v51h198v-1493h-200v497q-18 -6 -37 -12t-35 -10q-86 -23 -172 -23q-215 0 -356 142q-139 145 -140 362zM311 436q0 -147 84 -227q82 -86 223 -86q91 0 144 20q23 10 44 19.5t40 19.5v529 q-12 8 -28.5 25.5t-39.5 27.5q-55 27 -137 27q-143 0 -235 -99q-94 -100 -95 -256z" />
<glyph unicode="r" horiz-adv-x="837" d="M98 -51v1022h201v-152q2 4 13.5 23.5t29.5 46t31 37.5q53 45 104 54t96 9q86 0 162 -57q33 -23 58.5 -44.5t52.5 -56.5l-111 -174q-59 55 -85.5 78t-47.5 35q-35 20 -57 21q-29 0 -61.5 -17.5t-73.5 -62.5q-76 -82 -111 -146v-616h-201z" />
<glyph unicode="s" horiz-adv-x="796" d="M59 37v221q41 -27 70 -44t51.5 -28.5t41 -18.5t36.5 -13q74 -25 133 -25q39 0 65.5 8t49.5 25q37 27 37 78q0 33 -29 59q-16 16 -58 37.5t-120 48.5q-123 47 -195 113q-76 74 -75 192q0 129 106 217q104 82 234 82q96 0 174 -31q37 -14 67.5 -31.5t63.5 -45.5v-230 q-43 31 -72 51.5t-48.5 34t-34.5 21.5t-30 14q-59 25 -112 25q-43 0 -71 -8.5t-44 -24.5q-37 -31 -37 -72t33 -65q27 -16 59.5 -32.5t79.5 -33.5q125 -42 209 -110q49 -41 72.5 -94.5t23.5 -118.5q0 -127 -104 -222q-100 -88 -244 -88q-113 0 -194 35q-41 16 -72 33.5 t-66 40.5z" />
<glyph unicode="t" horiz-adv-x="679" d="M-37 788v183h248v235l104 70h97v-305h258v-183h-258v-534q0 -55 5 -79.5t9 -29t19.5 -10.5t58.5 -6q27 0 63 10q18 6 46 17.5t104 46.5v-209q-49 -23 -78 -33t-51 -16q-49 -14 -111 -15q-119 0 -192 68q-41 35 -57.5 84t-16.5 104v602h-248z" />
<glyph unicode="u" horiz-adv-x="1103" d="M125 352v619h203v-598q0 -66 13 -111t38 -74q27 -29 62.5 -44t88.5 -15q86 0 152 53q35 29 57.5 55.5t38.5 51.5v682h201v-1022h-203v69q-25 -23 -59 -41q-84 -47 -176 -47q-94 0 -170 26t-133.5 83t-85 136t-27.5 177z" />
<glyph unicode="v" horiz-adv-x="962" d="M-35 971h213l311 -699l299 699h207l-438 -1041h-127z" />
<glyph unicode="w" horiz-adv-x="1595" d="M-4 971h209l276 -664l256 664h115l256 -664l283 664h208l-440 -1041h-115l-247 656l-250 -656h-115z" />
<glyph unicode="x" horiz-adv-x="1226" d="M16 971h267l338 -359l340 359h266l-471 -500l465 -522h-263l-337 377l-336 -377h-265l463 522z" />
<glyph unicode="y" horiz-adv-x="1017" d="M0 971h223l299 -580l285 580h215l-737 -1493h-215l346 698z" />
<glyph unicode="z" horiz-adv-x="892" d="M6 41l561 737h-522v193h817l25 -92l-557 -738h553v-192h-846z" />
<glyph unicode="{" d="M82 369v209q74 12 104.5 27.5t47 38t27.5 59t11 90.5v297q0 70 15.5 131t50.5 114q39 59 104.5 86t149.5 27h78v-213h-84q-47 0 -72 -25q-10 -8 -17.5 -32.5t-7.5 -75.5v-258q0 -86 -15 -156t-48 -121q-37 -57 -82 -94q43 -35 82 -92q35 -53 49 -123t14 -156v-258 q0 -53 7.5 -75.5t15.5 -30.5q27 -27 74 -27h84v-213h-78q-84 0 -148.5 26.5t-103.5 86.5q-68 104 -68 246v297q0 53 -11 90t-27.5 59.5t-47 37.5t-104.5 28z" />
<glyph unicode="|" horiz-adv-x="499" d="M150 -694v2150h200v-2150h-200z" />
<glyph unicode="}" d="M80 -289h84q27 0 43 7.5t29 17.5q8 8 16 32.5t8 75.5v258q0 86 14.5 156t49 123t84.5 92q-43 33 -82 90q-35 53 -50.5 124t-15.5 157v258q0 53 -7 75.5t-15 30.5q-27 27 -74 27h-84v213h78q84 0 148.5 -26.5t103.5 -86.5q68 -104 67 -245v-297q0 -53 10.5 -90t26.5 -59.5 t49 -38t107 -27.5v-209q-74 -12 -106 -27.5t-48 -38.5q-16 -25 -27.5 -60.5t-11.5 -88.5v-297q0 -70 -15.5 -131.5t-49.5 -112.5q-39 -61 -104.5 -88t-149.5 -27h-78v213z" />
<glyph unicode="~" horiz-adv-x="1486" d="M152 485v246q25 20 53 38.5t67 45.5q98 63 211 64q57 0 130 -21.5t159 -62.5t141.5 -59.5t85.5 -18.5q51 0 117 39q18 12 38 24.5t44.5 28.5t57 37.5t79.5 52.5l-4 -233q-25 -20 -52.5 -39t-68.5 -45q-98 -63 -209 -64q-59 0 -130.5 21.5t-157.5 62.5t-141.5 59.5 t-86.5 18.5q-57 0 -125 -41q-18 -10 -37.5 -22.5t-42 -29t-54 -41t-74.5 -61.5z" />
<glyph unicode="&#xa1;" horiz-adv-x="399" d="M80 -504l39 1106h162l38 -1106h-239zM82 694v301h235v-301h-235z" />
<glyph unicode="&#xa2;" horiz-adv-x="940" d="M31 459q0 219 133 370q139 160 368 160h23q12 0 23 -2l131 371h200l-145 -408q10 -4 25.5 -9t33.5 -11v-225q-49 23 -78 35t-49 18l-219 -623q27 -6 70 -6q68 0 127 16q31 10 63.5 21.5t102.5 44.5v-219q-41 -14 -70 -22.5t-65 -18.5q-74 -20 -162 -21q-76 0 -133 13 l-136 -381h-198l160 456q-43 29 -68 58q-72 72 -104.5 169t-32.5 214zM238 459q0 -147 71 -232l199 564q-117 -10 -186 -91q-84 -90 -84 -241z" />
<glyph unicode="&#xa3;" horiz-adv-x="1243" d="M100 61q23 16 41.5 88t53.5 201q20 74 39.5 130.5t35.5 97.5h-170v198h211l64 187q29 84 71.5 164.5t108.5 164.5q139 174 356 174l121 -24l111 -215l-158 35l-51 4q-59 4 -111.5 -20.5t-97.5 -71.5q-94 -98 -152 -259l-49 -139h195v-198h-256l-111 -414l142 10 q49 4 104 -3t115 -17q29 -6 53.5 -9.5t44.5 -7.5q33 -6 53 -6q53 0 84 12q20 6 53 20.5t113 57.5v-225q-37 -20 -63.5 -29.5t-55.5 -19.5q-31 -10 -63.5 -13.5t-69.5 -3.5q-23 0 -67.5 5.5t-110.5 15.5q-125 23 -213 22q-47 0 -88 -2t-78 -8q-39 -4 -82 -12t-123 -23v133z " />
<glyph unicode="&#xa4;" horiz-adv-x="1525" d="M39 406v184h111q-6 51 -7 108q0 86 15 158h-119v184h182q55 115 154 207q117 111 260 165t315 54q119 0 250 -32q70 -16 133.5 -41t136.5 -64v-239q-106 59 -170.5 88.5t-125.5 48.5q-117 37 -242 37t-225.5 -41t-182.5 -121q-16 -16 -29.5 -30.5t-23.5 -31.5h948v-184 h-1038q-18 -72 -19 -158q0 -61 9 -108h1048v-184h-987q35 -61 88 -115q162 -158 418 -158q141 0 258 43q31 10 61.5 22.5t64.5 29t74 37.5t91 50v-229q-72 -41 -135.5 -67.5t-130.5 -47.5q-70 -23 -136.5 -32t-128.5 -9q-354 0 -581 215q-121 113 -180 261h-156z" />
<glyph unicode="&#xa5;" horiz-adv-x="1253" d="M-31 1518h269l393 -674l389 674h262l-434 -725h330v-195l-435 -2v-55h435v-199h-435v-393h-233v393h-442v199h442v53h-442v199h338z" />
<glyph unicode="&#xa6;" horiz-adv-x="499" d="M150 410h200v-973h-200v973zM150 614v973h200v-973h-200z" />
<glyph unicode="&#xa7;" horiz-adv-x="892" d="M41 580q0 45 14.5 91t38.5 93q45 78 105 137q-16 23 -28.5 45.5t-23.5 46.5q-35 74 -34 150q0 156 102 239q98 84 250 84q102 0 192 -59q51 -35 83 -93.5t53 -174.5h-207q-12 57 -24.5 79.5t-26.5 32.5q-37 25 -80 25q-49 0 -99 -35q-23 -16 -33 -36.5t-10 -55.5 q0 -47 33 -100q18 -31 44 -62t61 -61l190 -170q95 -87 152 -181q57 -96 57 -210q0 -90 -48 -174.5t-108 -147.5q16 -23 29.5 -45.5t24.5 -46.5q16 -35 24 -72t8 -78q0 -156 -102 -239q-98 -84 -250 -84q-100 0 -195 59q-51 35 -81.5 94.5t-49.5 173.5h205q14 -59 25.5 -80.5 t25.5 -31.5q33 -25 78 -25q49 0 103 35q20 16 30.5 36.5t10.5 55.5q0 43 -33 101q-37 61 -105 122l-188 170q-100 90 -154 181q-59 100 -59 211zM246 584q0 -66 30 -113q18 -29 33 -50.5t31 -35.5l221 -201q25 25 39.5 46.5t24.5 39.5q20 43 20 95q0 70 -31 112 q-16 29 -31.5 50.5t-31.5 35.5l-219 201q-47 -47 -64 -86q-23 -43 -22 -94z" />
<glyph unicode="&#xa8;" d="M115 1092v241h241v-241h-241zM395 1092v241h242v-241h-242z" />
<glyph unicode="&#xa9;" horiz-adv-x="1802" d="M86 727q0 338 240 578q242 238 575 237q334 1 576 -237q240 -240 239 -576q0 -338 -239 -577q-242 -238 -576 -238t-575 238q-240 240 -240 575zM285 729q0 -254 180 -434q182 -182 436 -182q256 0 434 180q182 182 183 434q0 254 -181 434q-182 182 -436 182 q-256 0 -434 -180q-182 -182 -182 -434zM469 733q0 195 123 328q63 70 146 102.5t184 32.5q61 0 116.5 -19.5t102.5 -54.5q47 -37 85 -90t81 -147l-201 -51q-14 35 -29.5 66.5t-37 56t-51.5 39t-73 14.5q-59 0 -101 -19.5t-71 -54.5q-66 -78 -65 -193q0 -137 63 -229 q57 -82 166 -82q70 0 119 43q27 23 48 60.5t44 117.5l187 -67q-29 -104 -67 -164t-89 -100q-104 -82 -238 -82q-188 0 -315 139t-127 354z" />
<glyph unicode="&#xaa;" horiz-adv-x="632" d="M6 969q0 43 14.5 82t42.5 67q27 25 57 45.5t70 32.5q23 6 42.5 11t41.5 10q35 10 86 12v20q0 27 -6 36t-10 13q-16 16 -65 17q-53 0 -95 -21q-12 -6 -23 -13t-26.5 -17.5t-38 -27.5t-57.5 -42v180q20 23 43.5 36t58.5 28q70 29 144 28q49 0 92 -11t78 -38q72 -57 71 -153 v-295q10 8 33 22.5t70 44.5v-170q-23 -16 -32 -23t-17 -12q-6 -4 -14.5 -9t-18.5 -11q-23 -12 -45.5 -20.5t-46.5 -8.5q-51 0 -76 39q-8 -4 -16.5 -7t-16.5 -7q-29 -10 -58.5 -18.5t-58.5 -8.5q-92 0 -157 54q-66 55 -66 135zM172 973q0 -14 10 -25q10 -6 23.5 -11t36.5 -5 q42 0 71 16q12 10 24.5 17.5t22.5 15.5v96h-8q-31 -4 -86 -18q-39 -12 -73 -41q-20 -18 -21 -45z" />
<glyph unicode="&#xab;" horiz-adv-x="1126" d="M2 473l426 512h258l-426 -512l430 -512h-258zM436 473l426 512h258l-426 -512l430 -512h-258z" />
<glyph unicode="&#xac;" horiz-adv-x="1486" d="M156 848v192h1175v-684h-192v492h-983z" />
<glyph unicode="&#xad;" horiz-adv-x="704" d="M59 477v199h588v-199h-588z" />
<glyph unicode="&#xae;" horiz-adv-x="1802" d="M86 727q0 338 240 578q242 238 575 237q334 1 576 -237q240 -240 239 -576q0 -338 -239 -577q-242 -238 -576 -238t-575 238q-240 240 -240 575zM285 729q0 -254 180 -434q182 -182 436 -182q256 0 434 180q182 182 183 434q0 254 -181 434q-182 182 -436 182 q-256 0 -434 -180q-182 -182 -182 -434zM543 266v905h362q84 0 150.5 -16t111.5 -57q82 -76 82 -191q0 -80 -41 -143.5t-112 -97.5q29 -27 51 -58q23 -35 39.5 -70.5t32.5 -70.5l90 -201h-236q-49 119 -86 186.5t-65 102.5q-25 31 -62 47t-90 16h-27v-352h-200zM743 801h99 q70 0 106.5 9t50.5 19q33 23 33 72q0 29 -9 43t-22 21q-23 10 -56.5 17t-80.5 7h-121v-188z" />
<glyph unicode="&#xaf;" d="M51 1120v207h647v-207h-647z" />
<glyph unicode="&#xb0;" horiz-adv-x="901" d="M113 1128q0 139 100 240q98 98 238 98q139 0 237 -98q100 -100 100 -238q0 -139 -100 -239q-98 -98 -237 -98t-238 98q-100 100 -100 237zM297 1130q0 -63 45 -108t109 -45q65 0 108 45q45 45 45 106q0 63 -45 108.5t-108 45.5q-66 0 -109 -45q-45 -45 -45 -107z" />
<glyph unicode="&#xb1;" horiz-adv-x="1486" d="M156 -51h1175v192h-491v482h491v192h-491v492h-193v-492h-491v-192h491v-482h-491v-192z" />
<glyph unicode="&#xb2;" horiz-adv-x="704" d="M23 1180v194q33 27 58 41.5t54 24.5q33 14 70 20t78 6q131 0 219 -69q94 -78 94 -193q0 -80 -47 -168q-23 -41 -45.5 -71.5t-42.5 -53.5q-23 -31 -48.5 -57.5t-52.5 -52.5l-18 -21h340v-151h-649v90q55 47 93 79.5t69 61.5q68 57 129 131q23 29 41 57.5t34 57.5 q27 51 27 98q0 45 -37 74q-23 16 -49.5 25.5t-63.5 9.5q-53 0 -90 -19q-10 -4 -21 -11t-29.5 -19.5t-45.5 -33t-67 -50.5z" />
<glyph unicode="&#xb3;" horiz-adv-x="704" d="M66 672v155q63 -23 89.5 -31t51.5 -14q47 -10 106 -10q41 0 69 8t50 25q39 31 39 72q0 45 -37 73q-23 16 -53.5 25.5t-75.5 9.5h-65v154h59q72 0 121 30q25 16 33 29.5t8 28.5q0 14 -7.5 26.5t-27.5 26.5q-23 16 -51.5 24.5t-65.5 8.5q-61 0 -100 -15q-23 -10 -48.5 -21 t-88.5 -42v160q31 23 54.5 32t47.5 19q29 10 65.5 15t79.5 5q61 0 115.5 -14t97.5 -47q45 -33 71 -76t26 -98q0 -72 -49 -129q-16 -20 -41 -37q21 -17 39 -33q63 -63 63 -147q0 -59 -24.5 -109.5t-71.5 -87.5q-90 -70 -226 -70q-74 0 -133 15q-33 8 -58.5 15t-61.5 24z" />
<glyph unicode="&#xb4;" d="M78 1016l280 422h316l-414 -422h-182z" />
<glyph unicode="&#xb5;" horiz-adv-x="1253" d="M207 -414v1385h201v-598q0 -66 14 -111t37 -74q25 -29 59.5 -44t85.5 -15q82 0 146 53q35 29 57 55.5t37 51.5v682h200v-1022h-200v67q-12 -10 -24.5 -20t-26.5 -19q-41 -23 -84 -35t-86 -12q-55 0 -110.5 14.5t-104.5 43.5v-402h-201z" />
<glyph unicode="&#xb6;" horiz-adv-x="1464" d="M94 995q0 213 148 346q145 127 381 127h747v-241h-196v-1735h-234v1735h-162v-1735h-233v1034q-92 6 -171 37t-141 88q-139 129 -139 344z" />
<glyph unicode="&#xb7;" horiz-adv-x="632" d="M201 557v303h233v-303h-233z" />
<glyph unicode="&#xb8;" d="M174 -393l27 164l114 -7q47 -2 70 13q8 6 8 14q0 12 -8 19q-4 2 -11 4t-21.5 4t-40 3t-64.5 1l74 246h167l-28 -101q34 -12 63 -43q51 -53 51 -131q0 -92 -75 -149q-72 -53 -176 -54z" />
<glyph unicode="&#xb9;" horiz-adv-x="704" d="M266 1458h170l2 -829h-170z" />
<glyph unicode="&#xba;" horiz-adv-x="796" d="M39 1124q0 147 104 244q104 98 256 98q150 0 256 -96q104 -96 105 -246q0 -145 -104.5 -243.5t-256.5 -98.5q-154 0 -256 97q-104 96 -104 245zM209 1124q0 -76 53 -127q57 -55 137 -55t133 53q55 53 56 129q0 74 -56 127q-55 55 -133 56q-82 0 -135 -54 q-55 -53 -55 -129z" />
<glyph unicode="&#xbb;" horiz-adv-x="1126" d="M2 -39l430 512l-426 512h258l426 -512l-430 -512h-258zM436 -39l430 512l-426 512h258l426 -512l-430 -512h-258z" />
<glyph unicode="&#xbc;" horiz-adv-x="1875" d="M217 -106l1151 1572h209l-1153 -1572h-207zM436 1458h170l2 -829h-170zM958 229v93l480 464h98v-411h123v-146h-123v-280h-168v280h-410zM1229 375h139v137z" />
<glyph unicode="&#xbd;" horiz-adv-x="1875" d="M162 -106l1151 1572h209l-1153 -1572h-207zM381 1458h170l2 -829h-170zM1055 500v194q33 27 58.5 41.5t53.5 24.5q33 14 70 20t78 6q131 0 219 -69q94 -76 94 -193q0 -80 -47 -168q-23 -41 -45.5 -71.5t-42.5 -53.5q-23 -31 -48.5 -57.5t-51.5 -52.5l-19 -21h340v-151 h-649v90q55 47 93 80t71 61q31 29 62.5 60.5t64.5 70.5q23 29 41 57.5t35 57.5q27 51 26 98q0 45 -37 74q-23 16 -49 25.5t-63 9.5q-55 0 -88 -19q-10 -4 -22.5 -11t-30 -19.5t-45 -33t-68.5 -50.5z" />
<glyph unicode="&#xbe;" horiz-adv-x="1875" d="M180 672v155q63 -23 90 -31t52 -14q47 -10 106 -10q41 0 68.5 8t50.5 25q39 31 39 72q0 45 -37 73q-23 16 -53.5 25.5t-75.5 9.5h-66v154h60q72 0 121 30q25 16 32.5 29.5t7.5 28.5q0 14 -7 26.5t-27 26.5q-23 16 -51.5 24.5t-65.5 8.5q-61 0 -100 -15q-23 -10 -48.5 -21 t-89.5 -42v160q31 23 54.5 32t48.5 19q29 10 65.5 15t79.5 5q61 0 115.5 -14t97.5 -47q45 -33 70.5 -76t25.5 -98q0 -72 -49 -129q-16 -20 -41 -37q21 -17 39 -33q63 -63 64 -147q0 -59 -24.5 -109.5t-72.5 -87.5q-90 -70 -225 -70q-74 0 -133 15q-33 8 -58.5 15t-62.5 24z M242 -106l1151 1572h209l-1153 -1572h-207zM997 229v93l478 464h100v-411h123v-146h-123v-280h-168v280h-410zM1266 375h141v137z" />
<glyph unicode="&#xbf;" horiz-adv-x="632" d="M39 -160q0 125 49 223q23 47 60.5 106.5t89.5 131.5q45 68 53 100q8 18 10 37t2 37q0 10 -1 18.5t-1 18.5q-4 8 -13 29.5t-34 68.5l102 90q43 -47 61.5 -73.5t33.5 -55.5q33 -57 32 -120q0 -68 -18 -129q-10 -31 -29.5 -68t-46.5 -78q-35 -55 -61.5 -103t-44.5 -89 q-37 -74 -37 -154q0 -61 33 -104q29 -37 71 -37q8 0 27.5 8t44 20.5t50 27t48.5 26.5l74 -187q-4 -2 -31.5 -15t-63.5 -30.5t-48 -21.5q-47 -18 -103 -19q-156 0 -235 107q-74 100 -74 235zM225 717v301h236v-301h-236z" />
<glyph unicode="&#xc0;" horiz-adv-x="1503" d="M-2 -51l692 1509h125l690 -1509h-223l-221 483h-617l-221 -483h-225zM279 1927h315l280 -422h-182zM532 625h441l-221 483z" />
<glyph unicode="&#xc1;" horiz-adv-x="1503" d="M-2 -51l692 1509h125l690 -1509h-223l-221 483h-617l-221 -483h-225zM532 625h441l-221 483zM629 1503l280 422h316l-414 -422h-182z" />
<glyph unicode="&#xc2;" horiz-adv-x="1503" d="M-2 -51l692 1509h125l690 -1509h-223l-221 483h-617l-221 -483h-225zM375 1444l289 438h174l292 -438h-196l-182 196l-181 -196h-196zM532 625h441l-221 483z" />
<glyph unicode="&#xc3;" horiz-adv-x="1503" d="M-2 -51l692 1509h125l690 -1509h-223l-221 483h-617l-221 -483h-225zM367 1518q0 86 12 134t37 83q31 43 75 61.5t95 18.5q80 0 202 -54q59 -27 95.5 -37t52.5 -10q4 0 7 1t11 7q4 4 9.5 18.5t15.5 71.5h158q0 -86 -13.5 -134t-36.5 -83q-29 -43 -73.5 -61t-95.5 -18 q-80 0 -203 53q-61 27 -96 37t-50 10q-10 0 -22 -10q-2 0 -6 -14.5t-13 -73.5h-161zM532 625h441l-221 483z" />
<glyph unicode="&#xc4;" horiz-adv-x="1503" d="M-2 -51l692 1509h125l690 -1509h-223l-221 483h-617l-221 -483h-225zM494 1538v242h241v-242h-241zM532 625h441l-221 483zM774 1538v242h242v-242h-242z" />
<glyph unicode="&#xc5;" horiz-adv-x="1503" d="M-2 -51h225l221 483h617l221 -483h223l-682 1493q51 14 95 55q66 70 65 162q0 90 -68 162q-66 66 -161 65q-96 0 -162 -65.5t-66 -161.5t66 -162q39 -39 90 -55zM532 625l220 483l221 -483h-441zM684 1659q0 31 21 49q18 20 49 21q33 0 53 -21q8 -10 13 -21.5t5 -27.5 q0 -29 -20 -49t-51 -21q-31 0 -49 21q-20 18 -21 49z" />
<glyph unicode="&#xc6;" horiz-adv-x="1949" d="M45 -51l936 1499h909v-193h-655v-456h637v-191l-637 -2v-465h670v-192h-881v659h-330l-411 -659h-238zM817 801h207v338z" />
<glyph unicode="&#xc7;" horiz-adv-x="1525" d="M90 698q0 328 232 549q117 111 261 165t314 54q121 0 250 -32q70 -16 133 -41t137 -64v-239q-104 59 -169.5 88.5t-125.5 48.5q-121 37 -243 37q-244 0 -406 -162q-164 -160 -164 -404q0 -252 160 -407q162 -158 416 -158q139 0 260 43q31 10 60.5 22.5t63.5 29t73.5 38 t91.5 49.5v-229q-70 -41 -133.5 -67.5t-131.5 -47.5q-125 -35 -227 -41q57 -55 57 -137q0 -92 -75 -149q-72 -53 -176 -54l-148 17l25 164l114 -7q47 -2 70 13q8 6 8 14q0 12 -8 19q-8 4 -32.5 8t-102.5 4l37 127q-227 43 -389 196q-231 215 -232 553z" />
<glyph unicode="&#xc8;" horiz-adv-x="1103" d="M111 -51v1499h868v-193h-657v-456h639v-191l-639 -2v-465h671v-192h-882zM221 1905h316l280 -422h-182z" />
<glyph unicode="&#xc9;" horiz-adv-x="1103" d="M109 -51v1499h866v-193h-656v-456h637v-191l-637 -2v-465h670v-192h-880zM399 1462l281 422h315l-413 -422h-183z" />
<glyph unicode="&#xca;" horiz-adv-x="1103" d="M111 -51v1499h868v-193h-657v-456h639v-191l-639 -2v-465h671v-192h-882zM150 1485l288 438h174l291 -438h-194l-183 196l-182 -196h-194z" />
<glyph unicode="&#xcb;" horiz-adv-x="1103" d="M111 -51v1499h868v-193h-657v-456h639v-191l-639 -2v-465h671v-192h-882zM266 1538v242h244v-242h-244zM547 1538v242h244v-242h-244z" />
<glyph unicode="&#xcc;" horiz-adv-x="468" d="M-63 1884h315l280 -422h-182zM133 -51v1499h209v-1499h-209z" />
<glyph unicode="&#xcd;" horiz-adv-x="468" d="M121 1503l280 422h316l-414 -422h-182zM135 -51v1499h209v-1499h-209z" />
<glyph unicode="&#xce;" horiz-adv-x="468" d="M-143 1444l288 438h174l291 -438h-194l-183 196l-180 -196h-196zM127 -51v1499h209v-1499h-209z" />
<glyph unicode="&#xcf;" horiz-adv-x="468" d="M-27 1538v242h242v-242h-242zM125 -51v1499h209v-1499h-209zM254 1538v242h242v-242h-242z" />
<glyph unicode="&#xd0;" horiz-adv-x="1667" d="M53 604v193h209v657l549 -6q180 -2 326.5 -50.5t257.5 -150.5t165 -239.5t54 -311.5q0 -328 -209 -538q-106 -106 -251.5 -157.5t-328.5 -51.5h-563v655h-209zM473 141h324q274 0 436 152t162 403q0 252 -160 405.5t-434 153.5h-328v-458h453v-193h-453v-463z" />
<glyph unicode="&#xd1;" horiz-adv-x="1736" d="M186 -51v1499h168q143 -174 276.5 -327.5t268.5 -301.5q111 -125 220.5 -251t219.5 -255v1135h211v-1499h-166l-987 1134v-1134h-211zM489 1518q0 86 12.5 134t39.5 83q29 43 72.5 61.5t95.5 18.5q80 0 202 -54q59 -27 95 -37t53 -10q4 0 7 1t11 7q4 4 9.5 18.5 t15.5 71.5h158q0 -86 -12.5 -134t-37.5 -83q-29 -43 -72.5 -61t-97.5 -18q-80 0 -202 53q-61 27 -96 37t-50 10q-10 0 -22 -10l-6 -14q-5 -15 -13 -74h-162z" />
<glyph unicode="&#xd2;" horiz-adv-x="1853" d="M137 698q0 328 225 547q227 221 566 221q332 0 561 -219q229 -223 229 -549q0 -324 -229 -546q-227 -221 -561 -222q-338 0 -563 220q-227 221 -228 548zM356 698q0 -236 164 -399q166 -166 408 -166q237 0 403 166q168 168 168 399t-168 400q-166 166 -403 166 q-240 0 -406 -166t-166 -400zM498 1925h315l281 -422h-183z" />
<glyph unicode="&#xd3;" horiz-adv-x="1853" d="M137 698q0 328 225 547q227 221 566 221q332 0 561 -219q229 -223 229 -549q0 -324 -229 -546q-227 -221 -561 -222q-338 0 -563 220q-227 221 -228 548zM356 698q0 -236 164 -399q166 -166 408 -166q237 0 403 166q168 168 168 399t-168 400q-166 166 -403 166 q-240 0 -406 -166t-166 -400zM803 1503l280 422h316l-414 -422h-182z" />
<glyph unicode="&#xd4;" horiz-adv-x="1853" d="M137 698q0 328 225 547q227 221 566 221q332 0 561 -219q229 -223 229 -549q0 -324 -229 -546q-227 -221 -561 -222q-338 0 -563 220q-227 221 -228 548zM356 698q0 -236 164 -399q166 -166 408 -166q237 0 403 166q168 168 168 399t-168 400q-166 166 -403 166 q-240 0 -406 -166t-166 -400zM545 1485l289 438h161l303 -438h-194l-182 196l-181 -196h-196z" />
<glyph unicode="&#xd5;" horiz-adv-x="1853" d="M137 698q0 328 225 547q227 221 566 221q332 0 561 -219q229 -223 229 -549q0 -324 -229 -546q-227 -221 -561 -222q-338 0 -563 220q-227 221 -228 548zM356 698q0 -236 164 -399q166 -166 408 -166q237 0 403 166q168 168 168 399t-168 400q-166 166 -403 166 q-240 0 -406 -166t-166 -400zM541 1518q0 86 12 134t37 83q31 43 75 61.5t95 18.5q82 0 201 -54q61 -27 97 -37t52 -10q4 0 7 1t11 7q2 4 7.5 18.5t15.5 71.5h160q0 -86 -13.5 -134t-37.5 -83q-29 -43 -73 -61t-95 -18q-80 0 -203 53q-61 27 -96 37t-50 10q-10 0 -22 -10 q-2 0 -7 -14.5t-12 -73.5h-161z" />
<glyph unicode="&#xd6;" horiz-adv-x="1853" d="M137 698q0 328 225 547q227 221 566 221q332 0 561 -219q229 -223 229 -549q0 -324 -229 -546q-227 -221 -561 -222q-338 0 -563 220q-227 221 -228 548zM356 698q0 -236 164 -399q166 -166 408 -166q237 0 403 166q168 168 168 399t-168 400q-166 166 -403 166 q-240 0 -406 -166t-166 -400zM668 1538v242h241v-242h-241zM948 1538v242h242v-242h-242z" />
<glyph unicode="&#xd7;" horiz-adv-x="1486" d="M260 373l346 346l-346 346l137 137l346 -346l347 346l137 -137l-346 -346l346 -346l-137 -137l-347 346l-346 -346z" />
<glyph unicode="&#xd8;" horiz-adv-x="1853" d="M137 698q0 328 225 547q227 221 566 221q262 0 450 -131l129 142l160 -113l-141 -156q193 -211 192 -510q0 -324 -229 -546q-227 -221 -561 -222q-256 0 -443 123l-127 -141l-159 113l137 151q-199 221 -199 522zM356 698q0 -208 125 -358l756 836q-131 88 -309 88 q-240 0 -406 -166t-166 -400zM629 211q131 -78 299 -78q237 0 403 166q168 168 168 399q0 197 -121 346z" />
<glyph unicode="&#xd9;" horiz-adv-x="1572" d="M150 596v852h210v-844q0 -115 30 -200t87 -146q115 -125 311 -125q195 0 308 129q55 63 84.5 150.5t29.5 201.5v834h211v-842q0 -145 -43 -266t-131 -217q-178 -193 -461 -193q-281 0 -458.5 186.5t-177.5 479.5zM479 1884h316l280 -422h-182z" />
<glyph unicode="&#xda;" horiz-adv-x="1572" d="M150 596v852h210v-844q0 -115 30 -200t87 -146q115 -125 311 -125q195 0 308 129q55 63 84.5 150.5t29.5 201.5v834h211v-842q0 -145 -43 -266t-131 -217q-178 -193 -461 -193q-281 0 -458.5 186.5t-177.5 479.5zM662 1462l280 422h315l-413 -422h-182z" />
<glyph unicode="&#xdb;" horiz-adv-x="1572" d="M150 596v852h210v-844q0 -115 30 -200t87 -146q115 -125 311 -125q195 0 308 129q55 63 84.5 150.5t29.5 201.5v834h211v-842q0 -145 -43 -266t-131 -217q-178 -193 -461 -193q-281 0 -458.5 186.5t-177.5 479.5zM408 1444l288 438h174l291 -438h-196l-183 196l-180 -196 h-194z" />
<glyph unicode="&#xdc;" horiz-adv-x="1572" d="M150 596v852h210v-844q0 -115 30 -200t87 -146q115 -125 311 -125q195 0 308 129q55 63 84.5 150.5t29.5 201.5v834h211v-842q0 -145 -43 -266t-131 -217q-178 -193 -461 -193q-281 0 -458.5 186.5t-177.5 479.5zM524 1538v242h242v-242h-242zM805 1538v242h242v-242 h-242z" />
<glyph unicode="&#xdd;" horiz-adv-x="1312" d="M-49 1448h264l442 -524l443 524h264l-602 -717v-782h-211v782zM530 1462l283 422h315l-413 -422h-185z" />
<glyph unicode="&#xde;" horiz-adv-x="1148" d="M102 -51v1499h213v-326h222q115 0 206.5 -25.5t161.5 -78.5q141 -115 142 -320q0 -98 -35 -178t-107 -137q-137 -106 -366 -107h-226v-327h-211zM313 471h219q150 0 224 61q35 27 54 68t19 100q0 55 -18 96.5t-53 69.5q-39 31 -91.5 47.5t-123.5 16.5h-230v-459z" />
<glyph unicode="&#xdf;" horiz-adv-x="1126" d="M104 -51v1038q0 115 29 206t90 155q121 119 305 118q182 0 308 -106q123 -111 122 -283q0 -84 -45 -186q-31 -66 -84 -109q62 -41 111 -98q82 -106 82 -276q0 -188 -115 -332q-117 -145 -315 -146q-47 0 -78 9q-16 4 -32.5 8t-57.5 14v217q31 -12 49.5 -19t29.5 -11.5 t18 -6.5t16 -4q16 -4 31.5 -6t31.5 -2q96 0 154 76q59 82 59 203q0 106 -51 184q-23 33 -71 56.5t-154 35.5v188h67q63 0 103 52q45 57 45 145q0 61 -16.5 99t-45.5 61q-72 53 -168 53t-155 -63q-27 -29 -44.5 -100.5t-17.5 -200.5v-969h-201z" />
<glyph unicode="&#xe0;" horiz-adv-x="1087" d="M74 434q0 119 34.5 219.5t108.5 177.5q145 158 373 158q59 0 115.5 -13t109.5 -36v31h199v-1026h-201v30q-16 -6 -34.5 -12t-37.5 -10q-86 -23 -172 -23q-215 0 -356 142q-139 145 -139 362zM180 1438h316l280 -422h-182zM281 436q0 -76 21.5 -131t62.5 -96 q82 -86 223 -86q90 0 143 20q25 10 45.5 19.5t38.5 19.5v549q-12 8 -28.5 15.5l-38.5 17.5q-55 27 -138 27q-143 0 -235 -99q-94 -100 -94 -256z" />
<glyph unicode="&#xe1;" horiz-adv-x="1067" d="M63 434q0 242 144 397q145 158 373 158q59 0 115.5 -13t109.5 -36v31h199v-1026h-201v30q-16 -6 -34.5 -12t-37.5 -10q-86 -23 -172 -23q-215 0 -356 142q-139 145 -140 362zM270 436q0 -76 21.5 -131t62.5 -96q82 -86 224 -86q90 0 143 20q25 10 45 19.5t39 19.5v549 q-12 8 -28.5 15.5t-39.5 17.5q-55 27 -137 27q-143 0 -235 -99q-94 -100 -95 -256zM350 1016l283 422h315l-413 -422h-185z" />
<glyph unicode="&#xe2;" horiz-adv-x="1110" d="M86 434q0 119 35 219.5t106 177.5q145 158 375 158q59 0 114.5 -13t110.5 -36v31h199v-1026h-201v30q-18 -6 -36.5 -12t-36.5 -10q-84 -23 -170 -23q-215 0 -357 142q-72 74 -105.5 164t-33.5 198zM201 997l288 439h175l290 -439h-194l-182 197l-181 -197h-196zM293 436 q0 -145 82 -227q82 -86 225 -86q90 0 143 20q23 10 44.5 19.5t39.5 19.5v549q-23 14 -69 33q-55 27 -135 27q-143 0 -236 -99q-94 -100 -94 -256z" />
<glyph unicode="&#xe3;" horiz-adv-x="1085" d="M74 434q0 119 34.5 219.5t106.5 177.5q145 158 375 158q59 0 114.5 -13t110.5 -36v31h199v-1026h-201v30q-18 -6 -36.5 -12t-37.5 -10q-84 -23 -170 -23q-215 0 -356 142q-72 74 -105.5 164t-33.5 198zM180 1071q0 86 12.5 134t36.5 83q31 43 75 61.5t95 18.5 q82 0 201 -53q61 -27 97 -37t53 -10q2 0 6 1t12 7q2 4 7.5 18.5t15.5 71.5h159q0 -86 -13 -134t-38 -83q-29 -43 -73 -61.5t-95 -18.5q-80 0 -203 53q-61 27 -96 37t-49 10q-10 0 -23 -10q-2 0 -7 -14.5t-11 -73.5h-162zM281 436q0 -145 81 -227q82 -86 226 -86q90 0 143 20 q23 10 44.5 19.5t39.5 19.5v549q-23 14 -70 33q-55 27 -135 27q-143 0 -235 -99q-94 -100 -94 -256z" />
<glyph unicode="&#xe4;" horiz-adv-x="1103" d="M104 434q0 119 35 219.5t109 177.5q143 158 373 158q59 0 115.5 -23.5t109.5 -45.5v51h198v-1026h-200v51q-18 -6 -37 -22.5t-35 -20.5q-86 -23 -172 -23q-215 0 -356 142q-139 145 -140 362zM311 436q0 -147 84 -227q82 -86 223 -86q91 0 144 20q23 10 44 30t40 30v508 q-12 8 -28.5 25.5t-39.5 27.5q-55 27 -137 27q-143 0 -235 -99q-94 -100 -95 -256zM315 1092v241h242v-241h-242zM596 1092v241h242v-241h-242z" />
<glyph unicode="&#xe5;" horiz-adv-x="962" d="M10 434q0 -219 142 -362q137 -141 354 -142q88 0 172 23q18 4 36.5 10t35.5 12v-30h200v1026h-198v-31q-47 20 -93.5 31.5t-95.5 15.5q74 12 125 64q66 66 66 161q0 90 -68 162q-66 66 -162 66q-94 0 -159 -66q-68 -68 -68 -162t68 -161q51 -51 122 -64 q-203 -12 -333 -156q-143 -156 -144 -397zM217 436q0 156 96 256q92 98 234 99q82 0 137 -27q23 -10 39 -17.5t29 -15.5v-549q-18 -10 -38.5 -19.5t-45.5 -19.5q-53 -20 -144 -20q-141 0 -223 86q-41 41 -62.5 96t-21.5 131zM455 1212q0 29 20 50q18 20 49 20q33 0 54 -20 q18 -18 18 -50q-1 -29 -21 -49t-51 -20t-49 20q-20 20 -20 49z" />
<glyph unicode="&#xe6;" horiz-adv-x="1689" d="M66 434q0 119 34.5 219.5t108.5 177.5q143 158 373 158q59 0 115.5 -23.5t109.5 -45.5v51h199v-43q8 6 15 11t17 9q76 41 176 41q182 0 297 -143q59 -72 86 -167t27 -237h-618v-65q8 -47 26.5 -85t46.5 -73q78 -90 191 -90q82 0 141 41q18 12 35.5 24.5t39 31t50.5 45 t70 67.5v-258q-41 -35 -78 -58.5t-82 -46.5q-100 -45 -211 -45q-100 0 -180 43q-23 10 -49 33v-61h-201v51q-18 -6 -36.5 -22.5t-35.5 -20.5q-86 -23 -172 -23q-215 0 -356 142q-139 145 -139 362zM272 436q0 -147 84 -227q82 -86 224 -86q90 0 143 20q23 10 44 30t40 30 v508q-12 8 -28.5 25.5t-39.5 27.5q-55 27 -137 27q-143 0 -235 -99q-94 -100 -95 -256zM1026 625h365q-8 37 -20.5 64.5t-29.5 47.5q-23 27 -51 40.5t-71 13.5q-96 0 -154 -86q-10 -16 -20.5 -35.5t-18.5 -44.5z" />
<glyph unicode="&#xe7;" horiz-adv-x="940" d="M66 459q0 219 133 370q70 82 162 121t206 39q76 0 140 -14q29 -6 62.5 -16.5t88.5 -28.5v-225q-74 33 -107.5 45t-60.5 22q-49 18 -121 19q-135 0 -213 -91q-84 -90 -84 -241q0 -80 21.5 -139.5t60.5 -102.5q82 -88 228 -88q68 0 127 16q14 4 28.5 9.5t32.5 12.5t44 17.5 t60 26.5v-219q-41 -14 -69.5 -22.5t-65.5 -18.5q-53 -17 -108 -19q59 -55 59 -139q0 -92 -76 -149q-72 -53 -178 -54l-147 17l26 164l113 -7q27 -2 44 2.5t28 10.5q8 6 8 14q0 12 -10 19q-4 2 -10.5 4t-20.5 4t-40 3t-65 1l41 133q-119 33 -200 121q-72 72 -104.5 169 t-32.5 214z" />
<glyph unicode="&#xe8;" horiz-adv-x="1079" d="M72 473q0 104 32.5 196.5t100.5 168.5q135 152 342 151q203 0 332 -141q66 -72 96.5 -167t30.5 -239h-727q4 -133 92 -219q94 -94 233 -94q102 0 176 43q23 12 43.5 24.5t43 30t51 43t69.5 62.5v-252q-90 -70 -182 -110t-209 -40q-229 0 -376.5 154t-147.5 389zM227 1438 h316l280 -422h-182zM309 625h461q-20 68 -61 108q-57 57 -160 58q-123 0 -195 -91q-22 -28 -45 -75z" />
<glyph unicode="&#xe9;" horiz-adv-x="1079" d="M72 473q0 104 32.5 196.5t100.5 168.5q135 152 342 151q203 0 332 -141q66 -72 96.5 -167t30.5 -239h-727q4 -133 92 -219q94 -94 233 -94q102 0 176 43q23 12 43.5 24.5t43 30t51 43t69.5 62.5v-252q-90 -70 -182 -110t-209 -40q-229 0 -376.5 154t-147.5 389zM309 625 h461q-20 68 -61 108q-57 57 -160 58q-123 0 -195 -91q-22 -28 -45 -75zM410 1016l280 422h316l-414 -422h-182z" />
<glyph unicode="&#xea;" horiz-adv-x="1079" d="M72 473q0 104 32.5 196.5t100.5 168.5q135 152 342 151q203 0 332 -141q66 -72 96.5 -167t30.5 -239h-727q4 -133 92 -219q94 -94 233 -94q102 0 176 43q23 12 43.5 24.5t43 30t51 43t69.5 62.5v-252q-90 -70 -182 -110t-209 -40q-229 0 -376.5 154t-147.5 389zM156 997 l288 439h174l291 -439h-194l-183 197l-182 -197h-194zM309 625h461q-20 68 -61 108q-57 57 -160 58q-123 0 -195 -91q-22 -28 -45 -75z" />
<glyph unicode="&#xeb;" horiz-adv-x="1079" d="M72 473q0 104 32.5 196.5t100.5 168.5q135 152 342 151q203 0 332 -141q66 -72 96.5 -167t30.5 -239h-727q4 -133 92 -219q94 -94 233 -94q102 0 176 43q23 12 43.5 24.5t43 30t51 43t69.5 62.5v-252q-90 -70 -182 -110t-209 -40q-229 0 -376.5 154t-147.5 389zM272 1092 v241h242v-241h-242zM309 625h461q-20 68 -61 108q-57 57 -160 58q-123 0 -195 -91q-22 -28 -45 -75zM553 1092v241h242v-241h-242z" />
<glyph unicode="&#xec;" horiz-adv-x="423" d="M-86 1438h315l281 -422h-182zM119 -51v1022h200v-1022h-200z" />
<glyph unicode="&#xed;" horiz-adv-x="423" d="M16 1016l281 422h315l-413 -422h-183zM121 -51v1022h201v-1022h-201z" />
<glyph unicode="&#xee;" horiz-adv-x="423" d="M-166 997l289 439h174l291 -439h-195l-182 197l-180 -197h-197zM113 -51v1022h200v-1022h-200z" />
<glyph unicode="&#xef;" horiz-adv-x="423" d="M-49 1092v241h242v-241h-242zM111 -51v1022h200v-1022h-200zM231 1092v241h242v-241h-242z" />
<glyph unicode="&#xf0;" horiz-adv-x="1259" d="M80 455q0 229 158 383q158 152 399 151q59 0 116.5 -11t110.5 -38q-33 55 -78 102q-12 14 -31.5 33t-45.5 41l-316 -145l-74 159l216 101q-51 27 -144 72l84 155q102 -37 164.5 -67.5t105.5 -61.5l289 135l78 -159l-213 -101q68 -72 109 -129q170 -248 170 -567 q0 -125 -36 -229.5t-112 -186.5q-152 -164 -395 -164q-238 0 -395 150q-160 154 -160 377zM276 453q0 -141 103 -240q100 -98 254 -98q80 0 139.5 24.5t104.5 71.5q94 100 94 258q0 147 -92 240q-96 96 -248 96q-154 0 -254 -100q-100 -106 -101 -252z" />
<glyph unicode="&#xf1;" horiz-adv-x="1103" d="M125 -51v1022h201v-76q14 14 29.5 25.5t31.5 21.5q84 47 191 47q180 0 292 -119q55 -59 82 -139t27 -176v-606h-203v575q0 72 -14 121t-37 82q-47 63 -150 64q-49 0 -84.5 -11.5t-64.5 -34.5q-55 -47 -100 -110v-686h-201zM168 1071q0 86 12.5 134t38.5 83q31 43 75 61.5 t95 18.5q78 0 201 -53q61 -27 97 -37t52 -10q2 0 6.5 1t12.5 7q2 4 7 18.5t15 71.5h160q0 -86 -13.5 -134t-37.5 -83q-29 -43 -73 -61.5t-97 -18.5q-78 0 -201 53q-61 27 -96 37t-51 10q-8 0 -21 -10q-2 0 -7 -14.5t-11 -73.5h-164z" />
<glyph unicode="&#xf2;" horiz-adv-x="1220" d="M90 459q0 225 148 377q76 78 169 115.5t203 37.5q224 1 371 -153q150 -156 149 -377q0 -225 -147 -375q-76 -78 -169 -116t-204 -38q-223 0 -370 154q-150 156 -150 375zM297 459q0 -135 92 -234q94 -96 221 -96q129 0 221 94t93 236q0 137 -93 235q-94 96 -221 97 q-129 0 -221 -95q-92 -98 -92 -237zM307 1438h314l282 -422h-182z" />
<glyph unicode="&#xf3;" horiz-adv-x="1220" d="M90 459q0 225 148 377q76 78 169 115.5t203 37.5q224 1 371 -153q150 -156 149 -377q0 -225 -147 -375q-76 -78 -169 -116t-204 -38q-223 0 -370 154q-150 156 -150 375zM297 459q0 -135 92 -234q94 -96 221 -96q129 0 221 94t93 236q0 137 -93 235q-94 96 -221 97 q-129 0 -221 -95q-92 -98 -92 -237zM487 1016l283 422h315l-413 -422h-185z" />
<glyph unicode="&#xf4;" horiz-adv-x="1220" d="M90 459q0 225 148 377q76 78 169 115.5t203 37.5q224 1 371 -153q150 -156 149 -377q0 -225 -147 -375q-76 -78 -169 -116t-204 -38q-223 0 -370 154q-150 156 -150 375zM236 997l288 439h174l291 -439h-196l-183 197l-180 -197h-194zM297 459q0 -135 92 -234 q94 -96 221 -96q129 0 221 94t93 236q0 137 -93 235q-94 96 -221 97q-129 0 -221 -95q-92 -98 -92 -237z" />
<glyph unicode="&#xf5;" horiz-adv-x="1220" d="M90 459q0 225 148 377q76 78 169 115.5t203 37.5q224 1 371 -153q150 -156 149 -377q0 -225 -147 -375q-76 -78 -169 -116t-204 -38q-223 0 -370 154q-150 156 -150 375zM225 1071q0 86 12.5 134t38.5 83q29 43 73 61.5t95 18.5q80 0 203 -53q61 -27 96 -37t52 -10 q4 0 7 1t11 7q4 4 9.5 18.5t15.5 71.5h157q0 -86 -12 -134t-37 -83q-29 -43 -73 -61.5t-97 -18.5q-80 0 -203 53q-59 27 -95 37t-50 10q-10 0 -22 -10l-6 -15q-5 -14 -13 -73h-162zM297 459q0 -135 92 -234q94 -96 221 -96q129 0 221 94t93 236q0 137 -93 235 q-94 96 -221 97q-129 0 -221 -95q-92 -98 -92 -237z" />
<glyph unicode="&#xf6;" horiz-adv-x="1220" d="M90 459q0 225 148 377q76 78 169 115.5t203 37.5q224 1 371 -153q150 -156 149 -377q0 -225 -147 -375q-76 -78 -169 -116t-204 -38q-223 0 -370 154q-150 156 -150 375zM297 459q0 -135 92 -234q94 -96 221 -96q129 0 221 94t93 236q0 137 -93 235q-94 96 -221 97 q-129 0 -221 -95q-92 -98 -92 -237zM352 1092v241h242v-241h-242zM633 1092v241h241v-241h-241z" />
<glyph unicode="&#xf7;" horiz-adv-x="1486" d="M156 623v192h1175v-192h-1175zM637 248v274h213v-274h-213zM637 915v275h213v-275h-213z" />
<glyph unicode="&#xf8;" horiz-adv-x="1220" d="M78 -20l127 147q-55 70 -82 152.5t-27 179.5q0 225 148 377q76 78 169 115.5t203 37.5q158 0 275 -74l108 127l144 -116l-117 -133q111 -139 111 -334q0 -225 -148 -375q-76 -78 -169 -116t-204 -38q-158 0 -276 74l-117 -135zM303 459q0 -96 43 -170l410 471 q-61 31 -140 31q-129 0 -221 -95q-92 -98 -92 -237zM477 162q57 -33 139 -33q130 0 222 94t92 236q0 98 -43 172z" />
<glyph unicode="&#xf9;" horiz-adv-x="1103" d="M125 352v619h203v-598q0 -66 13 -111t38 -74q27 -29 62.5 -44t88.5 -15q86 0 152 53q35 29 57.5 55.5t38.5 51.5v682h201v-1022h-203v69q-25 -23 -59 -41q-84 -47 -176 -47q-94 0 -170 26t-133.5 83t-85 136t-27.5 177zM246 1438h315l281 -422h-183z" />
<glyph unicode="&#xfa;" horiz-adv-x="1103" d="M102 352v619h201v-598q0 -66 14.5 -111t38.5 -74q53 -59 150 -59q88 0 151 53q68 55 97 107v682h200v-1022h-200v69q-14 -12 -28.5 -21t-31.5 -20q-84 -47 -176 -47q-94 0 -170 26t-133 83t-85 136t-28 177zM406 1016l280 422h315l-413 -422h-182z" />
<glyph unicode="&#xfb;" horiz-adv-x="1103" d="M125 352v619h203v-598q0 -66 13 -111t38 -74q27 -29 62.5 -44t88.5 -15q86 0 152 53q35 29 57.5 55.5t38.5 51.5v682h201v-1022h-203v69q-25 -23 -59 -41q-84 -47 -176 -47q-94 0 -170 26t-133.5 83t-85 136t-27.5 177zM174 997l289 439h174l291 -439h-195l-182 197 l-182 -197h-195z" />
<glyph unicode="&#xfc;" horiz-adv-x="1103" d="M125 352v619h203v-598q0 -66 13 -111t38 -74q27 -29 62.5 -44t88.5 -15q86 0 152 53q35 29 57.5 55.5t38.5 51.5v682h201v-1022h-203v69q-25 -23 -59 -41q-84 -47 -176 -47q-94 0 -170 26t-133.5 83t-85 136t-27.5 177zM291 1092v241h241v-241h-241zM571 1092v241h244 v-241h-244z" />
<glyph unicode="&#xfd;" horiz-adv-x="940" d="M-41 971h223l299 -580l285 580h215l-737 -1493h-215l346 698zM336 1016l280 422h316l-414 -422h-182z" />
<glyph unicode="&#xfe;" horiz-adv-x="1148" d="M106 -522v1970h203v-500q16 6 32.5 11.5t33.5 9.5q74 20 149 20q224 0 371 -147q147 -150 147 -381q0 -106 -36.5 -199.5t-108.5 -171.5q-147 -160 -354 -160q-86 0 -160 19q-20 4 -38.5 10t-37.5 12v-493h-201zM307 178q27 -14 70 -26q57 -23 135 -23q145 0 229 90 q90 94 90 240q0 141 -94 235q-96 96 -239 97q-41 0 -73 -5.5t-56 -15.5q-37 -16 -62 -25v-567z" />
<glyph unicode="&#xff;" horiz-adv-x="940" d="M-41 971h223l299 -580l285 580h215l-737 -1493h-215l346 698zM199 1092v241h241v-241h-241zM479 1092v241h242v-241h-242z" />
<glyph unicode="&#x152;" horiz-adv-x="2019" d="M121 707q0 315 225 528t557 213h981v-193h-661v-456h643v-191l-643 -2v-465h675v-192h-991q-342 0 -563 213q-223 217 -223 545zM340 698q0 -244 166 -399q168 -158 424 -158h82v1114h-88q-252 0 -418 -159.5t-166 -397.5z" />
<glyph unicode="&#x153;" horiz-adv-x="1875" d="M121 459q0 221 139 377q141 154 358 153q147 0 250 -51q78 -41 140 -111q61 74 133 111q94 51 221 51q178 0 289 -145q53 -72 79.5 -166t26.5 -236h-633q2 -133 78 -223q82 -90 199 -90q80 0 143 41q18 12 35.5 24.5t39 31t50.5 45t70 67.5v-256q-41 -35 -76 -59.5 t-82 -47.5q-96 -45 -205 -45q-127 0 -233 50q-41 20 -74 50.5t-59 71.5q-57 -63 -131 -106q-115 -66 -267 -66q-211 0 -352 154q-139 156 -139 375zM328 459q0 -139 86 -234q88 -96 209 -96q118 0 204 94q88 96 88 236q0 137 -88 235q-88 96 -204 97q-123 0 -209 -95 q-86 -98 -86 -237zM1149 625h375q-18 70 -54 112q-41 53 -122 54q-100 0 -160 -86q-23 -35 -39 -80z" />
<glyph unicode="&#x178;" horiz-adv-x="1312" d="M-49 1448h264l442 -524l443 524h264l-602 -717v-782h-211v782zM395 1538v242h242v-242h-242zM676 1538v242h242v-242h-242z" />
<glyph unicode="&#x2c6;" d="M-2 997l289 439h174l291 -439h-195l-182 197l-180 -197h-197z" />
<glyph unicode="&#x2dc;" d="M-10 1071q0 86 12 134t39 83q29 43 73 61.5t95 18.5q80 0 203 -53q61 -27 96 -37t51 -10q4 0 7 1t12 7q4 4 9 18.5t15 71.5h158q0 -86 -12.5 -134t-36.5 -83q-29 -43 -73 -61.5t-97 -18.5q-80 0 -203 53q-59 27 -95 37t-50 10q-10 0 -23 -10l-5 -15q-5 -14 -11 -73h-164z " />
<glyph unicode="&#x2000;" horiz-adv-x="972" />
<glyph unicode="&#x2001;" horiz-adv-x="1944" />
<glyph unicode="&#x2002;" horiz-adv-x="972" />
<glyph unicode="&#x2003;" horiz-adv-x="1944" />
<glyph unicode="&#x2004;" horiz-adv-x="648" />
<glyph unicode="&#x2005;" horiz-adv-x="486" />
<glyph unicode="&#x2006;" horiz-adv-x="324" />
<glyph unicode="&#x2007;" horiz-adv-x="324" />
<glyph unicode="&#x2008;" horiz-adv-x="243" />
<glyph unicode="&#x2009;" horiz-adv-x="388" />
<glyph unicode="&#x200a;" horiz-adv-x="108" />
<glyph unicode="&#x2010;" horiz-adv-x="704" d="M59 477v199h588v-199h-588z" />
<glyph unicode="&#x2011;" horiz-adv-x="704" d="M59 477v199h588v-199h-588z" />
<glyph unicode="&#x2012;" horiz-adv-x="704" d="M59 477v199h588v-199h-588z" />
<glyph unicode="&#x2013;" horiz-adv-x="1126" d="M-12 428v168h1151v-168h-1151z" />
<glyph unicode="&#x2014;" horiz-adv-x="2252" d="M39 428v168h2175v-168h-2175z" />
<glyph unicode="&#x2018;" horiz-adv-x="399" d="M72 911v193q0 68 12 124t41 99q29 45 75 80t128 88v-184q-12 -14 -18.5 -20.5t-10.5 -12.5l-14 -14q-4 -4 -7.5 -6.5t-3.5 -6.5q-4 -12 -8 -39h41v-301h-235z" />
<glyph unicode="&#x2019;" horiz-adv-x="399" d="M72 868v185q10 14 16 20t10 12q6 4 17 15q8 8 10 12q2 8 4 17.5t4 21.5h-41v301h236v-192q0 -68 -12.5 -124.5t-41.5 -99.5q-29 -45 -74.5 -79.5t-127.5 -88.5z" />
<glyph unicode="&#x201a;" horiz-adv-x="399" d="M82 -51v301h235v-193q0 -68 -12 -124t-41 -99q-12 -18 -25.5 -36.5t-34 -38t-50 -42t-72.5 -51.5v184q14 18 21.5 32t11.5 28q2 8 4 17.5t4 21.5h-41z" />
<glyph unicode="&#x201c;" horiz-adv-x="892" d="M94 911v193q0 68 12.5 124t40.5 99q27 45 74 80t129 88v-184q-12 -14 -18 -20.5t-10 -12.5q-4 -4 -7.5 -7t-7.5 -7t-7 -6.5t-3 -6.5q-4 -12 -8 -39h41v-301h-236zM543 911v193q0 68 12 124t41 99q27 45 74 80t129 88v-184q-12 -14 -18.5 -20.5t-10.5 -12.5l-7 -7l-7 -7 t-7.5 -6.5t-3.5 -6.5q-4 -12 -8 -39h41v-301h-235z" />
<glyph unicode="&#x201d;" horiz-adv-x="892" d="M94 868v185q10 14 16.5 20t10.5 12q8 6 14 15q8 6 12 12q2 8 4.5 17.5t4.5 21.5h-41v301h235v-192q0 -68 -12 -124.5t-41 -99.5q-29 -45 -76 -79.5t-127 -88.5zM543 868v185q10 14 16 20t10 12q8 6 15 15q8 6 12 12q2 8 4 17.5t4 21.5h-41v301h236v-192 q0 -68 -12.5 -124.5t-41.5 -99.5q-29 -45 -75.5 -79.5t-126.5 -88.5z" />
<glyph unicode="&#x201e;" horiz-adv-x="892" d="M98 -150q12 16 18.5 22.5l10.5 10.5l14 15q4 4 7.5 7t5.5 7q2 12 6 37h-41v301h235v-193q0 -139 -55 -225q-29 -43 -75 -78t-126 -88v184zM539 -150q12 16 18 22.5t10 10.5l15 15l7 7t5 7q2 12 6 37h-41v301h236v-193q0 -139 -56 -225q-29 -43 -75 -78t-125 -88v184z" />
<glyph unicode="&#x2022;" horiz-adv-x="1126" d="M262 698q0 123 86 213q92 88 215 88t213 -86q88 -92 88 -215t-86 -213q-92 -88 -215 -88t-213 86q-88 92 -88 215z" />
<glyph unicode="&#x2026;" horiz-adv-x="2252" d="M328 -51v303h233v-303h-233zM1010 -51v303h233v-303h-233zM1692 -51v303h233v-303h-233z" />
<glyph unicode="&#x202f;" horiz-adv-x="388" />
<glyph unicode="&#x2039;" horiz-adv-x="632" d="M-29 473l426 512h258l-424 -512l431 -512h-261z" />
<glyph unicode="&#x203a;" horiz-adv-x="632" d="M-29 -39l432 512l-426 512h259l426 -512l-431 -512h-260z" />
<glyph unicode="&#x205f;" horiz-adv-x="486" />
<glyph unicode="&#x2122;" horiz-adv-x="2117" d="M276 1264h267v-666h209v666h256v-666h198v412l140 -412h137l149 422v-422h209v850h-278l-146 -465l-145 465h-260h-6h-730v-184z" />
<glyph unicode="&#x25fc;" horiz-adv-x="972" d="M0 0v973h973v-973h-973z" />
</font>
</defs>
</svg>
