<?xml version="1.0" standalone="no"?>
<!DOCTYPE svg PUBLIC "-//W3C//DTD SVG 1.1//EN" "http://www.w3.org/Graphics/SVG/1.1/DTD/svg11.dtd" >
<svg xmlns="http://www.w3.org/2000/svg">
<metadata></metadata>
<defs>
<font id="lorabold_italic" horiz-adv-x="1365" >
<font-face units-per-em="2048" ascent="1638" descent="-410" />
<missing-glyph horiz-adv-x="539" />
<glyph horiz-adv-x="0" />
<glyph unicode="&#xd;" horiz-adv-x="0" />
<glyph horiz-adv-x="600" />
<glyph horiz-adv-x="600" />
<glyph unicode=" "  horiz-adv-x="539" />
<glyph unicode="&#x09;" horiz-adv-x="539" />
<glyph unicode="&#xa0;" horiz-adv-x="539" />
<glyph unicode="!" horiz-adv-x="522" d="M89 126q1 33 14.5 62.5t35 51.5t48.5 34.5t57 12.5q32 0 58 -12.5t44.5 -34.5t27.5 -51.5t8 -62.5q-2 -33 -15.5 -62t-35.5 -50.5t-49.5 -34t-56.5 -12.5q-30 0 -55.5 12.5t-44 34t-28.5 50.5t-8 62zM151 1281q-1 33 8.5 66t29 59.5t49 43.5t68.5 17q41 0 69 -17 t44 -43.5t21 -59.5t0 -66l-119 -844h-137z" />
<glyph unicode="&#x22;" horiz-adv-x="664" d="M134 1006l8 461h194l-42 -461h-160zM427 1006l8 461h194l-42 -461h-160z" />
<glyph unicode="#" horiz-adv-x="1724" d="M36 318l53 176h335l123 410h-345l53 176h341l111 387h200l-108 -387h355l111 387h200l-108 -387h343v-2l-51 -174h-340l-118 -410h342l-52 -176h-337l-98 -351h-213l101 351h-349l-98 -351h-212l101 351h-340zM632 494h350l123 410h-354z" />
<glyph unicode="$" horiz-adv-x="1167" d="M73 -19l25 479h134q19 -172 108.5 -257.5t232.5 -85.5q55 0 98 15t73 42t47 64.5t20 81.5q3 52 -20 89.5t-63 66.5t-93 52.5t-110 47.5q-87 36 -165 81t-135.5 104.5t-89.5 136.5t-27 178q3 61 24.5 127t71 122.5t131 95.5t204.5 45l13 248h192l-16 -268q89 -25 161 -77 h2l-3 84h158l-25 -479h-134q-9 86 -31.5 152t-60 111t-90.5 68t-125 22q-44 0 -80 -14.5t-62.5 -39.5t-42 -58.5t-17.5 -71.5q-3 -48 11 -84.5t48.5 -69t92.5 -65t144 -72.5q49 -23 100 -48.5t98 -55.5t88 -66t70.5 -81t44.5 -99.5t12 -121.5q-4 -80 -33.5 -149t-82 -121.5 t-127.5 -87.5t-170 -48l-16 -289h-187l13 289q-64 10 -129 33.5t-125 60.5h-2l3 -87h-158z" />
<glyph unicode="%" horiz-adv-x="1813" d="M91 1059q4 72 32.5 144t80 129.5t124.5 94.5t165 40q94 1 164 -33t116 -89.5t67 -126t17 -141.5q-4 -81 -37 -155.5t-87 -131.5t-125 -91t-152 -34q-95 0 -165 33t-116 88t-67 126t-17 147zM216 90l1239 1377l142 -135l-1255 -1366zM336 1061q0 -38 6 -83t20.5 -83.5 t39.5 -64t63 -25.5q42 0 70.5 29t45 70.5t23.5 88.5t7 83q0 45 -6 90t-20.5 81t-38.5 58t-60 22q-48 0 -77 -31t-45.5 -74t-22 -88t-5.5 -73zM970 361q4 72 32.5 144t80 130t124 95t164.5 39q94 2 164.5 -32t116 -90t67 -126.5t17.5 -141.5q-5 -81 -36.5 -155.5 t-84.5 -131.5t-125 -91t-156 -34q-95 0 -165 33t-115.5 88t-66.5 126t-17 147zM1215 363q0 -38 6 -83t20.5 -83.5t39.5 -64t63 -25.5q42 0 70.5 29t45 70.5t23.5 88.5t7 83q0 45 -6 90t-20.5 81t-38.5 58t-60 22q-48 0 -77 -31t-45.5 -74t-22 -88t-5.5 -73z" />
<glyph unicode="&#x26;" horiz-adv-x="1403" d="M46 378q0 75 28 140.5t78 119t119.5 92t152.5 58.5v2q-63 12 -113.5 37.5t-86 60.5t-54.5 79t-19 94q0 98 39 174t105.5 128t155 78.5t186.5 25.5q94 -1 169 -21.5t127.5 -55.5t80.5 -82.5t28 -101.5q0 -29 -9.5 -54.5t-27 -45.5t-42 -31.5t-55.5 -11.5q-58 0 -92.5 33 t-37.5 89q0 9 1.5 21.5t5 26t8.5 25.5t12 20q-24 24 -59 37t-87 12q-38 -1 -74 -17.5t-65 -47t-47.5 -75t-21.5 -101.5q-2 -40 8.5 -82.5t38.5 -77.5t76.5 -57.5t122.5 -22.5q14 0 68 2l-8 -144l-71 2q-72 2 -130.5 -18.5t-100.5 -59t-67 -92.5t-29 -119q-5 -75 16.5 -132.5 t61 -96.5t94 -59t114.5 -20q99 0 169.5 30.5t117.5 81t72.5 115.5t36.5 135h-1q-20 0 -46.5 -4t-58 -14.5t-66.5 -28t-71 -45.5l-68 73q44 65 82 106t79.5 64t90.5 31.5t115 8.5q32 0 64 2.5t64 12.5t65.5 29.5t68.5 53.5l79 -68q-26 -46 -51.5 -82.5t-56.5 -62.5t-70.5 -43 t-93.5 -24q-6 -55 -22 -114.5t-45.5 -116.5t-74 -108.5t-107 -90t-144.5 -61t-186 -22.5q-114 0 -212.5 24.5t-171.5 75.5t-115 128.5t-42 182.5z" />
<glyph unicode="'" horiz-adv-x="385" d="M136 1006l6 461h209l-43 -461h-172z" />
<glyph unicode="(" horiz-adv-x="607" d="M41 489q6 114 32 224t65.5 213.5t90 197t106 174t113 146.5t110.5 112l70 -71q-56 -70 -101 -158.5t-79 -183.5t-59 -192t-41.5 -184t-25 -159.5t-11.5 -118.5t-1.5 -116.5t9 -155.5t22.5 -179t40 -186.5t60.5 -179t84.5 -156.5l-78 -71q-48 47 -98.5 110.5t-98 141.5 t-88.5 169t-70 191.5t-43.5 209t-8.5 222.5z" />
<glyph unicode=")" horiz-adv-x="607" d="M-37 -484q56 70 101 158.5t79 183.5t59 192t41.5 184t25 159.5t11.5 118.5t1.5 116.5t-9 155.5t-22.5 179t-40 186.5t-60.5 179t-84.5 156.5l78 71q48 -47 98.5 -110.5t98 -141.5t88.5 -169t70 -191.5t43.5 -209t8.5 -222.5t-32 -224t-65.5 -213.5t-90 -197t-106 -174 t-113 -146.5t-110.5 -112z" />
<glyph unicode="*" horiz-adv-x="1048" d="M99 1102q0 30 9.5 50t24 32t31.5 17.5t32 5.5q25 0 54.5 -6t66.5 -22.5t83.5 -45t105.5 -73.5q-23 79 -31.5 136.5t-8.5 99.5q0 28 3.5 58.5t15 55.5t33.5 41t59 16q30 0 48.5 -11t29 -28.5t14 -40.5t3.5 -47q0 -44 -13.5 -111t-53.5 -169q61 43 108.5 71t85 44.5t67 23 t54.5 6.5q16 0 33.5 -5t31 -16.5t22.5 -30.5t9 -47q0 -23 -10.5 -41t-27.5 -31t-38 -22.5t-43 -16.5q-44 -14 -107 -22t-160 -8q75 -57 119 -99.5t67 -76.5q17 -24 28.5 -51t11.5 -53q0 -16 -8.5 -33.5t-22.5 -32.5t-33.5 -24.5t-40.5 -9.5q-34 0 -60 23.5t-46 53.5 q-23 36 -48.5 95t-48.5 150q-35 -92 -64.5 -148t-56.5 -91q-25 -31 -54.5 -56.5t-64.5 -25.5q-20 0 -37 8.5t-30.5 22t-21 30t-7.5 31.5q0 27 14.5 54t34.5 52q28 35 77.5 80.5t131.5 100.5q-98 0 -160 8.5t-103 22.5q-21 7 -40.5 16.5t-34.5 22t-24 29.5t-9 38z" />
<glyph unicode="+" horiz-adv-x="1037" d="M60 557l10 187l356 -2l19 370h195l-19 -370l363 -2l-10 -180l-363 -1l-20 -391h-195l20 390z" />
<glyph unicode="," horiz-adv-x="509" d="M56 127q1 30 13 58t32.5 49t48.5 34t61 13q47 1 81.5 -15.5t56.5 -45.5t31.5 -69t7.5 -86q-5 -99 -57 -214t-155 -233l-76 57q17 20 39.5 56.5t43 80.5t35.5 92.5t16 93.5q-15 -5 -24 -6t-20 -1q-27 0 -52.5 8t-44 24.5t-29 42t-8.5 61.5z" />
<glyph unicode="-" horiz-adv-x="968" d="M103 535l11 214h754l-11 -207z" />
<glyph unicode="." horiz-adv-x="478" d="M57 126q2 33 15.5 62.5t35.5 51.5t49.5 34.5t57.5 12.5q32 0 58.5 -12.5t45 -34.5t28 -51.5t7.5 -62.5t-13.5 -62t-31.5 -50.5t-47.5 -34t-60.5 -12.5q-34 0 -61 12.5t-46 34t-29 50.5t-8 62z" />
<glyph unicode="/" horiz-adv-x="1362" d="M-40 -450l1253 1997l173 -120l-1282 -1982z" />
<glyph unicode="0" horiz-adv-x="1279" d="M84 711q5 86 25.5 175.5t56.5 173.5t87.5 158t118 129.5t147.5 87.5t176 32q99 0 177 -31.5t136.5 -86t99 -127.5t64.5 -155.5t32.5 -171.5t4.5 -174q-5 -85 -24.5 -174t-55 -172.5t-85.5 -158t-115.5 -130t-146 -87.5t-175.5 -32q-104 0 -184.5 31.5t-140.5 85.5 t-100 126.5t-63 155.5t-31.5 171t-3.5 174zM388 606.5q0 -75.5 6.5 -147.5t21.5 -136t42.5 -112t68.5 -76t100 -28q73 0 122.5 46.5t81.5 125.5t48 182t22 216q5 83 5 163.5t-6.5 153t-21.5 133.5t-41 106t-64 70t-91 25q-74 0 -126 -47t-86.5 -126t-53 -183.5t-24.5 -218.5 q-4 -71 -4 -146.5z" />
<glyph unicode="1" horiz-adv-x="813" d="M35 1124l481 343h124l-59 -1131q-2 -28 -4 -55t-4 -51.5t-4.5 -44.5t-5.5 -33l154 6l-8 -158h-583l7 135q34 2 61.5 7t47.5 22t31.5 52t14.5 97l43 821l-230 -133z" />
<glyph unicode="2" horiz-adv-x="1070" d="M38 0q6 106 38 189.5t80.5 152t109 126t122.5 112.5q78 69 134.5 131t93 120t55 113.5t21.5 110.5q3 48 -4.5 96t-29 86t-59 61t-95.5 23q-55 0 -100.5 -25.5t-68.5 -60.5q20 -23 28.5 -55.5t6.5 -54.5q-2 -20 -10.5 -42.5t-26.5 -41.5t-45.5 -31.5t-65.5 -11.5 q-32 1 -55.5 13t-39 32t-22.5 47t-5 57q3 46 35 102t91 104.5t144 81t193 32.5q82 0 163.5 -20t144.5 -66t100.5 -119.5t31.5 -181.5q-3 -52 -24.5 -107.5t-74.5 -123.5t-145.5 -154t-237.5 -200q-118 -93 -175.5 -168t-69.5 -116l401 -11q34 -1 63 3.5t50 19t34 41t15 69.5 h130l-34 -333h-897z" />
<glyph unicode="3" horiz-adv-x="1119" d="M42 269q1 30 12.5 58t31 49t45.5 34t58 14q38 1 63 -11.5t39.5 -32.5t19.5 -43.5t4 -44.5q-1 -19 -10 -45.5t-27 -48.5q9 -19 28 -34t43 -25.5t52 -16t57 -5.5q64 0 113.5 20.5t84 57t53.5 86t22 107.5q3 52 -8.5 106t-43.5 97t-89.5 70t-145.5 25q-7 0 -21 -0.5 t-30 -1.5t-31 -2t-24 -2l7 147q17 -2 30 -2h30q67 0 121 19t92.5 52.5t60.5 80.5t26 104q4 53 -4 97t-29 76t-57 50t-88 18q-28 0 -54 -7.5t-47.5 -19.5t-38.5 -27t-26 -31q17 -23 23 -52t4 -49q-1 -18 -9.5 -41t-26 -43.5t-44.5 -34t-65 -12.5q-32 1 -55.5 13t-39 32 t-23 47t-5.5 57q3 45 32.5 100t85.5 102t138.5 79t190.5 32q95 0 176.5 -19t140 -62.5t89.5 -113t26 -169.5q-2 -40 -20.5 -88.5t-56.5 -94t-98 -83t-145 -55.5v-2q97 -17 166 -54t112.5 -87.5t62.5 -111.5t16 -126q-6 -105 -50 -186t-118.5 -136t-176 -83.5t-221.5 -28.5 q-116 0 -198.5 27t-134 70.5t-75 97t-20.5 107.5z" />
<glyph unicode="4" horiz-adv-x="1091" d="M-1 370l11 193l744 904h124l-48 -911l200 -1l-10 -185h-200l-1 -34q-2 -28 -4 -55t-4 -51.5t-4.5 -44.5t-5.5 -33l154 6l-8 -158h-579l7 135q34 2 61.5 7t47.5 22t31.5 52t14.5 97l3 57h-534zM199 561l344 -2l26 452h-2z" />
<glyph unicode="5" horiz-adv-x="1084" d="M60 247q1 30 12.5 58t30 49.5t44.5 35t58 14.5q39 1 64 -11.5t39.5 -32.5t20 -43.5t4.5 -44.5q-2 -17 -8 -40.5t-20 -43.5q6 -17 23.5 -31t39.5 -24t47 -15.5t46 -5.5q61 0 106 26t75.5 67t46 93t18.5 105q2 31 1.5 69t-7 77.5t-21 77t-41 66.5t-66.5 47t-97 18 q-44 0 -110 -16.5t-140 -58.5l-84 67l28 684h530q35 0 64 4.5t50 19t33.5 40.5t14.5 69h130l-33 -333l-644 -11l-19 -365q24 10 55 19t64.5 15.5t67.5 10.5t65 4q127 0 218.5 -37.5t149.5 -101t83.5 -147t21.5 -174.5q-6 -119 -56 -209t-127 -150t-173 -90.5t-196 -30.5 q-101 0 -178 25.5t-129.5 65.5t-78.5 90t-23 99z" />
<glyph unicode="6" horiz-adv-x="1146" d="M85 660q3 59 16 141.5t41 172.5t72.5 178t110 158t154 113.5t204.5 43.5q97 0 166 -25.5t113 -65.5t63.5 -89t16.5 -95q-1 -27 -11 -53.5t-27.5 -47t-42.5 -33t-56 -12.5q-38 0 -63.5 12.5t-40 32t-20 42t-4.5 43.5q1 17 8 43t25 46q-15 25 -50.5 43t-86.5 15 q-50 -3 -89 -27.5t-70 -64.5t-53 -92t-38 -109t-25.5 -117t-13.5 -115q17 19 47 39t66.5 36.5t77 27.5t78.5 12q113 3 193 -31t129 -97t69.5 -151.5t14.5 -193.5q-5 -97 -46.5 -183t-111 -150.5t-163 -102t-202.5 -37.5q-137 0 -228 48.5t-143.5 139t-70.5 218.5t-9 287z M373.5 511q1.5 -56 8 -112t19.5 -108t34 -92t50.5 -64t69.5 -24q54 0 90 23.5t59 62.5t33.5 89t13.5 103q2 31 2 69.5t-4 78.5t-14 78.5t-29 68.5t-48.5 48t-71.5 18q-33 0 -64 -10.5t-59 -29t-50.5 -43t-37.5 -52.5q-3 -48 -1.5 -104z" />
<glyph unicode="7" horiz-adv-x="942" d="M51 1085l34 349h872l-10 -186q-51 -94 -93 -184t-77.5 -179t-66.5 -178.5t-60.5 -183t-59 -193t-62.5 -208.5q-9 -28 -21.5 -56t-30.5 -50t-43 -35.5t-59 -13.5q-31 0 -52.5 9.5t-35 25t-19.5 36t-6 42.5q0 17 3 35.5t11.5 45.5t24.5 66.5t42.5 97.5t64 138.5t90 189.5 t121 250.5t156.5 322.5l-431 5q-35 0 -64 -6.5t-50 -23t-33.5 -45t-14.5 -71.5h-130z" />
<glyph unicode="8" horiz-adv-x="1151" d="M89 300q0 63 24.5 122t65 111.5t93 96t108.5 75.5v2q-63 41 -106.5 86.5t-70.5 92t-39 91.5t-12 86q0 69 21.5 126t57.5 101.5t84.5 78t102.5 55t110 32.5t109 11q77 0 150 -22t129.5 -64t91 -104t34.5 -158q-3 -53 -27.5 -103t-62 -93.5t-83 -79.5t-89.5 -61v-2 q145 -92 213.5 -193.5t68.5 -213.5q0 -106 -44 -182.5t-117.5 -126t-168.5 -73.5t-197 -24q-47 0 -98 7.5t-100.5 23.5t-94.5 42t-79 63t-54 86t-20 111zM339 317q0 -45 15.5 -82.5t43.5 -65t67 -43t86 -15.5q48 0 87 15.5t66.5 42.5t43.5 63t18 77q0 48 -12.5 88t-41.5 80 t-76.5 79.5t-118.5 75.5q-49 -36 -83 -79.5t-55 -87t-30.5 -82.5t-9.5 -66zM440 1133q0 -47 16.5 -86t45.5 -73.5t67 -63t82 -46.5q40 29 71.5 64t53 71.5t33 72t11.5 65.5q0 45 -13.5 80t-37.5 58.5t-56 35.5t-68 12q-45 0 -81.5 -15.5t-63.5 -41.5t-42.5 -60.5 t-17.5 -72.5z" />
<glyph unicode="9" horiz-adv-x="1148" d="M102 958q0 111 37 204t104.5 161t162 106t210.5 38q126 0 214 -45t143 -125t79.5 -191.5t24.5 -244.5q0 -53 -4 -119t-15.5 -139t-31 -148.5t-51 -146t-76 -132.5t-105 -108.5t-139 -73.5t-177.5 -27q-94 0 -162 20.5t-112 56t-65 84t-21 104.5q1 30 12 58t29.5 50 t44.5 35t57 13q36 0 59.5 -11.5t38 -29t20 -39t5.5 -41.5q0 -27 -7 -49.5t-26 -46.5q14 -23 46 -40.5t78 -17.5q78 0 134.5 44.5t93.5 118t55.5 167.5t19.5 193q-19 -21 -50 -41.5t-69.5 -37t-80 -26.5t-81.5 -10q-104 0 -178.5 32.5t-122.5 90.5t-71 138t-23 176zM409 982 q0 -48 6.5 -100.5t25 -96.5t51.5 -72.5t87 -28.5q33 0 64 10.5t58 29t49 43t37 52.5q3 54 3 107q0 82 -9.5 154t-31 126t-56.5 85.5t-86 31.5q-56 0 -93.5 -31t-61 -79.5t-33.5 -109.5t-10 -121z" />
<glyph unicode=":" horiz-adv-x="536" d="M102 126q2 33 15.5 62.5t35.5 51.5t49.5 34.5t57.5 12.5q32 0 58.5 -12.5t45 -34.5t28 -51.5t7.5 -62.5t-13.5 -62t-31.5 -50.5t-47.5 -34t-60.5 -12.5q-34 0 -61 12.5t-46 34t-29 50.5t-8 62zM122 951q2 33 15.5 62.5t35.5 51.5t49.5 34.5t57.5 12.5q32 0 58.5 -12.5 t45 -34.5t28 -51.5t7.5 -62.5t-13.5 -62t-31.5 -50.5t-47.5 -34t-60.5 -12.5q-34 0 -61 12.5t-46 34t-29 50.5t-8 62z" />
<glyph unicode=";" horiz-adv-x="553" d="M92 127q1 30 13 58t32.5 49t48.5 34t61 13q47 1 81.5 -15.5t56.5 -45.5t31.5 -69t7.5 -86q-5 -99 -57 -214t-155 -233l-76 57q17 20 39.5 56.5t43 80.5t35.5 92.5t16 93.5q-15 -5 -24 -6t-20 -1q-27 0 -52.5 8t-44 24.5t-29 42t-8.5 61.5zM130 951q2 33 15.5 62.5 t35.5 51.5t49.5 34.5t57.5 12.5q32 0 58.5 -12.5t45 -34.5t28 -51.5t7.5 -62.5t-13.5 -62t-31.5 -50.5t-47.5 -34t-60.5 -12.5q-34 0 -61 12.5t-46 34t-29 50.5t-8 62z" />
<glyph unicode="&#x3c;" horiz-adv-x="1093" d="M56 547l10 186l944 409l-12 -211l-671 -285v-2l642 -285l-12 -213z" />
<glyph unicode="=" horiz-adv-x="1169" d="M109 349l11 192l921 -4l-9 -184zM129 735l11 191l921 -3l-9 -185z" />
<glyph unicode="&#x3e;" horiz-adv-x="1092" d="M87 146l12 211l671 285v2l-642 285l12 213l901 -401l-10 -186z" />
<glyph unicode="?" horiz-adv-x="993" d="M93 1163q3 55 38 109t94.5 97.5t139 70.5t171.5 27q122 0 203.5 -28t130.5 -74t68 -104.5t16 -119.5q-4 -72 -38.5 -133t-84.5 -113.5t-108 -97t-107 -83.5t-82.5 -73.5t-35.5 -67.5q-1 -17 7 -30.5t25 -21.5t44 -8.5t65 8.5l27 -105q-27 -14 -55 -22.5t-55 -13.5 t-51.5 -7t-43.5 -2q-33 0 -64.5 7.5t-55.5 24.5t-38 44t-12 66q1 25 9 48t27.5 51t54 64.5t89.5 87.5q38 36 70.5 71t57.5 74.5t40.5 85.5t18.5 105q2 48 -4.5 89t-26 71t-53 47t-85.5 17q-25 0 -49.5 -6t-45.5 -15.5t-37.5 -21t-26.5 -23.5q10 -11 16.5 -25.5t10.5 -30 t5.5 -30.5t0.5 -25q-2 -21 -12.5 -44.5t-29 -43t-45 -32t-62.5 -10.5q-63 3 -93.5 44t-27.5 102zM322 126q1 33 15 62.5t35.5 51.5t49 34.5t57.5 12.5q32 0 58.5 -12.5t45 -34.5t28 -51.5t8.5 -62.5q-2 -33 -16 -62t-36 -50.5t-50 -34t-57 -12.5q-30 0 -56 12.5t-45 34 t-29 50.5t-8 62z" />
<glyph unicode="@" horiz-adv-x="1570" d="M64 525q5 87 32 178.5t74.5 178t116 163.5t156 134.5t193.5 91t229 33.5q112 0 204.5 -27t165.5 -75t126 -113t86 -141t46.5 -159.5t6.5 -167.5t-30 -152.5t-57.5 -122t-78 -92.5t-90 -64t-94 -36t-89.5 -8q-37 2 -73 14t-62 41.5t-38.5 79.5t-1.5 129 q-31 -69 -65.5 -117.5t-70.5 -79t-71.5 -44t-68.5 -13.5q-43 0 -80.5 17t-65 53t-41.5 92t-10 135q5 100 40 196.5t97.5 173t152 123.5t204.5 47q45 0 107 -10.5t130 -32.5q-9 -46 -19 -100t-20.5 -110t-20 -112t-17.5 -105.5t-13.5 -90.5t-6.5 -67q-1 -23 1 -44.5t10 -38.5 t23.5 -27.5t40.5 -10.5q40 0 73 19.5t58.5 51.5t44 73.5t31.5 85t19.5 86.5t8.5 79q7 140 -28.5 247.5t-104.5 181t-165.5 111t-209.5 37.5q-88 0 -167 -26t-147.5 -72t-124 -110t-96.5 -139t-65 -159.5t-28 -172.5q-8 -155 35.5 -274.5t124.5 -200.5t192 -123t237 -42 q62 0 129.5 13.5t133.5 40t128.5 67t114.5 94.5l43 -55q-121 -128 -270 -192t-310 -68q-125 -3 -228 23t-184 74t-140.5 116t-97 150t-54 174.5t-11.5 190.5zM611 446q-4 -72 13 -110.5t49 -38.5q26 0 54 27.5t54.5 73.5t51.5 105.5t45 125t34 131.5t20 124q-13 5 -35 7 t-40 0q-53 -5 -97 -48t-75.5 -107.5t-50.5 -141.5t-23 -148z" />
<glyph unicode="A" d="M-24 0l7 141q42 0 73 19.5t54.5 51.5t42.5 74.5t39 88.5l457 1095h137l379 -1116q5 -15 12.5 -40t14.5 -53.5t12.5 -57t7.5 -51.5l118 6l-8 -158h-547l7 135q43 0 66.5 13.5t32 38t4.5 57.5t-16 72l-36 112l-449 -8l-38 -96q-6 -14 -14.5 -35t-18.5 -44.5t-20.5 -46 t-19.5 -40.5l150 6l-9 -164h-438zM444 573h345l-80 257q-23 74 -40 148t-24 131h-2q-8 -35 -32 -104t-62 -166z" />
<glyph unicode="B" horiz-adv-x="1349" d="M72 0l7 135q34 2 61.5 7t47.5 22t31.5 52t14.5 97l41 785q1 28 3.5 55t4.5 51.5t4.5 44.5t5.5 33q-17 -1 -39 -2l-44 -2t-41 -1.5t-30 -0.5l8 158l563 4h10q117 0 210 -22q97 -23 162 -70q66 -48 96 -118q23 -53 23 -119q0 -22 -2 -45q-5 -44 -26 -87.5t-58.5 -81.5 t-92 -69t-127.5 -50v-2q101 -16 173 -51.5t117.5 -84t65.5 -108.5q17 -52 18 -106q0 -8 -1 -17q-5 -100 -45.5 -176t-109 -127.5t-160 -77.5t-199.5 -26h-692zM508 145q54 0 103 0.5t98 2.5q62 3 108 23.5t76.5 55.5t47 82.5t19.5 104.5q1 11 1 22q1 56 -17 96 q-20 48 -56 76.5t-83 40.5t-96 12h-88.5t-77.5 -2l-17 -333q-2 -28 -4 -54.5t-4 -50.5t-4.5 -43.5t-5.5 -32.5zM551 804l107 3q65 1 110 23t74 59.5t43 87t17 105.5v18q0 49 -14 84q-17 41 -46.5 66t-67.5 35q-35 9 -70 9h-7q-26 -1 -48 -6t-39 -22t-28 -51t-14 -93z" />
<glyph unicode="C" horiz-adv-x="1414" d="M78 696q5 93 30 186.5t69.5 179t108 159.5t146 129t183.5 86t220 31q40 0 84.5 -6.5t89.5 -19.5t89 -31.5t84 -43.5h2l-3 87h158l-25 -479h-134q-19 173 -100.5 263t-225.5 91q-107 0 -189.5 -50.5t-140 -133.5t-89 -189t-37.5 -217q-2 -31 -1 -61q0 -99 17 -185 q23 -112 74.5 -194t130 -128.5t182.5 -47.5q61 0 126 14t129.5 45t125 79t112.5 116l81 -81q-80 -104 -165.5 -168t-168 -99.5t-159.5 -48t-140 -12.5q-158 0 -284.5 56.5t-213.5 154.5q-86 99 -130 232q-37 112 -37 239q0 23 1 47z" />
<glyph unicode="D" horiz-adv-x="1546" d="M72 0l7 135q34 2 61.5 7t47.5 22t31.5 52t14.5 97l41 785q1 28 3.5 55t4.5 51.5t4.5 44.5t5.5 33q-17 -1 -39 -2l-44 -2t-41 -1.5t-30 -0.5l8 158l592 2q135 0 243.5 -28t192.5 -78t144 -118t97 -146q36 -78 52 -164q12 -68 13 -136q0 -17 -1 -35q-4 -83 -27 -169.5 t-67 -168t-110.5 -153t-156.5 -125t-206 -84.5t-259 -31h-582zM509 152q15 1 40.5 1t54 -1t56 -1.5t45.5 -0.5q112 0 195 45.5t139 121t86 172.5t35 199q2 36 2 70q0 113 -20 201q-26 114 -83 188.5t-141 111.5t-190 40h-12q-30 0 -54 -4q-28 -5 -48.5 -23t-31.5 -53 t-14 -94l-42 -789q-1 -28 -3 -55t-4 -51.5t-4.5 -44.5t-5.5 -33z" />
<glyph unicode="E" horiz-adv-x="1276" d="M72 0l7 135q34 2 61.5 7t47.5 22t31.5 52t14.5 97l41 785q1 28 3.5 55t4.5 51.5t4.5 44.5t5.5 33l-154 -6l8 158h1020l-9 -397h-135q1 14 1 26q0 65 -18 109q-20 52 -54 81t-78 39q-40 9 -78 9h-8l-74 -2q-32 -1 -58 -6.5t-44.5 -23.5t-29.5 -53t-14 -95l-16 -307h241 v177h158l-26 -498h-135q1 11 1 22q0 49 -12 79q-14 37 -40 55q-27 17 -63 21q-28 3 -60 3h-18l-54 -1l-17 -336q-2 -28 -4 -54.5t-4 -50.5t-4.5 -43.5t-5.5 -32.5l275 1q45 0 90.5 15t83 49.5t62 91t29.5 139.5h135l-36 -451h-1076z" />
<glyph unicode="F" horiz-adv-x="1159" d="M72 0l7 135q34 2 61.5 7t47.5 22t31.5 52t14.5 97l41 785q1 28 3.5 55t4.5 51.5t4.5 44.5t5.5 33l-154 -6l8 158h1020l-9 -397h-135q1 14 1 26q0 65 -18 109q-20 52 -54 81t-78 39q-40 9 -78 9h-8l-74 -2q-32 -1 -58 -6.5t-44.5 -23.5t-29.5 -53t-14 -95l-19 -357h212 v177h158l-26 -498h-135q1 12 1 22q1 48 -11 79q-14 37 -40 55q-27 17 -63 21q-28 3 -60 3h-18l-25 -1l-15 -286q-2 -28 -4 -55t-4 -51.5t-4.5 -44.5t-5.5 -33l182 6l-8 -158h-611z" />
<glyph unicode="G" horiz-adv-x="1548" d="M79 696q5 93 29.5 186.5t68.5 179t107 159.5t145 129t183 86t220 31q40 0 90 -6.5t102 -19.5t101.5 -31.5t89.5 -43.5h2l-3 87h158l-25 -479h-134q-9 86 -40 150.5t-78.5 107t-109.5 64.5t-134 22q-107 0 -189 -49t-139 -130t-88 -185.5t-37 -215.5q-2 -32 -2 -62 q0 -97 18 -182q22 -112 72.5 -193t128.5 -126t183 -45q30 0 69 3.5t80.5 10t80.5 17t68 24.5l10 190q1 28 3 55t4 51.5t4.5 44.5t5.5 33l-154 -6l8 158h539l-7 -135q-35 -2 -60.5 -8t-43.5 -24.5t-28 -53t-13 -92.5l-17 -329h-50q-59 0 -118.5 -16t-125.5 -35t-143 -35 t-171 -16q-167 0 -294 56.5t-211 155t-124 231.5q-32 111 -32 235q0 25 1 51z" />
<glyph unicode="H" horiz-adv-x="1642" d="M72 0l7 135q34 2 61.5 7t47.5 22t31.5 52t14.5 97l41 785q1 28 3.5 55t4.5 51.5t4.5 44.5t5.5 33l-154 -6l8 158h583l-7 -135q-35 -2 -62 -7t-47 -22t-31.5 -52t-14.5 -97l-17 -321h564l15 298q1 28 3.5 55t4.5 51.5t4.5 44.5t5.5 33l-154 -6l8 158h583l-7 -135 q-35 -2 -62 -7t-47 -22t-31.5 -52t-14.5 -97l-41 -785q-2 -28 -4 -55t-4 -51.5t-4.5 -44.5t-5.5 -33l154 6l-8 -158h-583l7 135q34 2 61.5 7t47.5 22t31.5 52t14.5 97l18 332l-565 -7l-15 -302q-2 -28 -4 -55t-4 -51.5t-4.5 -44.5t-5.5 -33l154 6l-8 -158h-583z" />
<glyph unicode="I" horiz-adv-x="787" d="M72 0l7 135q34 2 61.5 7t47.5 22t31.5 52t14.5 97l41 785q1 28 3.5 55t4.5 51.5t4.5 44.5t5.5 33l-154 -6l8 158h583l-7 -135q-35 -2 -62 -7t-47 -22t-31.5 -52t-14.5 -97l-41 -785q-2 -28 -4 -55t-4 -51.5t-4.5 -44.5t-5.5 -33l154 6l-8 -158h-583z" />
<glyph unicode="J" horiz-adv-x="911" d="M-23 186q1 33 12 63t29.5 53.5t45.5 38t62 16.5h12q31 0 54 -9q26 -11 43 -30t24.5 -43.5t7.5 -50.5q-2 -38 -22 -76q8 -20 28.5 -27t31.5 -7q44 0 69 38t30 125l43 821q1 28 3.5 55t4.5 51.5t4.5 44.5t5.5 33l-164 -6l8 158h593l-7 -135q-35 -2 -62 -7t-47 -22 t-31.5 -52t-14.5 -97l-32 -600q-8 -148 -40.5 -253t-89.5 -172t-137.5 -98t-183.5 -31q-60 0 -112.5 16.5t-90.5 45.5t-59 69q-18 35 -18 76v12z" />
<glyph unicode="K" horiz-adv-x="1456" d="M72 0l7 135q34 2 61.5 7t47.5 22t31.5 52t14.5 97l41 785q1 28 3.5 55t4.5 51.5t4.5 44.5t5.5 33l-154 -6l8 158h583l-7 -135q-35 -2 -62 -7t-47 -22t-31.5 -52t-14.5 -97l-17 -312h149q232 363 252 391t38 49.5t32 32.5v2l-130 -8l8 158h501l-7 -135q-35 -2 -73 -9.5 t-79.5 -29t-85.5 -62.5t-90 -109l-212 -314l-1 -3q40 -25 70 -54.5t52 -63.5l193 -297q29 -44 60 -83.5t63 -69.5t65.5 -48.5t68.5 -20.5l-7 -135h-313q-12 1 -36 22t-51.5 52.5t-55 67.5t-46.5 66l-187 295q-13 19 -27.5 40t-28.5 40.5t-28.5 36t-27.5 26.5l-74 -1 l-16 -309q-2 -28 -4 -55t-4 -51.5t-4.5 -44.5t-5.5 -33l154 6l-8 -158h-583z" />
<glyph unicode="L" horiz-adv-x="1241" d="M72 0l7 135q34 2 61.5 7t47.5 22t31.5 52t14.5 97l41 785q1 28 3.5 55t4.5 51.5t4.5 44.5t5.5 33l-154 -6l8 158h583l-7 -135q-35 -2 -62 -7t-47 -22t-31.5 -52t-14.5 -97l-41 -785q-2 -28 -4 -54.5t-4 -50.5t-4.5 -43.5t-5.5 -32.5l275 1q121 1 194.5 84.5t82.5 250.5 h136l-38 -491h-1087z" />
<glyph unicode="M" horiz-adv-x="1986" d="M65 0l8 135q34 2 61 7t46.5 22t31 52t16.5 97l53 785q2 28 4 55t4.5 51.5t5 44.5t5.5 33l-156 -6l9 158h439l281 -796q34 -95 55.5 -175.5t41.5 -154.5h2q30 71 58 142t56 137l353 847h477l-7 -135q-35 -2 -63.5 -7t-48.5 -22t-31.5 -52t-12.5 -97l-10 -785q0 -28 -2 -55 t-4.5 -51.5t-5.5 -44.5t-6 -33l155 6l-9 -158h-573l8 135q34 2 62.5 7t48.5 22t31.5 52t12.5 97l6 434q0 18 0.5 59.5t0.5 93.5t0.5 107.5t0.5 102.5h-2l-469 -1130h-185l-250 674q-11 28 -26.5 78t-32.5 110t-33.5 126t-27.5 128h-2q-4 -105 -6.5 -201t-8.5 -189l-22 -370 q-2 -28 -4 -55t-4.5 -51.5t-5 -44.5t-5.5 -33l156 6l-9 -158h-467z" />
<glyph unicode="N" horiz-adv-x="1581" d="M74 0l8 135q34 2 61.5 7t47 22t31.5 52t15 97l36 785q1 28 3.5 55t4.5 51.5t4.5 44.5t5.5 33l-155 -6l9 158h321q633 -860 663.5 -907.5t53.5 -82.5h2l34 654q1 28 3.5 55t4.5 51.5t4.5 44.5t5.5 33l-155 -6l9 158h466l-7 -135q-35 -2 -62.5 -7t-47 -22t-31.5 -52 t-15 -97l-60 -1141h-174l-611 842q-24 34 -51 72.5t-53 80.5h-2l-30 -639q-2 -28 -4 -55t-4 -51.5t-4.5 -44.5t-5.5 -33l155 6l-9 -158h-467z" />
<glyph unicode="O" horiz-adv-x="1560" d="M81 717q4 86 27.5 175t67 172t105.5 156.5t144.5 128.5t184 86.5t222.5 31.5q124 0 223 -32t174 -87t127.5 -128.5t85 -156.5t44.5 -172q9 -67 10 -133q0 -21 -1 -41q-4 -85 -28 -173.5t-66.5 -171.5t-104.5 -157t-144 -129t-183 -87t-222 -32q-130 0 -231 31 t-176.5 84.5t-127 126t-82.5 155.5q-30 84 -42 174q-8 63 -9 125q0 27 2 54zM397 741q-2 -27 -2 -55q-1 -39 3 -81q6 -72 22 -142.5t45 -135t72 -114t102 -78.5q57 -28 132 -28h5q71 0 127.5 25.5t100 68.5t75.5 100t53.5 121t33 130.5t14.5 129.5q2 38 2 74q0 99 -14 186 q-19 119 -65.5 205.5t-122.5 134.5q-72 45 -171 45h-12q-70 -2 -126 -28.5t-99.5 -70.5t-75 -102t-52.5 -122.5t-32.5 -132t-14.5 -130.5z" />
<glyph unicode="P" horiz-adv-x="1295" d="M72 0l7 135q34 2 61.5 7t47.5 22t31.5 52t14.5 97l41 785q1 28 3.5 55t4.5 51.5t4.5 44.5t5.5 33l-154 -6l8 158l578 4h10q129 0 233 -26q108 -27 181 -83.5t109 -144.5q28 -69 28 -160q0 -25 -2 -51q-7 -82 -47 -161.5t-114 -143.5t-183.5 -104.5t-254.5 -44.5 q-47 -2 -80 -2t-69 1l-10 -181q-1 -28 -3 -55.5t-4 -52t-4.5 -44.5t-5.5 -33l174 6l-8 -158h-603zM544 671q22 -2 45 -4t47 -2q169 0 249.5 85t88.5 242q1 17 1 33q0 79 -21 129q-25 60 -65.5 91t-87.5 40t-86 9q-33 0 -58.5 -5t-44.5 -22t-30 -49t-14 -86z" />
<glyph unicode="Q" horiz-adv-x="1564" d="M80 717q4 86 28 175t67.5 172t106 156.5t144.5 128.5t184 86.5t223 31.5q124 0 223 -32t174.5 -87t128.5 -128.5t86 -156.5t45 -172q10 -67 10 -133q0 -20 -1 -41q-5 -102 -38.5 -208.5t-95 -202t-151.5 -173t-208 -120.5v-2q44 0 79.5 -4t68.5 -16.5t66 -35t71 -59.5 q45 -44 77.5 -76.5t56 -55.5t41 -37t33.5 -22t33 -11t39 -3l-8 -137h-85q-71 0 -118.5 3t-84.5 14t-69.5 33.5t-74.5 60.5q-62 57 -109 111.5t-91.5 97t-92 68t-110.5 25.5q-126 0 -224.5 31t-172 85t-123.5 127t-80 156t-42 173q-8 63 -8 124q0 27 2 54zM398 741 q-2 -27 -2 -55q0 -39 4 -80q5 -72 21 -141.5t45 -133t72 -111.5t102 -76q57 -28 132 -28h5q71 0 127.5 25t100 67t75 97.5t53 118.5t33 129t14.5 129q2 39 2 76q0 97 -14 182q-18 118 -64.5 202.5t-122.5 131.5q-71 43 -170 43h-13q-70 -2 -126.5 -27.5t-100 -68.5 t-74.5 -99.5t-52 -120t-32.5 -130.5t-14.5 -130z" />
<glyph unicode="R" horiz-adv-x="1394" d="M72 0l7 135q34 2 61.5 7t47.5 22t31.5 52t14.5 97l41 785q1 28 3.5 55t4.5 51.5t4.5 44.5t5.5 33l-154 -6l8 158l578 4h11q128 0 231 -22q107 -23 180 -75.5t109 -136.5q28 -66 28 -155q0 -25 -3 -52q-5 -65 -31 -125.5t-73.5 -112t-116 -92t-159.5 -65.5v-2 q38 -15 73.5 -50.5t61.5 -77.5l88 -145q31 -52 56.5 -87.5t50 -58t51 -33.5t61.5 -13l-7 -135h-332q-35 26 -69.5 76.5t-71.5 116.5l-137 245q-24 42 -43.5 70t-36.5 50q-33 -1 -55.5 -1t-52.5 1l-12 -221q-1 -28 -3 -55.5t-4 -52t-4.5 -44.5t-5.5 -33l174 6l-8 -158h-603z M546 712q24 -3 49 -5t51 -2q85 0 146 18.5t101 57t61 96.5t25 136q1 13 1 26q0 51 -10 87q-12 46 -34.5 77t-52 49t-60 27.5t-59 12t-49.5 2.5q-33 0 -58.5 -5t-44.5 -22t-30 -49t-14 -86z" />
<glyph unicode="S" horiz-adv-x="1229" d="M90 -19l25 479h134q9 -86 40 -150.5t78.5 -108t109 -65t133.5 -21.5q55 0 101 15t80 41.5t54 61.5t22 75v10q-1 47 -25 83q-28 39 -73.5 69.5t-102.5 55t-114 47.5q-97 40 -179.5 85.5t-141.5 105t-90 135.5q-27 65 -27 149q0 14 1 28q2 42 15 87.5t38 89t64 82.5 t94 68.5t126.5 46.5t162.5 17q40 0 85.5 -6t91 -18.5t87 -31t74.5 -42.5h2l-3 84h158l-25 -479h-134q-19 173 -106 260q-85 85 -225 85h-6q-44 0 -84.5 -13.5t-72 -36.5t-51 -55.5t-21.5 -70.5q0 -7 -1 -14q0 -41 16 -73q18 -38 57.5 -71.5t100 -65t143.5 -65.5 q50 -21 103.5 -45.5t104 -55t95 -67.5t76.5 -82q32 -46 50 -102q14 -45 14 -97v-25q-5 -91 -46.5 -167t-113.5 -130.5t-170.5 -85t-217.5 -30.5q-40 0 -84.5 6.5t-90 19t-90 31.5t-84.5 44h-2l3 -87h-158z" />
<glyph unicode="T" horiz-adv-x="1328" d="M59 970l36 464h1236l-12 -464h-135q1 18 1 35q1 61 -11 110q-14 62 -45.5 102.5t-77 60t-103.5 19.5l-98 -1l-50 -960q-2 -28 -4 -55t-4 -51.5t-4.5 -44.5t-5.5 -33l164 6l-8 -158h-593l7 135q34 2 61.5 7t47.5 22t31.5 52t14.5 97l52 981h-95q-58 0 -106 -19.5 t-83 -59.5t-56 -101t-25 -144h-135z" />
<glyph unicode="U" horiz-adv-x="1547" d="M89 1276l8 158h584l-7 -135q-35 -2 -62 -7t-47 -22t-31.5 -52t-14.5 -97l-30 -563q-2 -30 -2 -57q1 -91 19 -155q24 -83 66.5 -132t100 -69t119.5 -22h18q74 1 134 23q68 26 117 80t78 138t35 197l28 537q1 28 3.5 55t4.5 51.5t4.5 44.5t5.5 33l-154 -6l8 158h474 l-7 -135q-35 -2 -62 -7t-47 -22t-31.5 -52t-14.5 -97l-27 -513q-9 -177 -59 -299t-131 -198t-187.5 -110t-229.5 -34q-115 0 -202.5 22.5t-150.5 64t-103.5 99.5t-63.5 129q-22 70 -30 151q-4 49 -5 100q0 34 2 69l26 496q1 28 3.5 55t4.5 51.5t4.5 44.5t5.5 33z" />
<glyph unicode="V" horiz-adv-x="1438" d="M52 1276l8 158h596l-7 -135h-9q-34 -1 -60 -7q-30 -8 -48 -26t-22 -49q-1 -6 -1 -12q0 -27 13 -64l165 -464q40 -116 51.5 -151t22.5 -70t25 -74h2q13 30 27.5 65.5t29 72.5t29.5 74.5l29 72.5l178 429q7 17 17 42t22.5 52t26 51.5t27.5 40.5l1 2l-158 -8l8 158h461 l-7 -135q-35 -2 -65.5 -14.5t-58 -38t-53.5 -66.5t-51 -100l-466 -1092h-160l-416 1099q-9 25 -18 52.5t-16 54t-11 49t-3 39.5z" />
<glyph unicode="W" horiz-adv-x="2068" d="M59 1276l8 158h598l-7 -135h-10q-32 1 -57 -5q-29 -6 -47 -24t-22 -48q-1 -9 -1 -19q0 -25 8 -58q120 -565 126.5 -598.5t13 -72t13.5 -87.5h2q5 19 16 53t24.5 75.5t28.5 87t28.5 85.5t24.5 71.5t239 674.5h183q211 -826 224.5 -899.5t26.5 -150.5h2q22 68 46 138 t184 574q8 24 17.5 50t21 51t25 46.5t29.5 38.5l1 2l-158 -8l8 158h461l-7 -135q-35 -2 -66.5 -14t-60 -37.5t-54 -66.5t-47.5 -101l-392 -1092h-179l-205 733q-23 81 -35 156.5t-23 145.5h-2q-15 -70 -32.5 -134t-315.5 -901h-173l-292 1046q-51 157 -64 248 q-67 -5 -109 -6z" />
<glyph unicode="X" horiz-adv-x="1434" d="M44 0l7 135q58 13 121.5 65.5t143.5 153.5l255 318l-308 417q-32 44 -62.5 92.5t-50.5 100.5l-83 -6l8 158h619l-7 -135q-56 0 -86 -11t-39.5 -30t-0.5 -44.5t30 -54.5l168 -232h2q190 245 207.5 266t32 36.5t27.5 28t27 24.5v2l-153 -8l8 158h466l-7 -135 q-36 -5 -71 -21t-72 -44t-76 -69.5t-83 -97.5l-211 -269l360 -491q32 -44 60 -82t43 -73l79 6l-8 -158h-607l7 135q56 0 83 11t32.5 30t-6.5 44.5t-34 54.5l-194 264h-2l-192 -248q-23 -29 -40 -50t-30.5 -36.5t-25 -28t-24.5 -24.5v-2l146 8l-8 -158h-451z" />
<glyph unicode="Y" horiz-adv-x="1361" d="M48 1276l8 158h598l-7 -135q-12 1 -23 1q-31 0 -56 -6q-34 -9 -52 -29q-20 -21 -20 -52t22 -72l143 -257q9 -16 20.5 -38t25.5 -50.5t27 -57.5t20 -51h3q11 23 37.5 72.5t68.5 127.5q155 275 171.5 302t33 52t30.5 41v2l-157 -8l8 158h452l-7 -135q-36 -6 -66 -20 t-58.5 -39.5t-57 -65t-61.5 -94.5l-294 -512l-12 -232q-2 -28 -4 -55t-4 -51.5t-4.5 -44.5t-5.5 -33l164 6l-8 -158h-593l7 135q34 2 61.5 7t47.5 22t31.5 52t14.5 97l10 179l-347 595q-14 24 -26.5 51t-22 53.5t-15 50t-4.5 40.5z" />
<glyph unicode="Z" horiz-adv-x="1234" d="M52 0l8 154l662 934q41 58 76.5 105.5t76.5 95.5l1 2l-351 9h-7q-52 0 -98 -14q-48 -16 -84.5 -52.5t-59 -95t-26.5 -141.5h-135l35 437h1037l-8 -154l-637 -892q-46 -65 -93 -126.5t-95 -115.5l-1 -2l374 -8h7q52 0 98 15q48 16 84.5 52t58.5 94t27 141h135l-35 -438 h-1050z" />
<glyph unicode="[" horiz-adv-x="795" d="M66 -522l111 2068h655l-8 -145l-395 -6l-102 -1766l408 -6l-8 -145h-661z" />
<glyph unicode="\" horiz-adv-x="1623" d="M90 1427l173 120l1253 -1998l-146 -104z" />
<glyph unicode="]" horiz-adv-x="795" d="M-52 -522l8 145l395 6l102 1766l-408 6l8 145h661l-111 -2068h-655z" />
<glyph unicode="^" horiz-adv-x="1695" d="M111 904l631 563h182l627 -573h-275l-451 428h-2l-450 -418h-262z" />
<glyph unicode="_" horiz-adv-x="1711" d="M167 -102l1259 -9v-199h-1259v208z" />
<glyph unicode="`" horiz-adv-x="567" d="M93.5 1474q-3.5 27 5 53.5t33.5 48.5q25 20 51.5 24.5t51 -3t45.5 -26t36 -44.5l159 -286l-99 -83l-232 219q-19 19 -33 44.5t-17.5 52.5z" />
<glyph unicode="a" horiz-adv-x="1125" d="M52 351q0 140 41 266t120 221.5t194 152t262 56.5q58 0 134 -11.5t161 -32.5q-7 -51 -17 -119t-20.5 -142.5t-20.5 -151t-18 -145.5t-13 -126t-5 -92q0 -37 9.5 -48.5t20.5 -11.5q12 0 24.5 8t26 27t27 50.5t26.5 77.5l111 -33q-9 -44 -29.5 -99.5t-55 -104.5t-84 -82.5 t-116.5 -33.5q-33 0 -63 8.5t-52.5 30t-36 57.5t-13.5 90q0 27 2 60.5t6 59.5h-2q-38 -89 -79 -148t-85.5 -94t-90.5 -49.5t-93 -14.5q-56 0 -105.5 22.5t-86 69t-58 117t-21.5 165.5zM331 339q0 -84 21 -132t57 -48q38 0 71 33.5t61.5 90t52 131t40.5 157t28.5 167 t15.5 161.5q-11 4 -36 8t-49 4q-58 0 -106 -36.5t-82.5 -108.5t-54 -179t-19.5 -248z" />
<glyph unicode="b" horiz-adv-x="1050" d="M30 1330l8 155q71 0 124.5 6t91.5 15t61.5 19.5t34.5 20.5h111q-6 -44 -12.5 -103.5t-12.5 -119t-17 -173t-15.5 -159.5t-10.5 -95.5t-13 -91.5h2q35 67 75 113.5t80 75.5t78.5 41.5t71.5 12.5q77 0 132 -32.5t90.5 -86.5t52 -125t16.5 -148q0 -138 -30 -261t-96 -216 t-171.5 -147t-256.5 -54q-24 0 -63.5 3t-85 9.5t-92.5 17t-87 25.5q31 644 36.5 731.5t11 181.5t10.5 180t10 137t8 74zM352 131q8 -4 21 -7.5t27.5 -5.5t28.5 -3.5t24 -1.5q55 0 95 27.5t67 73t43.5 104t25.5 120t11.5 121t2.5 107.5q0 55 -8 92t-21 59.5t-29.5 31.5 t-34.5 9q-33 0 -64 -27t-58.5 -75t-50.5 -115.5t-40 -148t-27.5 -172.5t-12.5 -189z" />
<glyph unicode="c" horiz-adv-x="956" d="M55 424q0 66 13.5 138t41 141t69.5 131.5t98 109.5t126.5 75t155.5 28q70 0 131 -17.5t105 -50t69.5 -78t25.5 -101.5q0 -62 -35 -100t-95 -40q-35 -1 -59.5 11t-39.5 30.5t-21.5 40t-6.5 39.5t4.5 41.5t15.5 43.5q-8 19 -34.5 32.5t-62.5 13.5q-44 0 -77 -21 t-57.5 -55.5t-40.5 -79.5t-25.5 -93.5t-14.5 -96.5t-6 -89q-1 -14 -1 -28q0 -65 12 -113q14 -58 39 -95t56.5 -54.5t63.5 -20.5q9 -1 20 -1q20 0 44 4q36 6 73.5 28.5t75 66t69.5 115.5l117 -57q-44 -101 -95.5 -167t-108.5 -105.5t-118 -55.5t-125 -17q-90 1 -164 28 t-127 82t-82 139t-29 198z" />
<glyph unicode="d" horiz-adv-x="1155" d="M57 368q0 146 33.5 270.5t103.5 215t177 142t253 51.5q7 0 20.5 -0.5t28.5 -1t28 -1t21 -1.5l33 293l-142 -6l8 155q71 0 124.5 6t91.5 15t61.5 19.5t34.5 20.5h111q-111 -959 -120.5 -1045.5t-15.5 -157t-6 -116.5q0 -37 9.5 -48.5t20.5 -11.5q23 0 48 35.5t51 127.5 l111 -33q-9 -44 -28 -99.5t-52.5 -104.5t-82 -82.5t-115.5 -33.5q-33 0 -63 8.5t-52.5 30t-35.5 57.5t-13 90q0 20 0.5 35.5t1.5 29t2.5 27.5t3.5 31h-2q-37 -90 -80.5 -150t-89 -95t-91 -49.5t-85.5 -14.5q-77 0 -134 30t-94.5 82.5t-56 124t-18.5 154.5zM336 371 q0 -106 27.5 -157t72.5 -51q55 0 99.5 57.5t78 157t57 233t36.5 284.5q-7 3 -21 6t-30 5.5t-31.5 3.5t-25.5 1q-58 0 -100.5 -28.5t-71.5 -75.5t-47 -105.5t-27.5 -118.5t-13 -116t-3.5 -96z" />
<glyph unicode="e" horiz-adv-x="963" d="M56 424q0 66 13 138t40.5 141t69.5 131.5t99.5 109.5t131 75t163.5 28q68 0 124.5 -15t97 -46.5t63 -80.5t22.5 -116q0 -56 -23.5 -100t-64 -78t-94 -59.5t-114 -44t-124.5 -31t-124 -21.5q0 -87 16.5 -143.5t42.5 -89t59 -45t66 -12.5q25 0 59.5 7t71 28t72 60t63.5 103 l116 -56q-44 -101 -95.5 -165t-107.5 -100.5t-115 -50.5t-119 -14h-7q-90 0 -162 26q-76 27 -129.5 82.5t-82 140t-28.5 198.5zM343 587q83 15 140.5 38.5t92.5 53.5q34 29 50 65q15 33 15 69q1 27 -9 47q-8 18 -21.5 29.5t-29.5 17t-31 5.5q-52 0 -88.5 -29.5t-61 -76 t-38 -104.5t-19.5 -115z" />
<glyph unicode="f" horiz-adv-x="722" d="M-236 -407q0 18 7 40.5t22 42.5t39.5 33t59.5 12q23 -1 43 -10.5t34 -26.5t20.5 -39.5t2.5 -49.5q8 -5 26 -5q35 0 57.5 38t36 96t21 125.5t12.5 127.5q5 58 10.5 131.5t12 154.5t12.5 166t11.5 165.5t20.5 282.5l-163 -2l18 149h165q13 118 44.5 216t84.5 168.5t130 109 t182 38.5q94 0 144 -42t50 -110q0 -18 -7 -40t-22 -41t-39.5 -31.5t-59.5 -11.5q-23 1 -43 10.5t-34 26.5t-20.5 39.5t-2.5 49.5q-8 5 -26 5q-35 0 -57.5 -38t-36 -96t-21 -125.5t-12.5 -127.5h263l-13 -141l-259 -4q-14 -206 -20 -286.5t-12.5 -165.5t-13.5 -165.5 t-14 -153.5t-14 -131q-14 -119 -46 -216.5t-85.5 -168t-130.5 -109t-182 -38.5q-94 0 -144.5 40t-50.5 108z" />
<glyph unicode="g" horiz-adv-x="1064" d="M39 -345q0 22 8 48.5t24.5 49t43 37.5t62.5 15q55 0 92 -34.5t37 -93.5q0 -14 -3.5 -31t-10.5 -31q5 -8 17 -14.5t26 -11t29 -7t27 -2.5q61 0 101 26.5t65 73.5t39 111.5t23 140.5q7 54 14 100t15 88t18 82t23 81h-2q-39 -90 -80.5 -149t-85.5 -94t-90 -49t-93 -14 q-56 0 -107 22.5t-90 69t-62.5 117t-23.5 165.5q0 142 34 268.5t106.5 221.5t185 150.5t268.5 55.5q29 0 66 -3t78 -8.5t84.5 -14t84.5 -18.5q-2 -49 -6 -119.5t-9.5 -153t-11.5 -172t-12.5 -175.5t-13 -164t-11.5 -137q-14 -146 -48 -263.5t-96.5 -200.5t-155.5 -128 t-225 -45q-76 0 -137.5 13.5t-105 40.5t-67.5 66t-24 90zM334 339q0 -84 25.5 -132t61.5 -48q37 0 70.5 33.5t62.5 90t53 131t42 157t29.5 167t15.5 161.5q-12 5 -39.5 8.5t-53.5 3.5q-71 -1 -121.5 -39t-83 -110.5t-47.5 -179t-15 -243.5z" />
<glyph unicode="h" horiz-adv-x="1176" d="M52 1330l8 155q71 0 124.5 6t91 15t61 19.5t34.5 20.5h111q-53 -435 -58.5 -477.5t-22.5 -159.5t-29 -171h2q36 92 79 152t89 95t93 48.5t91 13.5q65 0 112 -22.5t77 -63.5t44.5 -99t14.5 -130q0 -57 -8 -122.5t-17.5 -133t-17.5 -133.5t-8 -122q0 -34 10 -44t21 -10 q23 0 48 35.5t51 127.5l111 -33q-9 -44 -32.5 -99.5t-62 -104.5t-92.5 -82.5t-123 -33.5q-57 0 -94 15.5t-59.5 45.5t-31.5 73t-9 97q0 61 8 139t17.5 156.5t17.5 150t8 118.5q0 46 -13 66.5t-45 20.5q-31 0 -64 -33t-65 -88t-60.5 -127.5t-50 -151.5t-34 -159.5 t-12.5 -151.5q0 -14 0.5 -34.5t1.5 -41.5t2 -40.5t2 -31.5h-263q-2 21 -3.5 35.5t-2 25t-0.5 19v18.5q0 84 3 177.5t7.5 189.5t11 191.5t13.5 184t29 281.5t27 214z" />
<glyph unicode="i" horiz-adv-x="704" d="M4 727q9 44 33 99.5t64 104.5t95 82.5t124 33.5q53 0 89 -17t58.5 -48t32 -75t9.5 -98q0 -33 -4.5 -83.5t-12 -108.5t-15.5 -118.5t-15.5 -114.5t-12 -97t-4.5 -66q0 -34 10 -44t21 -10q23 0 48 35.5t51 127.5l111 -33q-9 -44 -32.5 -99.5t-62.5 -104.5t-93 -82.5 t-123 -33.5q-57 0 -94.5 15.5t-60 45.5t-32 73t-9.5 97q0 40 5 91t12 106.5t16 112t16 109.5t12 98.5t5 77.5q0 34 -10 44t-21 10q-23 0 -48 -35.5t-51 -127.5zM227 1393q2 35 16.5 66t37 54t51.5 36t60 13q33 0 61 -13t47.5 -36t29.5 -54q8 -26 9 -54q0 -6 -1 -12 q-2 -35 -14 -65t-33 -53t-50 -36t-63 -13q-35 0 -63.5 13t-48.5 36t-30 53q-9 25 -9 54v11z" />
<glyph unicode="j" horiz-adv-x="640" d="M-221 -404q0 18 6.5 40.5t21.5 43t39.5 34t60.5 12.5q23 -1 44 -11.5t35.5 -29t21 -44t0.5 -56.5q4 -2 13 -3.5t17 -1.5q26 0 48.5 25t40.5 66.5t32.5 96t26 114.5t19.5 121.5t14 117.5t10 101.5t6 74.5q4 67 8 137t7 136t4.5 125.5t1.5 107.5q0 34 -10 44t-21 10 q-23 0 -48 -35.5t-51 -127.5l-111 33q9 44 31.5 99.5t60.5 104.5t91.5 82.5t122.5 33.5q53 0 90.5 -17t61.5 -48t35 -75t12 -98v-55v-60q-1 -64 -4 -133.5t-7.5 -142.5t-10.5 -144q-8 -90 -22.5 -186.5t-39 -188.5t-62 -174.5t-92.5 -144.5t-129.5 -98.5t-173.5 -36.5 q-94 0 -147 41.5t-53 109.5zM237 1393q2 35 16.5 66t37 54t51.5 36t60 13q33 0 61 -13t47.5 -36t29.5 -54q8 -26 8 -54v-12q-2 -35 -14 -65t-33 -53t-50 -36t-63 -13q-35 0 -63.5 13t-48.5 36t-30 53q-9 25 -9 54v11z" />
<glyph unicode="k" horiz-adv-x="1060" d="M62 1330l8 155q71 0 124.5 6t91.5 15t61.5 19.5t34.5 20.5h111l-71 -564l-33 -181h2q34 67 74.5 114t83.5 76t86 42.5t83 13.5q115 0 168.5 -59t53.5 -159q0 -47 -19.5 -102.5t-65.5 -108t-120.5 -96.5t-183.5 -68v-2q43 -2 72.5 -14t50 -30t34 -40t22.5 -44 q28 -67 49.5 -105t47.5 -38q22 0 43.5 30.5t45.5 110.5l110 -35q-12 -55 -35 -110.5t-56.5 -99.5t-78 -72t-98.5 -28q-45 0 -81 13t-67 44t-58 82t-54 126q-14 34 -25 64.5t-22.5 52.5t-25 35t-31.5 13q-6 0 -10 -1q-6 -30 -10.5 -65.5t-7 -71.5t-4 -70t-1.5 -61v-32t1 -37 t2 -37t3 -32h-267q-2 21 -3 36t-1.5 26t-0.5 39q0 19 2 72t6 130.5t11 175.5t16 207.5t21 226t27 231.5q5 42 13 94t17 98zM399 537q76 0 132 20t92 56.5t53.5 89t17.5 118.5q0 42 -13 66t-39 24t-60.5 -24.5t-69 -72t-65 -117.5t-48.5 -160z" />
<glyph unicode="l" horiz-adv-x="621" d="M69 1330l8 155q71 0 124 6t90.5 15t61 19.5t34.5 20.5h111q-27 -234 -47.5 -414t-36 -316t-26 -233.5t-16.5 -166t-9 -113.5t-3 -76q0 -37 9.5 -48.5t20.5 -11.5q23 0 48 35.5t51 127.5l111 -33q-13 -52 -36 -108.5t-60.5 -103.5t-91 -77.5t-127.5 -30.5 q-37 0 -70.5 10.5t-59 34t-40.5 61.5t-15 92q0 93 7.5 207t20 240t28 259t57.5 455z" />
<glyph unicode="m" horiz-adv-x="1799" d="M17 727q9 44 27.5 99.5t51 104.5t80.5 82.5t115 33.5q33 0 64 -8.5t55 -30t38.5 -57.5t14.5 -90q0 -20 -1 -35.5t-2.5 -29t-4 -27.5t-4.5 -31h2q36 92 79.5 152t90.5 95t94.5 48.5t91.5 13.5q115 -1 165 -83q36 -60 36 -151q0 -35 -5 -75h2q36 92 77.5 152t86 95t90 48.5 t89.5 13.5q65 0 112 -22.5t77 -63.5t44 -99t14 -130q0 -57 -8 -122.5t-17.5 -133t-17.5 -133.5t-8 -122q0 -34 10 -44t21 -10q23 0 48 35.5t51 127.5l111 -33q-9 -44 -32.5 -99.5t-62 -104.5t-92.5 -82.5t-123 -33.5q-57 0 -94 15.5t-58.5 45.5t-30.5 73t-9 97q0 61 8 139 t17.5 156.5t17.5 150t8 118.5q0 46 -13 66.5t-45 20.5q-31 0 -63.5 -32t-63 -86t-57.5 -125t-47 -149t-32 -158t-12 -151q0 -14 0.5 -33t1.5 -40.5t2 -43.5t3 -41h-265q-5 43 -5.5 80.5t-0.5 57.5q0 87 7.5 179t16.5 177.5t16.5 158t7.5 119.5q0 46 -13 66.5t-45 20.5 q-31 0 -64 -33t-64.5 -88t-60 -127.5t-49.5 -151.5t-33.5 -159.5t-12.5 -151.5q0 -14 0.5 -34.5t5.5 -113.5h-263q-2 21 -4 54.5t-2 43.5q0 44 5.5 106.5t13.5 132.5t18 142t18 136t13.5 113.5t5.5 74.5q0 34 -9 44t-20 10q-23 0 -48 -35.5t-51 -127.5z" />
<glyph unicode="n" horiz-adv-x="1250" d="M17 727q9 44 27.5 99.5t51 104.5t80.5 82.5t115 33.5q33 0 64 -8.5t55 -30t38.5 -57.5t14.5 -90q0 -20 -1 -35.5t-2.5 -29t-4 -27.5t-4.5 -31h2q36 92 78.5 152t88 95t92 48.5t90.5 13.5q65 0 111.5 -22.5t76.5 -63.5t44 -99t14 -130q0 -57 -8 -122.5t-17.5 -133 t-17.5 -133.5t-8 -122q0 -34 10 -44t21 -10q23 0 48 35.5t51 127.5l111 -33q-9 -44 -32.5 -99.5t-62 -104.5t-92.5 -82.5t-123 -33.5q-57 0 -94 15.5t-58.5 45.5t-30.5 73t-9 97q0 61 8 139t17.5 156.5t17.5 150t8 118.5q0 46 -13 66.5t-45 20.5q-31 0 -64 -33t-64.5 -88 t-59.5 -127.5t-49 -151.5t-33.5 -159.5t-12.5 -151.5q0 -14 0.5 -34.5t1.5 -41.5t2 -40.5t2 -31.5h-264q-2 21 -3.5 35.5t-2 25t-0.5 19v18.5q0 44 5.5 106.5t13.5 132.5t18 142t18 136t13.5 113.5t5.5 74.5q0 34 -9 44t-20 10q-23 0 -48 -35.5t-51 -127.5z" />
<glyph unicode="o" horiz-adv-x="1055" d="M57 443q0 123 36 232.5t103 192t162.5 131t213.5 48.5q85 0 160.5 -30.5t131 -89t88 -143.5t32.5 -194q0 -122 -35.5 -233t-102 -195.5t-161.5 -134.5t-215 -50q-104 0 -181.5 37t-129 100t-77 148t-25.5 181zM336 500q0 -62 7.5 -130t26.5 -125t51 -94.5t81 -37.5 q35 0 63 19.5t50 51.5t37.5 74.5t26 89t16 93.5t6.5 89v25q0 27 -1 55q-2 42 -8.5 84.5t-18 81.5t-29.5 68.5t-44 47.5t-60 19h-3q-45 0 -81 -32q-38 -33 -64.5 -89t-41 -131t-14.5 -159z" />
<glyph unicode="p" horiz-adv-x="1178" d="M18 727q9 44 27.5 99.5t51 104.5t80 82.5t115.5 33.5q33 0 63.5 -8.5t54 -31t37.5 -61t14 -99.5q0 -30 -2.5 -59t-6.5 -50h2q36 92 80 152t91 95t93 48.5t87 13.5q73 0 130 -28.5t95 -80.5t58 -123.5t20 -158.5q0 -146 -35.5 -270.5t-107 -215t-180 -142t-254.5 -51.5 q-11 0 -30 0.5t-36 1.5q-10 -183 -11.5 -204.5t-3.5 -46.5t-4.5 -51t-5.5 -49l136 6v-156h-519v133q38 0 61.5 13.5t37 38.5t20 58.5t10.5 74.5q22 240 36.5 414.5t22 294t10.5 189.5t3 103q0 37 -9.5 48.5t-20.5 11.5q-23 0 -48 -35.5t-51 -127.5zM473 125q22 -6 46 -9 t37 -3q58 0 101 29t73.5 75t49.5 105t30 119t15 115.5t4 96.5q0 112 -28 160t-72 48q-100 0 -164.5 -187.5t-91.5 -548.5z" />
<glyph unicode="q" horiz-adv-x="1070" d="M55 367q0 138 34 261.5t105.5 216.5t182.5 147.5t266 54.5q32 0 73.5 -3t85.5 -8t88.5 -11t82.5 -13l-88 -1203q-1 -15 -2.5 -36.5t-3.5 -46t-4.5 -50t-5.5 -48.5l138 6v-156h-518v133q43 0 67 13t37 37t17.5 57t8.5 74q5 45 7.5 88t7.5 100q2 27 5 57t6.5 61.5t7.5 62 t9 57.5h-2q-40 -77 -80.5 -124.5t-80.5 -73.5t-78.5 -34.5t-74.5 -8.5q-73 0 -127.5 32.5t-91 86.5t-54.5 124.5t-18 146.5zM335 379q0 -63 10.5 -105t26 -66.5t34 -34.5t34.5 -10q32 0 63 31t59 84t52.5 125t42.5 153.5t29.5 169.5t14.5 174q-6 3 -18 5t-25 3.5t-25 2 t-19 0.5q-83 0 -137 -47.5t-85.5 -123.5t-44 -171t-12.5 -190z" />
<glyph unicode="r" horiz-adv-x="941" d="M17 727q9 44 27.5 99.5t51 104.5t80.5 82.5t115 33.5q33 0 64 -8.5t54.5 -30t38 -57.5t14.5 -90q0 -33 -4.5 -79t-14.5 -104h2q41 117 84 189t86.5 112t85.5 54t80 14t69.5 -11t54 -31.5t35 -49.5t12.5 -65q0 -26 -9.5 -51t-27.5 -44.5t-43.5 -31.5t-56.5 -12 q-23 0 -43.5 7.5t-36 21.5t-24.5 33.5t-8 44.5h-5q-27 0 -54 -28q-30 -31 -58 -85.5t-53 -127.5t-43.5 -153t-29 -161.5t-10.5 -154.5q0 -14 0.5 -34.5t1.5 -41.5t2 -40.5t2 -31.5h-268q-2 21 -3.5 35.5t-2 25t-0.5 19v18.5q0 44 5.5 106.5t13.5 132.5t18 142t18 136 t13.5 113.5t5.5 74.5q0 34 -9 44t-20 10q-23 0 -48 -35.5t-51 -127.5z" />
<glyph unicode="s" horiz-adv-x="914" d="M43 215q0 31 10 57.5t28 45.5t42 29.5t51 10.5q28 0 51 -10t39.5 -27.5t26 -40.5t9.5 -49q0 -33 -13 -60q5 -11 20 -22t34 -19t39 -13t35 -5q45 0 76 11t50 29t27.5 41t8.5 47q0 28 -17 52t-45.5 45.5t-66 43t-77.5 44.5q-73 42 -126.5 78t-88 73.5t-51.5 79.5t-17 96 t25.5 106.5t75 94.5t122 68t166.5 26q62 0 123.5 -15.5t110.5 -44.5t79.5 -71t30.5 -94q0 -27 -9 -51.5t-25.5 -43t-40 -29.5t-53.5 -11q-28 0 -51 10t-39.5 27.5t-25.5 40t-9 47.5q0 32 13 59q-8 11 -21.5 18.5t-29 12.5t-31.5 7.5t-29 2.5q-22 0 -46 -7.5t-44.5 -21 t-34 -34t-13.5 -45.5q0 -21 6.5 -37.5t26.5 -35.5t57.5 -42.5t100.5 -59.5q51 -29 105 -61t98.5 -72t73 -89.5t28.5 -113.5q0 -69 -32.5 -127t-88.5 -100t-133 -65.5t-165 -23.5q-74 0 -140 16.5t-116.5 47.5t-80 75t-29.5 99z" />
<glyph unicode="t" horiz-adv-x="809" d="M37 875l18 149q76 0 131.5 23t94.5 64t62.5 97.5t36.5 124.5h139l-42 -309h257l-13 -141l-257 -4q-6 -49 -12 -104.5l-12 -111t-11 -109t-9 -100t-6 -84t-2 -60.5q0 -20 2.5 -43.5t12.5 -44t29.5 -34.5t52.5 -14q12 0 33.5 4.5t47.5 18t53.5 39.5t51.5 68l103 -67 q-69 -131 -168.5 -195.5t-215.5 -64.5q-84 0 -136 28t-80 74.5t-37 106.5q-7 49 -7 100v23q2 52 6.5 120t10.5 143t13.5 153t15.5 152q-42 -1 -88 -1.5t-75 -0.5z" />
<glyph unicode="u" horiz-adv-x="1225" d="M-3 727q9 44 32.5 99.5t62 104.5t92.5 82.5t123 33.5q57 0 94 -15.5t59.5 -45.5t31.5 -73t9 -97q0 -41 -4 -89.5t-10 -100.5t-12.5 -105.5t-12.5 -102.5t-10 -92t-4 -74q0 -46 13 -66.5t45 -20.5q28 0 59.5 33t61.5 88t57.5 127.5t48.5 151.5t33 159t12 152 q0 14 -0.5 34.5t-1 41.5t-2 40.5t-2.5 31.5h264q2 -21 3.5 -35.5t2 -25t0.5 -19v-18.5q0 -44 -5.5 -106.5t-14 -132.5t-18.5 -142t-18.5 -136t-14 -113.5t-5.5 -74.5q0 -34 9 -44t20 -10q23 0 48 35.5t51 127.5l111 -33q-9 -44 -27.5 -99.5t-51 -104.5t-80.5 -82.5 t-115 -33.5q-33 0 -64 8.5t-55 30t-38.5 57.5t-14.5 90q0 41 3.5 69.5t8.5 63.5h-2q-36 -92 -76.5 -153.5t-83.5 -98.5t-87.5 -52t-88.5 -15q-65 0 -111.5 22.5t-76.5 63.5t-44 99t-14 130q0 57 8.5 122.5t18 133t18 133.5t8.5 122q0 34 -11 44t-22 10q-23 0 -48 -35.5 t-51 -127.5z" />
<glyph unicode="v" horiz-adv-x="1071" d="M-9 727q9 44 32.5 99.5t62 104.5t92.5 82.5t123 33.5q59 0 97 -19t60.5 -52t31 -76.5t8.5 -91.5q0 -66 -6 -144.5t-12.5 -155.5t-12.5 -145.5t-6 -114.5q0 -17 2.5 -37t10 -38t22 -29.5t38.5 -11.5q37 1 75 20t74 53.5t67.5 82t55 105.5t37 124.5t13.5 138.5 q0 22 -4 45.5t-11 44.5t-16.5 39t-20.5 29q-17 -14 -40.5 -25.5t-53.5 -11.5q-20 0 -42.5 7t-41 22.5t-30.5 39.5t-12 57q0 21 8 46.5t26 47t48 36t74 14.5q66 0 115.5 -29.5t83.5 -80.5t51 -119t17 -144q0 -70 -16.5 -149.5t-49 -156.5t-79.5 -148t-108 -125t-134.5 -86 t-159.5 -32q-70 0 -119 22t-80.5 63.5t-46 100.5t-14.5 133q0 35 2.5 80t6.5 93t8 97t8 93.5t6.5 81.5t2.5 62q0 34 -11 44t-22 10q-23 0 -48 -35.5t-51 -127.5z" />
<glyph unicode="w" horiz-adv-x="1628" d="M-4 727q9 44 32.5 99.5t62 104.5t92.5 82.5t123 33.5q59 0 97 -19t60.5 -52t31 -76.5t8.5 -91.5q0 -66 -7.5 -144.5t-17 -155.5t-17 -145.5t-7.5 -114.5q0 -17 1.5 -37t7 -37.5t17.5 -29.5t33 -12q49 0 87 38t66 100t47 141.5t30.5 162t16.5 161.5t5 141q0 14 -0.5 34.5 t-1.5 41.5t-2 40.5t-2 31.5h264q3 -31 4.5 -48.5t1.5 -31.5v-62q-8 -131 -16.5 -229t-15.5 -172.5t-11.5 -130.5t-4.5 -102q0 -17 4 -37t13 -37.5t25 -29.5t40 -12q35 0 75 19.5t79 54t75 83t63 106.5t43.5 124.5t16.5 136.5q0 45 -14.5 90t-37.5 68q-17 -14 -40.5 -25.5 t-53.5 -11.5q-20 0 -42.5 7t-41 22.5t-30.5 39.5t-12 57q0 21 8 46.5t26 47t48 36t74 14.5q66 0 115.5 -29.5t83.5 -80.5t51 -119t17 -144q0 -73 -19.5 -153t-56 -157.5t-88 -147.5t-115.5 -123t-138.5 -84.5t-157.5 -31.5q-56 0 -96 17.5t-65.5 48t-37 72.5t-11.5 90 q0 35 6 71h-2q-22 -83 -58.5 -140t-82.5 -92.5t-97.5 -51t-103.5 -15.5q-66 0 -113.5 22t-77.5 63.5t-44.5 100.5t-14.5 133q0 35 3.5 79.5t8.5 93t11 97.5t11 93.5t8.5 81.5t3.5 62q0 34 -11 44t-22 10q-23 0 -48 -35.5t-51 -127.5z" />
<glyph unicode="x" horiz-adv-x="1113" d="M33 119q0 31 10.5 57.5t28 45.5t40.5 29.5t49 10.5q50 0 78 -24t38 -51q15 10 30.5 34t33 64t38.5 97t47 133q-16 43 -51 142.5t-48 129.5q-10 21 -18.5 34.5t-16.5 21t-16.5 10.5t-18.5 4q-14 0 -27 -6.5t-25 -24t-21.5 -47.5t-15.5 -76l-115 15q3 30 11.5 66t23.5 72.5 t38 71t55.5 61t75 42.5t97.5 16q42 0 73.5 -13t55 -36.5t41 -56.5t32.5 -73q6 -15 10.5 -28t9.5 -28t10.5 -35t13.5 -48q43 109 83 172.5t76 96t67.5 41t58.5 8.5q37 0 64 -10.5t45 -29.5t26.5 -44t8.5 -55q0 -26 -10.5 -49.5t-28 -41.5t-41 -28.5t-49.5 -10.5 q-38 0 -61.5 13t-38.5 30q-14 -11 -27.5 -28t-29.5 -47t-36.5 -75t-47.5 -110q15 -40 32 -83.5t35 -85.5t36 -80t34 -67q26 -46 44 -62t35 -16q14 0 25.5 6t21.5 23t17.5 47t13.5 78l115 -15q-3 -30 -10 -66t-20.5 -72.5t-34 -71t-51 -61t-72 -42.5t-96.5 -16q-46 0 -82 17 t-64 44.5t-49 63.5t-37 75l-64 153h-2q-39 -116 -76 -185.5t-73 -106.5t-71 -49t-70 -12q-37 0 -67 10.5t-51.5 29t-33 44.5t-11.5 58z" />
<glyph unicode="y" horiz-adv-x="1148" d="M-15 718q3 30 12 66t24.5 72.5t39 71t56.5 61t76 42.5t98 16q50 0 89.5 -19t70 -49.5t53 -68.5t38.5 -77q22 -52 51 -128t59 -166.5t56.5 -190t43.5 -198.5h2q63 141 97 267.5t38.5 184t5 76.5t-2 40t-8 40.5t-16.5 32.5q-32 -6 -59.5 1t-48.5 23.5t-33 40.5t-12 51 q0 36 12.5 62t32.5 43.5t45.5 26t51.5 8.5q57 0 96 -25.5t64 -66t36 -92.5t11 -104q0 -71 -18 -165t-51.5 -199.5t-80.5 -217t-104 -217t-123 -199t-137.5 -164t-147 -111.5t-151.5 -41q-94 0 -143.5 44.5t-49.5 114.5q0 33 11.5 59.5t30 45.5t42 29t47.5 10q54 0 85.5 -29 t39.5 -82q24 -7 50.5 2.5t53 29t52 46.5t47.5 56t39 56.5t26 48.5q-15 98 -48 212t-74.5 230t-86.5 226.5t-85 200.5q-7 16 -16.5 35.5t-21.5 36.5t-26.5 28.5t-31.5 11.5q-14 0 -28 -6t-26.5 -23t-22 -47t-15.5 -78z" />
<glyph unicode="z" horiz-adv-x="1006" d="M36 59q34 51 83.5 115.5t104 133t110 135t103.5 122.5q51 59 90 99t73.5 72.5t68.5 62t74 67.5h-2q-41 -34 -75 -55.5t-63.5 -33.5t-55.5 -16.5t-50 -4.5q-32 0 -60 8t-54.5 17t-52.5 17t-55 8q-30 0 -49 -15.5t-28 -40t-7.5 -55.5t12.5 -62l-103 -35q-24 64 -24 159 q0 55 15.5 107t47 92.5t79 65.5t110.5 25q43 0 89.5 -9.5t94.5 -21t95 -21t91 -9.5q12 0 30 1.5t39.5 7.5t46 18.5t49.5 33.5l87 -82l-304 -392q-66 -83 -124.5 -145.5t-110 -111.5t-96.5 -86.5t-84 -69.5h2q43 33 79.5 53.5t68 32t58.5 15t51 3.5q38 0 68 -8t57 -17 t52.5 -17t54.5 -8q30 0 49 15.5t27 40t5.5 55.5t-15.5 62l104 35q12 -32 20.5 -70t9.5 -85q0 -55 -16 -107t-47.5 -92.5t-79 -65.5t-110.5 -25q-43 0 -93 9.5t-101.5 21t-102 21t-93.5 9.5q-12 0 -28.5 -1.5t-36 -7.5t-42.5 -18.5t-48 -33.5z" />
<glyph unicode="{" horiz-adv-x="707" d="M-6 453l11 136h89q38 0 63.5 9t41 27t23 44.5t9.5 61.5v32t-0.5 62.5t-1 79t-1 80.5t-0.5 67v39q0 108 22 194t70 146.5t124 92.5t183 32h103l-7 -135q-71 0 -120.5 -26t-81 -71.5t-45.5 -107t-14 -131.5q0 -21 1.5 -57t3.5 -77t3.5 -81.5t1.5 -68.5v-22q-2 -53 -19 -93 t-45.5 -70.5t-68 -52.5t-85.5 -39v-2q45 -20 80.5 -44.5t60 -56t37.5 -71.5t13 -92q0 -15 -3 -42.5t-8 -62t-10 -73.5t-10 -76.5t-8 -71.5t-3 -58q0 -57 12 -110t39 -94t72 -65.5t111 -24.5l-9 -135h-100q-101 0 -169.5 34t-110.5 93.5t-60 141t-18 176.5q0 15 2.5 48 t7 75.5t9 89.5t9 89.5t7 76.5t2.5 50q0 29 -6 53.5t-20 42.5t-36.5 28t-55.5 10h-95z" />
<glyph unicode="|" horiz-adv-x="480" d="M70 -555l105 2111h228l-118 -2111h-215z" />
<glyph unicode="}" horiz-adv-x="706" d="M-40 -555l7 135q71 0 120.5 26t81 71.5t45.5 107t14 131.5q0 21 -1.5 57t-3.5 77t-3.5 81.5t-1.5 68.5v22q2 53 19 93t45.5 70.5t68 52.5t85.5 39v2q-45 20 -80.5 44.5t-60 56t-37.5 71.5t-13 92q0 15 3 42.5t8 62t10 73.5t10 76.5t8 71.5t3 58q0 57 -12 110t-39 94 t-72 65.5t-111 24.5l9 135h100q101 0 169.5 -34t110.5 -93.5t60 -141t18 -176.5q0 -15 -2.5 -48t-7 -75.5t-9 -89.5t-9 -89.5t-7 -76.5t-2.5 -50q0 -29 6 -53.5t20 -42.5t36.5 -28t55.5 -10h95l-11 -136h-89q-38 0 -63.5 -9t-41 -27t-23 -44.5t-9.5 -61.5v-32t0.5 -62.5 t1 -79t1 -80.5t0.5 -67v-39q0 -108 -22 -194t-70 -146.5t-124 -92.5t-183 -32h-103z" />
<glyph unicode="~" horiz-adv-x="1105" d="M91 469l12 236q34 26 64.5 46.5t61.5 34.5t65 21t75 7q55 0 95.5 -11.5t71.5 -28.5t56.5 -37.5t52.5 -37.5t58 -28.5t73 -11.5q67 0 128 26.5t112 71.5l-13 -236q-45 -48 -106.5 -77.5t-142.5 -29.5q-51 0 -89.5 11.5t-70 28.5t-58.5 37t-55 37t-60 28.5t-73 11.5 q-42 0 -76.5 -8t-65 -21.5t-58.5 -31.5t-57 -38z" />
<glyph unicode="&#xa1;" horiz-adv-x="481" d="M48 -257l119 844h137l33 -844q1 -33 -8.5 -66t-29 -59.5t-49 -43.5t-68.5 -17q-41 0 -69 17t-44 43.5t-21 59.5t0 66zM106 898q2 33 15.5 62t35.5 50.5t49.5 34t56.5 12.5q30 0 55.5 -12.5t44 -34t28.5 -50.5t8 -62q-1 -33 -14.5 -62.5t-35 -51.5t-48.5 -34.5t-57 -12.5 q-32 0 -58 12.5t-44.5 34.5t-27.5 51.5t-8 62.5z" />
<glyph unicode="&#xa2;" horiz-adv-x="999" d="M70 424q0 58 10.5 121t32 125t54 119.5t76 106t98 84t120.5 52.5l24 248h210l-26 -242q52 -10 95.5 -31t74.5 -52t48.5 -70t17.5 -85q0 -63 -36 -101.5t-99 -38.5q-34 0 -57 12.5t-37.5 30.5t-21 39t-6.5 39t4.5 41.5t15.5 43.5q-8 19 -34.5 32.5t-62.5 13.5 q-46 0 -80.5 -23t-59 -61t-40.5 -87t-25.5 -100t-13 -100.5t-3.5 -89.5q0 -84 18 -139.5t46.5 -88t62.5 -45.5t66 -13q28 0 61.5 9t68 33t68 65.5t62.5 106.5l117 -57q-38 -86 -81 -146.5t-90 -101t-98 -62t-104 -29.5l-28 -257h-197l27 267q-64 16 -115.5 50.5t-87.5 88 t-55.5 126.5t-19.5 166z" />
<glyph unicode="&#xa3;" horiz-adv-x="1127" d="M49 72q0 33 14 61t39 51.5t59 43t75 34.5q11 18 19.5 42t14 48t8.5 46.5t3 38.5q0 48 -5 94t-12 82l-161 -3l10 158h114q-7 35 -10.5 73t-3.5 83q0 129 37.5 230t100.5 170.5t146 106t174 36.5q92 0 155.5 -24t102.5 -60t56.5 -78.5t17.5 -78.5q0 -35 -10 -65.5t-29 -53 t-46 -35t-61 -12.5q-35 0 -59 12t-39 29.5t-21.5 38.5t-6.5 39q0 27 10.5 59t32.5 57q-10 12 -32 22.5t-57 10.5q-48 0 -82 -18t-57.5 -48t-37.5 -68.5t-21 -79t-9.5 -80t-2.5 -71.5q0 -54 4 -102t11 -93h325l-8 -145l-294 -6q3 -11 3.5 -22t0.5 -21q0 -42 -10.5 -87.5 t-30.5 -88.5t-50 -80t-70 -64v-2q59 26 100 34.5t76 8.5q51 0 91.5 -16t75.5 -35.5t67 -35.5t67 -16q12 0 25.5 7t25.5 21.5t21.5 37t12.5 52.5h127q-7 -76 -27 -139t-52 -108.5t-76.5 -70.5t-101.5 -25q-41 0 -78.5 13t-73.5 32.5t-71.5 42t-71.5 43t-74.5 34.5t-81.5 16 q-12 -38 -31 -70.5t-43 -57.5t-51 -39t-54 -14q-30 0 -51 8.5t-34 23t-18.5 33.5t-5.5 40z" />
<glyph unicode="&#xa4;" horiz-adv-x="1133" d="M91 172l125 134q-23 42 -34 90.5t-11 99.5q0 63 18.5 126t54.5 120l-116 141l151 116l96 -128q43 26 93.5 41t110.5 15t108.5 -15.5t90.5 -41.5l109 128l139 -121l-132 -141q50 -94 50 -194q0 -63 -17 -123.5t-49 -112.5l111 -134l-151 -116l-92 123q-91 -53 -210 -53 q-60 0 -110 13.5t-92 38.5l-103 -122zM420 519q0 -38 5.5 -80.5t19.5 -78.5t38 -60t62 -24q29 0 51.5 14.5t40 38t29.5 54t19.5 62.5t11 63t3.5 55q0 31 -5.5 69t-20 71.5t-39.5 56.5t-63 23q-32 0 -55.5 -15.5t-40.5 -40t-28 -54.5t-17 -59.5t-8.5 -54.5t-2.5 -40z" />
<glyph unicode="&#xa5;" horiz-adv-x="1446" d="M96 1276l8 158h598l-7 -135q-45 3 -79.5 -6t-53 -29t-19 -50.5t22.5 -72.5q172 -313 185 -339.5t26 -54t21 -49.5h12q13 26 38 72.5t121.5 219t113 199.5t33 52t30.5 41v2l-157 -8l8 158h452l-7 -135q-36 -6 -66 -20t-58.5 -39.5t-57 -65t-61.5 -94.5l-220 -383l143 -1 l-7 -151l-211 -2l-6 -105l214 -1l-7 -151l-215 -2q-3 -42 -7 -77t-8 -55l164 6l-8 -158h-593l7 135q32 1 58 5.5t45.5 19t32 43.5t17.5 80l-218 -1l9 159l218 -1l6 102l-223 -1l9 159l107 -1l-243 388q-15 23 -27.5 50t-22 54t-14.5 50.5t-4 40.5q-33 -2 -55 -3.5t-44 -2.5z " />
<glyph unicode="&#xa6;" horiz-adv-x="510" d="M85 -555l35 786h226l-49 -786h-212zM154 767l36 790h226l-50 -790h-212z" />
<glyph unicode="&#xa7;" horiz-adv-x="1079" d="M65 586q0 43 12 90t34.5 94t55.5 91.5t74 82.5q-22 30 -35.5 57.5t-20.5 54t-9.5 53.5t-2.5 57q1 39 12 83t33.5 87.5t57 83t81.5 70t107.5 48.5t135.5 18q82 0 149 -23t115 -60t74 -84t26 -96q0 -31 -9 -59.5t-26.5 -50.5t-43 -35t-58.5 -13t-56.5 11.5t-37.5 29 t-20.5 37.5t-6.5 37q0 23 6 46t21 45q-14 32 -50.5 51t-82.5 19q-48 0 -85 -16t-62.5 -41.5t-38.5 -56.5t-13 -61q0 -68 34.5 -117.5t85.5 -88.5t110 -72.5t107 -69.5q72 -54 122 -99.5t82 -93.5t46.5 -103.5t14.5 -128.5q0 -36 -13.5 -80.5t-37.5 -90t-56 -89t-68 -78.5 q11 -19 23.5 -40t23 -46t17 -53.5t6.5 -62.5q0 -39 -9.5 -83.5t-30 -87.5t-54 -83t-82 -70t-112 -48t-145.5 -18t-149 23t-115 60t-74 84t-26 96q0 30 9 59t26.5 51.5t43 36t58.5 13.5t56.5 -12t37.5 -29.5t20.5 -38t6.5 -37.5q0 -23 -6 -46.5t-21 -44.5q7 -16 21 -29 t32.5 -22t40.5 -14t45 -5q47 0 83.5 14.5t61.5 38t38.5 53.5t15.5 61q0 44 -16.5 81t-43.5 67.5t-61.5 56t-71.5 48t-73 42.5t-65 40q-53 35 -102 75t-87.5 88.5t-61.5 108.5t-23 134zM304 658q0 -52 22 -95t57.5 -80.5t81.5 -69.5t93.5 -61t92.5 -56.5t80 -55.5 q8 15 14.5 38t11.5 47.5t8 48t3 39.5q0 52 -22 95.5t-57.5 80.5t-81 68.5t-93 60t-93 56t-80.5 55.5q-8 -15 -15 -37.5t-12 -46.5t-7.5 -47.5t-2.5 -39.5z" />
<glyph unicode="&#xa8;" horiz-adv-x="850" d="M113 1373q0 33 12 63t31.5 52.5t45.5 36t54 13.5t50.5 -11.5t38.5 -31t25 -45.5t9 -56q0 -35 -11 -65t-30 -52.5t-45 -35.5t-55 -13q-27 0 -50 11t-39.5 30.5t-26 46t-9.5 57.5zM469 1373q0 33 12 63t31.5 52.5t45.5 36t54 13.5t50.5 -11.5t38.5 -31t25 -45.5t9 -56 q0 -35 -11 -65.5t-30 -53t-45 -35t-55 -12.5q-27 0 -50 11t-39.5 30.5t-26 46t-9.5 57.5z" />
<glyph unicode="&#xa9;" horiz-adv-x="1822" d="M74 697q6 117 41 225t93.5 202.5t139 172t178 133t209 86t233.5 30.5q185 0 335 -67.5t254.5 -183.5t157.5 -271t44 -330q-6 -116 -41 -223.5t-94.5 -201t-139.5 -170t-176.5 -131t-205.5 -84.5t-226 -30q-125 0 -235 28.5t-201.5 81.5t-162 128.5t-118 169.5 t-69.5 203.5t-16 231.5zM219 697q-8 -148 34.5 -280t129 -231t214.5 -156.5t291 -57.5q159 0 289.5 57.5t225.5 156.5t150 231t63 280q5 99 -12 191.5t-55 173.5t-95.5 148.5t-132 116t-166 75t-196.5 26.5q-104 0 -198 -26.5t-174.5 -75t-146 -116t-113 -148.5 t-75.5 -173.5t-33 -191.5zM443 693q3 60 20 122.5t47 121t73.5 109t100 88t126 57.5t152.5 17q62 -2 121 -17.5t111 -53.5q0 6 0.5 33.5t0.5 30.5h146l-19 -359h-126q-5 61 -26 104.5t-52.5 71.5t-70.5 40.5t-80 12.5q-54 0 -104.5 -27t-89.5 -74.5t-64 -113t-29 -141.5 q-3 -69 15.5 -132.5t56.5 -112.5t94 -78.5t128 -30.5q74 -2 154 36t145 114l82 -83q-55 -70 -115.5 -115.5t-119.5 -72.5t-114 -37.5t-98 -10.5q-107 0 -195 39t-150 106.5t-94 159t-26 196.5z" />
<glyph unicode="&#xaa;" horiz-adv-x="831" d="M97 993q0 103 27 190t78 150t125.5 98.5t169.5 35.5q19 0 46 -2t58 -5.5t62.5 -8.5t58.5 -12q-5 -33 -11.5 -79t-14 -96.5t-14.5 -103.5t-13 -100.5t-9.5 -86t-3.5 -60.5q0 -23 6 -31t14 -8q15 0 34.5 22.5t36.5 81.5l68 -20q-6 -28 -20 -64t-38 -67.5t-59 -53.5t-81 -22 q-58 0 -88.5 27t-30.5 94q0 17 2 38.5t5 38.5h-1q-24 -57 -50 -95.5t-53 -61t-55.5 -32t-58.5 -9.5q-36 0 -70 14.5t-60.5 44.5t-43 75.5t-16.5 107.5zM306 1011q-2 -54 11 -85t39 -31q19 0 37 20.5t34.5 56t31 81.5t25.5 97.5t18.5 104.5t10.5 101q-8 3 -28.5 6t-36.5 2 q-28 -2 -52.5 -20t-43 -59t-31 -108t-15.5 -166z" />
<glyph unicode="&#xab;" horiz-adv-x="1001" d="M34 525l2 48l577 569l82 -89l-413 -507v-2l354 -486l-90 -84zM484 530l2 47l371 409l82 -69l-228 -355v-3l188 -356l-89 -70z" />
<glyph unicode="&#xac;" horiz-adv-x="1174" d="M116 547l10 188l920 -5l-22 -418h-173l7 238z" />
<glyph unicode="&#xad;" horiz-adv-x="969" d="M106 550l11 207h751l-11 -200z" />
<glyph unicode="&#xae;" horiz-adv-x="1822" d="M74 697q6 117 41 225t93.5 202.5t139 172t178 133t209 86t233.5 30.5q185 0 335 -67.5t254.5 -183.5t157.5 -271t44 -330q-6 -116 -41 -223.5t-94.5 -201t-139.5 -170t-176.5 -131t-205.5 -84.5t-226 -30q-125 0 -235 28.5t-201.5 81.5t-162 128.5t-118 169.5 t-69.5 203.5t-16 231.5zM219 697q-8 -148 34.5 -280t129 -231t214.5 -156.5t291 -57.5q159 0 289.5 57.5t225.5 156.5t150 231t63 280q5 99 -12 191.5t-55 173.5t-95.5 148.5t-132 116t-166 75t-196.5 26.5q-104 0 -198 -26.5t-174.5 -75t-146 -116t-113 -148.5 t-75.5 -173.5t-33 -191.5zM494 241l5 90q24 1 42.5 4.5t31.5 15.5t21 35.5t10 65.5l27 518q2 40 5.5 74.5t6.5 51.5q-11 -1 -104 -4l6 107l382 1q90 0 162 -15t120.5 -50.5t71.5 -92t16 -138.5q-4 -44 -18.5 -84.5t-43 -75.5t-72 -62.5t-104.5 -44.5v-1q26 -11 43.5 -34.5 t34.5 -52.5l45 -88q21 -35 37 -59t31 -39.5t32 -23t41 -8.5l-5 -90h-210q-23 19 -48 52t-49 77q-42 77 -65 121t-34.5 67.5t-16 33t-9.5 17.5q-22 -1 -39 -1t-39 1l-8 -141q-2 -37 -4 -72t-4 -52l116 4l-6 -107h-408zM814 731q17 -4 28.5 -5t28.5 -1q102 0 157.5 49.5 t60.5 140.5q3 60 -15.5 94t-46 51t-58 21.5t-51.5 4.5t-37.5 -5t-27.5 -17.5t-17.5 -34t-8.5 -54.5z" />
<glyph unicode="&#xaf;" horiz-adv-x="775" d="M92 1288l9 190h582l-9 -183z" />
<glyph unicode="&#xb0;" horiz-adv-x="786" d="M95 1139q3 70 33 130t78.5 104t111 69t130.5 25q76 0 136 -25t101 -69t61 -104t17 -130q-4 -70 -34 -130.5t-79 -105t-111.5 -70t-130.5 -25.5q-76 0 -135.5 25.5t-100.5 70t-61 105t-16 130.5zM266 1133q0 -39 10 -72.5t29.5 -57.5t47.5 -37.5t64 -13.5q39 0 71 15.5 t55.5 42t36 61.5t12.5 75q0 83 -41 132t-114 49q-35 0 -66.5 -16t-54.5 -42.5t-36.5 -61.5t-13.5 -74z" />
<glyph unicode="&#xb1;" horiz-adv-x="1114" d="M63 1l9 174l921 8l-9 -182h-921zM93 567l10 190l361 -2l16 299h195l-16 -299l364 -1l-9 -183l-364 -2l-17 -315h-195l17 314z" />
<glyph unicode="&#xb2;" horiz-adv-x="770" d="M102 618q4 71 24 125t50.5 97.5t69.5 80.5t81 73q45 39 73.5 75.5t44.5 69t21.5 59.5t5.5 47q0 55 -27 80.5t-69 25.5q-20 0 -42 -8.5t-30 -21.5q14 -13 19 -33t5 -33t-5.5 -30.5t-18.5 -33t-33 -26.5t-49 -11q-46 0 -69.5 29.5t-23.5 72.5q0 31 19.5 68t57 68.5t92.5 53 t127 21.5q50 0 98 -11t85.5 -34.5t60 -61.5t22.5 -92q0 -44 -13 -80t-36.5 -66t-54.5 -57.5t-66.5 -55t-74.5 -58t-77 -66.5q-29 -27 -47.5 -49t-33.5 -49l248 -5q13 0 24.5 2.5t20 10.5t13.5 23t6 40h97l-24 -240h-571z" />
<glyph unicode="&#xb3;" horiz-adv-x="747" d="M89 797q1 22 9.5 43t22.5 37t33.5 26t42.5 11q28 1 46.5 -8t29.5 -24t15 -33.5t3 -36.5q0 -6 -2 -15t-6 -19.5t-10 -20.5t-15 -17q7 -10 18.5 -17t24.5 -11t25 -6t20 -2q31 0 57 11t45 30t30 45t13 56q3 65 -40.5 106t-124.5 42q-16 0 -36.5 -1t-32.5 -2l6 110l36 -2 t35 -1q39 0 66.5 13.5t45.5 34t26.5 45.5t9.5 49q2 55 -27 87.5t-81 32.5q-27 0 -46 -9t-27 -16q16 -14 21 -35t4 -32q-1 -14 -7 -31t-18.5 -32t-32 -25t-47.5 -9q-47 2 -72 30.5t-23 73.5q1 29 19.5 63t54 62.5t88.5 47.5t125 19q59 0 109 -13t85.5 -40t54.5 -67.5 t16 -94.5q-2 -30 -15 -58.5t-35 -53t-50.5 -43t-61.5 -26.5l-1 -2q96 -19 139.5 -72.5t43.5 -129.5q0 -57 -22.5 -106t-66.5 -85t-109 -57t-150 -21q-63 0 -112.5 17t-83 44.5t-50.5 63.5t-15 74z" />
<glyph unicode="&#xb4;" horiz-adv-x="597" d="M93 1241l182 286q17 26 41 45t51 26.5t53.5 3t49.5 -25.5q24 -21 30.5 -48.5t1 -55.5t-21.5 -54t-38 -44l-260 -216z" />
<glyph unicode="&#xb6;" horiz-adv-x="1141" d="M95 1125q4 79 33.5 137t75.5 96t103 57t116 19h593l-107 -1956h-225l98 1814l-192 -2q-8 -137 -16 -287t-16.5 -305.5t-17.5 -314.5t-17.5 -314.5t-16.5 -305t-15 -285.5h-227l76 1343q-49 9 -95 29t-80.5 56t-54 89.5t-15.5 129.5z" />
<glyph unicode="&#xb7;" horiz-adv-x="465" d="M88 697q2 33 15.5 62.5t35.5 51.5t49.5 34.5t57.5 12.5q32 0 58.5 -12.5t45 -34.5t28 -51.5t7.5 -62.5t-13.5 -62t-31.5 -50.5t-47.5 -34t-60.5 -12.5q-34 0 -61 12.5t-46 34t-29 50.5t-8 62z" />
<glyph unicode="&#xb8;" horiz-adv-x="676" d="M92 -424q16 3 41 8t53 12.5t56.5 17.5t51.5 23.5t38 30.5t16 38q1 26 -15 37.5t-39 12t-47.5 -7.5t-39.5 -20l-75 32l77 260h156l-69 -161h2q13 7 31.5 13t38.5 10.5t39 6.5t33 2q32 -1 59 -9.5t46 -26t29 -44t8 -63.5q-3 -48 -28 -85.5t-65.5 -66.5t-91 -50.5 t-103 -36.5t-102.5 -24.5t-90 -14.5z" />
<glyph unicode="&#xb9;" horiz-adv-x="565" d="M84 1271l304 196h71l-35 -658q-2 -32 -4.5 -61t-4.5 -44l88 3l-5 -90h-359l4 77q19 1 34.5 4t27 13t18 30t8.5 55l24 471l-135 -76z" />
<glyph unicode="&#xba;" horiz-adv-x="754" d="M97 1065q0 81 24.5 153.5t70 128t109.5 88t143 32.5q58 0 109 -21t89.5 -61t61 -98t22.5 -131q0 -80 -24.5 -154t-69.5 -131t-109 -91t-144 -34q-71 0 -123.5 25.5t-88 69t-53 101.5t-17.5 123zM312 1085q0 -52 4.5 -94.5t14.5 -73t25.5 -47t38.5 -16.5q29 0 50.5 22 t36 59t21.5 86.5t7 104.5q0 112 -18.5 174.5t-63.5 62.5q-26 0 -47.5 -20t-36.5 -57t-23.5 -88t-8.5 -113z" />
<glyph unicode="&#xbb;" horiz-adv-x="1003" d="M54 191l228 355v3l-188 356l89 70l326 -397l-2 -47l-371 -409zM298 55l413 507v2l-354 486l90 84l512 -551l-2 -48l-577 -569z" />
<glyph unicode="&#xbc;" horiz-adv-x="1597" d="M100 1271l304 196h71l-35 -658q-2 -32 -4.5 -61t-4.5 -44l88 3l-5 -90h-359l4 77q19 1 34.5 4t27 13t18 30t8.5 55l24 471l-135 -76zM256 63l977 1404l130 -106l-983 -1394zM876 200l6 119l-1 1l463 522h71l-28 -531l121 -2l-6 -113l-121 1l-1 -13q-2 -32 -4.5 -61 t-4.5 -44l88 3l-5 -90h-363l4 77q19 1 35 4t27.5 13t18.5 30t9 55l1 27zM1018 317l178 -3l22 244h-2z" />
<glyph unicode="&#xbd;" horiz-adv-x="1672" d="M100 1271l304 196h71l-35 -658q-2 -32 -4.5 -61t-4.5 -44l88 3l-5 -90h-359l4 77q19 1 34.5 4t27 13t18 30t8.5 55l24 471l-135 -76zM246 63l977 1404l130 -106l-983 -1394zM977 -9q4 71 24 125t50.5 97.5t69.5 80.5t81 73q45 39 73.5 75.5t44.5 69t21.5 59.5t5.5 47 q0 55 -27 80.5t-69 25.5q-20 0 -42 -8.5t-30 -21.5q14 -13 19 -33t5 -33t-5.5 -30.5t-18.5 -33t-33 -26.5t-49 -11q-46 0 -69.5 29.5t-23.5 72.5q0 31 19.5 68t57 68.5t92.5 53t127 21.5q50 0 98 -11t85.5 -34.5t60 -61.5t22.5 -92q0 -44 -13 -80t-36.5 -66t-54.5 -57.5 t-66.5 -55t-74.5 -58t-77 -66.5q-29 -27 -47.5 -49t-33.5 -49l248 -5q13 0 24.5 2.5t20 10.5t13.5 23t6 40h97l-24 -240h-571z" />
<glyph unicode="&#xbe;" horiz-adv-x="1761" d="M84 797q1 22 9.5 43t22.5 37t33.5 26t42.5 11q28 1 46.5 -8t29.5 -24t15 -33.5t3 -36.5q0 -6 -2 -15t-6 -19.5t-10 -20.5t-15 -17q7 -10 18.5 -17t24.5 -11t25 -6t20 -2q31 0 57 11t45 30t30 45t13 56q3 65 -40.5 106t-124.5 42q-16 0 -36.5 -1t-32.5 -2l6 110l36 -2 t35 -1q39 0 66.5 13.5t45.5 34t26.5 45.5t9.5 49q2 55 -27 87.5t-81 32.5q-27 0 -46 -9t-27 -16q16 -14 21 -35t4 -32q-1 -14 -7 -31t-18.5 -32t-32 -25t-47.5 -9q-47 2 -72 30.5t-23 73.5q1 29 19.5 63t54 62.5t88.5 47.5t125 19q59 0 109 -13t85.5 -40t54.5 -67.5 t16 -94.5q-2 -30 -15 -58.5t-35 -53t-50.5 -43t-61.5 -26.5l-1 -2q96 -19 139.5 -72.5t43.5 -129.5q0 -57 -22.5 -106t-66.5 -85t-109 -57t-150 -21q-63 0 -112.5 17t-83 44.5t-50.5 63.5t-15 74zM387 63l977 1404l130 -106l-983 -1394zM1047 200l6 119l-1 1l463 522h71 l-28 -531l121 -2l-6 -113l-121 1l-1 -13q-2 -32 -4.5 -61t-4.5 -44l88 3l-5 -90h-363l4 77q19 1 35 4t27.5 13t18.5 30t9 55l1 27zM1189 317l178 -3l22 244h-2z" />
<glyph unicode="&#xbf;" horiz-adv-x="979" d="M16 -117q4 72 38.5 133t84.5 113.5t108 97t107 83.5t82.5 73.5t35.5 67.5q1 17 -7 30.5t-25 21.5t-44 8.5t-65 -8.5l-27 105q27 14 55 22.5t55 13.5t51.5 7t43.5 2q33 0 64.5 -7.5t55.5 -24.5t38 -44t12 -66q-1 -25 -9 -48t-27.5 -51t-54 -64.5t-89.5 -87.5 q-38 -36 -70.5 -71t-57.5 -74.5t-40.5 -85.5t-18.5 -105q-2 -48 4.5 -89t26 -71t53 -47t85.5 -17q25 0 49.5 6t45.5 15.5t37.5 21t26.5 23.5q-10 11 -16.5 25.5t-10.5 30t-5.5 30.5t-0.5 25q2 21 12.5 44.5t29 43t45 32t62.5 10.5q63 -3 93.5 -44t27.5 -102q-3 -55 -38 -109 t-94.5 -97.5t-139 -70.5t-171.5 -27q-122 0 -203.5 28t-130.5 74t-68 104.5t-16 119.5zM351 898q2 33 16 62t36 50.5t50 34t57 12.5q30 0 56 -12.5t45 -34t29 -50.5t8 -62q-1 -33 -15 -62.5t-35.5 -51.5t-49 -34.5t-57.5 -12.5q-32 0 -58.5 12.5t-45 34.5t-28 51.5 t-8.5 62.5z" />
<glyph unicode="&#xc0;" d="M-24 0l7 141q42 0 73 19.5t54.5 51.5t42.5 74.5t39 88.5l457 1095h137l379 -1116q5 -15 12.5 -40t14.5 -53.5t12.5 -57t7.5 -51.5l118 6l-8 -158h-547l7 135q43 0 66.5 13.5t32 38t4.5 57.5t-16 72l-36 112l-449 -8l-38 -96q-6 -14 -14.5 -35t-18.5 -44.5t-20.5 -46 t-19.5 -40.5l150 6l-9 -164h-438zM438 1879.5q3 26.5 24 52.5q20 25 46 34t53 5t53 -18.5t46 -36.5l223 -239l-79 -101l-288 172q-24 15 -43 35.5t-28.5 45t-6.5 51zM444 573h345l-80 257q-23 74 -40 148t-24 131h-2q-8 -35 -32 -104t-62 -166z" />
<glyph unicode="&#xc1;" d="M-24 0l7 141q42 0 73 19.5t54.5 51.5t42.5 74.5t39 88.5l457 1095h137l379 -1116q5 -15 12.5 -40t14.5 -53.5t12.5 -57t7.5 -51.5l118 6l-8 -158h-547l7 135q43 0 66.5 13.5t32 38t4.5 57.5t-16 72l-36 112l-449 -8l-38 -96q-6 -14 -14.5 -35t-18.5 -44.5t-20.5 -46 t-19.5 -40.5l150 6l-9 -164h-438zM444 573h345l-80 257q-23 74 -40 148t-24 131h-2q-8 -35 -32 -104t-62 -166zM631 1675l249 242q22 22 50 36.5t55.5 18t52.5 -5.5t42 -34q18 -26 18 -52.5t-11.5 -51t-32.5 -45t-46 -35.5l-308 -172z" />
<glyph unicode="&#xc2;" d="M-24 0l7 141q42 0 73 19.5t54.5 51.5t42.5 74.5t39 88.5l457 1095h137l379 -1116q5 -15 12.5 -40t14.5 -53.5t12.5 -57t7.5 -51.5l118 6l-8 -158h-547l7 135q43 0 66.5 13.5t32 38t4.5 57.5t-16 72l-36 112l-449 -8l-38 -96q-6 -14 -14.5 -35t-18.5 -44.5t-20.5 -46 t-19.5 -40.5l150 6l-9 -164h-438zM298 1681l434 307h40l384 -307l-57 -85l-367 179l-394 -176zM444 573h345l-80 257q-23 74 -40 148t-24 131h-2q-8 -35 -32 -104t-62 -166z" />
<glyph unicode="&#xc3;" d="M-24 0l7 141q42 0 73 19.5t54.5 51.5t42.5 74.5t39 88.5l457 1095h137l379 -1116q5 -15 12.5 -40t14.5 -53.5t12.5 -57t7.5 -51.5l118 6l-8 -158h-547l7 135q43 0 66.5 13.5t32 38t4.5 57.5t-16 72l-36 112l-449 -8l-38 -96q-6 -14 -14.5 -35t-18.5 -44.5t-20.5 -46 t-19.5 -40.5l150 6l-9 -164h-438zM298 1702q23 57 55.5 98t70 67t77 38.5t76.5 12.5q51 0 89.5 -16t72 -34.5t66.5 -34.5t72 -16q21 0 45.5 8.5t48.5 25t46 40t37 52.5l106 -54q-27 -80 -61.5 -129.5t-70.5 -77t-72.5 -37.5t-68.5 -10q-48 0 -85 16t-71 34.5t-69 34.5 t-77 16q-20 0 -43 -4t-47.5 -15t-48 -30.5t-44.5 -49.5zM444 573h345l-80 257q-23 74 -40 148t-24 131h-2q-8 -35 -32 -104t-62 -166z" />
<glyph unicode="&#xc4;" d="M-24 0l7 141q42 0 73 19.5t54.5 51.5t42.5 74.5t39 88.5l457 1095h137l379 -1116q5 -15 12.5 -40t14.5 -53.5t12.5 -57t7.5 -51.5l118 6l-8 -158h-547l7 135q43 0 66.5 13.5t32 38t4.5 57.5t-16 72l-36 112l-449 -8l-38 -96q-6 -14 -14.5 -35t-18.5 -44.5t-20.5 -46 t-19.5 -40.5l150 6l-9 -164h-438zM414 1777q0 34 11.5 64t31 52.5t45.5 36t54 13.5q27 0 49.5 -11.5t38.5 -31t24.5 -46t8.5 -56.5q0 -33 -11 -63t-30 -53t-44.5 -36.5t-54.5 -13.5q-27 0 -49.5 11t-39 30.5t-25.5 46t-9 57.5zM444 573h345l-80 257q-23 74 -40 148t-24 131 h-2q-8 -35 -32 -104t-62 -166zM771 1777q0 34 11.5 64t31 52.5t45.5 36t54 13.5q27 0 49.5 -11.5t38.5 -31t24.5 -46t8.5 -56.5q0 -33 -11 -63.5t-30 -53t-44.5 -36t-54.5 -13.5q-27 0 -49.5 11t-39 30.5t-25.5 46t-9 57.5z" />
<glyph unicode="&#xc5;" d="M-24 0l7 141q42 0 73 19.5t54.5 51.5t42.5 74.5t39 88.5l457 1095h137l379 -1116q5 -15 12.5 -40t14.5 -53.5t12.5 -57t7.5 -51.5l118 6l-8 -158h-547l7 135q43 0 66.5 13.5t32 38t4.5 57.5t-16 72l-36 112l-449 -8l-38 -96q-6 -14 -14.5 -35t-18.5 -44.5t-20.5 -46 t-19.5 -40.5l150 6l-9 -164h-438zM444 573h345l-80 257q-23 74 -40 148t-24 131h-2q-8 -35 -32 -104t-62 -166zM457 1851q0 59 24 107.5t62.5 83.5t87 54.5t97.5 19.5q48 0 97 -16t88.5 -48t64.5 -81t25 -116q0 -62 -24.5 -110.5t-63.5 -82.5t-87.5 -51.5t-96.5 -17.5 q-50 0 -99 15t-88 46.5t-63 80.5t-24 116zM634 1868q0 -80 28 -125t75 -45q35 0 61.5 33t26.5 99q0 88 -25.5 135t-71.5 47q-26 0 -44 -13.5t-29 -34.5t-16 -46.5t-5 -49.5z" />
<glyph unicode="&#xc6;" horiz-adv-x="1906" d="M-49 0l7 135q36 0 70 20t66 51t61.5 69.5t57.5 74.5l710 930v2l-154 -6l8 158h1020l-9 -397h-135q4 83 -16.5 135t-55 81t-78 39t-85.5 9l-74 -2q-32 -1 -58 -6.5t-44.5 -23.5t-29.5 -53t-14 -95l-16 -307h241v177h158l-26 -498h-135q3 64 -11 101t-40 55t-62.5 21.5 t-78.5 2.5l-54 -1l-17 -336q-2 -28 -4 -54.5t-4 -50.5t-4.5 -43.5t-5.5 -32.5l275 1q45 0 90.5 15t83 49.5t62 91t29.5 139.5h135l-36 -451h-1076l7 135q34 2 61.5 7t47.5 22t31.5 52t14.5 97l5 111q-95 -2 -199 -5t-201 -5l-78 -105q-35 -48 -69 -89.5t-69 -66.5v-2l164 7 l-8 -158h-458zM576 565h301l35 461h-2q-20 -32 -34.5 -54t-30.5 -45t-37 -51.5t-54 -72.5z" />
<glyph unicode="&#xc7;" horiz-adv-x="1419" d="M79 696q5 93 30 186.5t69.5 179t108 159.5t146 129t183.5 86t220 31q40 0 84.5 -6.5t89.5 -19.5t89 -31.5t84 -43.5h2l-3 87h158l-25 -479h-134q-19 173 -100.5 263t-225.5 91q-107 0 -189.5 -50.5t-140 -133.5t-89 -189t-37.5 -217q-7 -133 16 -245.5t74.5 -194.5 t130 -128.5t182.5 -47.5q61 0 126 14t129.5 45t125 79t112.5 116l81 -81q-80 -104 -165.5 -168t-168 -99.5t-159.5 -48t-140 -12.5h-13.5t-12.5 1l-46 -106h2q13 7 31.5 13t38.5 10.5t39 6.5t33 2q32 -1 59.5 -11t47.5 -28.5t31 -46.5t9 -65q-3 -48 -29 -87.5t-66.5 -72 t-92 -57t-105 -42.5t-104 -30t-90.5 -17l-10 112q16 3 41.5 9.5t53.5 16.5t56.5 23t51.5 29t38 34.5t16 39.5q1 28 -14.5 39.5t-38.5 11.5t-47.5 -9.5t-40.5 -21.5l-83 32l67 235q-119 28 -212 93.5t-156 158.5t-94 209.5t-24 246.5z" />
<glyph unicode="&#xc8;" horiz-adv-x="1276" d="M72 0l7 135q34 2 61.5 7t47.5 22t31.5 52t14.5 97l41 785q1 28 3.5 55t4.5 51.5t4.5 44.5t5.5 33l-154 -6l8 158h1020l-9 -397h-135q4 83 -16.5 135t-55 81t-78 39t-85.5 9l-74 -2q-32 -1 -58 -6.5t-44.5 -23.5t-29.5 -53t-14 -95l-16 -307h241v177h158l-26 -498h-135 q3 64 -11 101t-40 55t-62.5 21.5t-78.5 2.5l-54 -1l-17 -336q-2 -28 -4 -54.5t-4 -50.5t-4.5 -43.5t-5.5 -32.5l275 1q45 0 90.5 15t83 49.5t62 91t29.5 139.5h135l-36 -451h-1076zM497 1879.5q3 26.5 24 52.5q20 25 46 34t53 5t53 -18.5t46 -36.5l223 -239l-79 -101 l-288 172q-24 15 -43 35.5t-28.5 45t-6.5 51z" />
<glyph unicode="&#xc9;" horiz-adv-x="1276" d="M72 0l7 135q34 2 61.5 7t47.5 22t31.5 52t14.5 97l41 785q1 28 3.5 55t4.5 51.5t4.5 44.5t5.5 33l-154 -6l8 158h1020l-9 -397h-135q4 83 -16.5 135t-55 81t-78 39t-85.5 9l-74 -2q-32 -1 -58 -6.5t-44.5 -23.5t-29.5 -53t-14 -95l-16 -307h241v177h158l-26 -498h-135 q3 64 -11 101t-40 55t-62.5 21.5t-78.5 2.5l-54 -1l-17 -336q-2 -28 -4 -54.5t-4 -50.5t-4.5 -43.5t-5.5 -32.5l275 1q45 0 90.5 15t83 49.5t62 91t29.5 139.5h135l-36 -451h-1076zM578 1675l249 242q22 22 50 36.5t55.5 18t52.5 -5.5t42 -34q18 -26 18 -52.5t-11.5 -51 t-32.5 -45t-46 -35.5l-308 -172z" />
<glyph unicode="&#xca;" horiz-adv-x="1276" d="M72 0l7 135q34 2 61.5 7t47.5 22t31.5 52t14.5 97l41 785q1 28 3.5 55t4.5 51.5t4.5 44.5t5.5 33l-154 -6l8 158h1020l-9 -397h-135q4 83 -16.5 135t-55 81t-78 39t-85.5 9l-74 -2q-32 -1 -58 -6.5t-44.5 -23.5t-29.5 -53t-14 -95l-16 -307h241v177h158l-26 -498h-135 q3 64 -11 101t-40 55t-62.5 21.5t-78.5 2.5l-54 -1l-17 -336q-2 -28 -4 -54.5t-4 -50.5t-4.5 -43.5t-5.5 -32.5l275 1q45 0 90.5 15t83 49.5t62 91t29.5 139.5h135l-36 -451h-1076zM306 1681l434 307h40l384 -307l-57 -85l-367 179l-394 -176z" />
<glyph unicode="&#xcb;" horiz-adv-x="1276" d="M72 0l7 135q34 2 61.5 7t47.5 22t31.5 52t14.5 97l41 785q1 28 3.5 55t4.5 51.5t4.5 44.5t5.5 33l-154 -6l8 158h1020l-9 -397h-135q4 83 -16.5 135t-55 81t-78 39t-85.5 9l-74 -2q-32 -1 -58 -6.5t-44.5 -23.5t-29.5 -53t-14 -95l-16 -307h241v177h158l-26 -498h-135 q3 64 -11 101t-40 55t-62.5 21.5t-78.5 2.5l-54 -1l-17 -336q-2 -28 -4 -54.5t-4 -50.5t-4.5 -43.5t-5.5 -32.5l275 1q45 0 90.5 15t83 49.5t62 91t29.5 139.5h135l-36 -451h-1076zM437 1777q0 34 11.5 64t31 52.5t45.5 36t54 13.5q27 0 49.5 -11.5t38.5 -31t24.5 -46 t8.5 -56.5q0 -33 -11 -63t-30 -53t-44.5 -36.5t-54.5 -13.5q-27 0 -49.5 11t-39 30.5t-25.5 46t-9 57.5zM794 1777q0 34 11.5 64t31 52.5t45.5 36t54 13.5q27 0 49.5 -11.5t38.5 -31t24.5 -46t8.5 -56.5q0 -33 -11 -63.5t-30 -53t-44.5 -36t-54.5 -13.5q-27 0 -49.5 11 t-39 30.5t-25.5 46t-9 57.5z" />
<glyph unicode="&#xcc;" horiz-adv-x="787" d="M72 0l7 135q34 2 61.5 7t47.5 22t31.5 52t14.5 97l41 785q1 28 3.5 55t4.5 51.5t4.5 44.5t5.5 33l-154 -6l8 158h583l-7 -135q-35 -2 -62 -7t-47 -22t-31.5 -52t-14.5 -97l-41 -785q-2 -28 -4 -55t-4 -51.5t-4.5 -44.5t-5.5 -33l154 6l-8 -158h-583zM88 1879.5 q3 26.5 24 52.5q20 25 46 34t53 5t53 -18.5t46 -36.5l223 -239l-79 -101l-288 172q-24 15 -43 35.5t-28.5 45t-6.5 51z" />
<glyph unicode="&#xcd;" horiz-adv-x="788" d="M72 0l7 135q34 2 61.5 7t47.5 22t31.5 52t14.5 97l41 785q1 28 3.5 55t4.5 51.5t4.5 44.5t5.5 33l-154 -6l8 158h583l-7 -135q-35 -2 -62 -7t-47 -22t-31.5 -52t-14.5 -97l-41 -785q-2 -28 -4 -55t-4 -51.5t-4.5 -44.5t-5.5 -33l154 6l-8 -158h-583zM312 1675l249 242 q22 22 50 36.5t55.5 18t52.5 -5.5t42 -34q18 -26 18 -52.5t-11.5 -51t-32.5 -45t-46 -35.5l-308 -172z" />
<glyph unicode="&#xce;" horiz-adv-x="788" d="M30 1681l424 307h40l374 -307l-57 -85l-357 179l-384 -176zM72 0l7 135q34 2 61.5 7t47.5 22t31.5 52t14.5 97l41 785q1 28 3.5 55t4.5 51.5t4.5 44.5t5.5 33q-17 -1 -39 -2l-44 -2t-41 -1.5t-30 -0.5l8 158h583l-7 -135q-35 -2 -62 -7t-47 -22t-31.5 -52t-14.5 -97 l-41 -785q-2 -28 -4 -55t-4 -51.5t-4.5 -44.5t-5.5 -33l154 6l-8 -158h-583z" />
<glyph unicode="&#xcf;" horiz-adv-x="788" d="M72 0l7 135q34 2 61.5 7t47.5 22t31.5 52t14.5 97l41 785q1 28 3.5 55t4.5 51.5t4.5 44.5t5.5 33l-154 -6l8 158h583l-7 -135q-35 -2 -62 -7t-47 -22t-31.5 -52t-14.5 -97l-41 -785q-2 -28 -4 -55t-4 -51.5t-4.5 -44.5t-5.5 -33l154 6l-8 -158h-583zM155 1777 q0 34 11.5 64t31 52.5t45.5 36t54 13.5q27 0 49.5 -11.5t38.5 -31t24.5 -46t8.5 -56.5q0 -33 -11 -63t-30 -53t-44.5 -36.5t-54.5 -13.5q-27 0 -49.5 11t-39 30.5t-25.5 46t-9 57.5zM512 1777q0 34 11.5 64t31 52.5t45.5 36t54 13.5q27 0 49.5 -11.5t38.5 -31t24.5 -46 t8.5 -56.5q0 -33 -11 -63.5t-30 -53t-44.5 -36t-54.5 -13.5q-27 0 -49.5 11t-39 30.5t-25.5 46t-9 57.5z" />
<glyph unicode="&#xd0;" horiz-adv-x="1546" d="M48 618l10 201h202l15 279q1 28 3.5 55t4.5 51.5t4.5 44.5t5.5 33q-17 -1 -39 -2l-44 -2t-41 -1.5t-30 -0.5l8 158l592 2q135 0 243.5 -28t192.5 -78t144 -118t97 -146.5t52.5 -164t11.5 -170.5q-4 -83 -27 -169.5t-67 -168t-110.5 -153t-156.5 -125t-206 -84.5t-259 -31 h-582l7 135q34 2 61.5 7t47.5 22t31.5 52t14.5 97l16 309zM509 152q15 1 40.5 1t54 -1t56 -1.5t45.5 -0.5q112 0 195 45.5t139 121t86 172.5t35 199q8 157 -18.5 271t-83 188.5t-140.5 111.5t-190 40q-38 1 -66.5 -4t-48.5 -23t-31 -53t-14 -94l-17 -306h208l-10 -187 l-208 -4l-15 -292q-1 -28 -3 -55t-4 -51.5t-4.5 -44.5t-5.5 -33z" />
<glyph unicode="&#xd1;" horiz-adv-x="1581" d="M74 0l8 135q34 2 61.5 7t47 22t31.5 52t15 97l36 785q1 28 3.5 55t4.5 51.5t4.5 44.5t5.5 33l-155 -6l9 158h321q633 -860 663.5 -907.5t53.5 -82.5h2l34 654q1 28 3.5 55t4.5 51.5t4.5 44.5t5.5 33l-155 -6l9 158h466l-7 -135q-35 -2 -62.5 -7t-47 -22t-31.5 -52 t-15 -97l-60 -1141h-174l-611 842q-24 34 -51 72.5t-53 80.5h-2l-30 -639q-2 -28 -4 -55t-4 -51.5t-4.5 -44.5t-5.5 -33l155 6l-9 -158h-467zM422 1702q23 57 55.5 98t70 67t77 38.5t76.5 12.5q51 0 89.5 -16t72 -34.5t66.5 -34.5t72 -16q21 0 45.5 8.5t48.5 25t46 40 t37 52.5l106 -54q-27 -80 -61.5 -129.5t-70.5 -77t-72.5 -37.5t-68.5 -10q-48 0 -85 16t-71 34.5t-69 34.5t-77 16q-20 0 -43 -4t-47.5 -15t-48 -30.5t-44.5 -49.5z" />
<glyph unicode="&#xd2;" horiz-adv-x="1560" d="M81 717q4 86 27.5 175t67 172t105.5 156.5t144.5 128.5t184 86.5t222.5 31.5q124 0 223 -32t174 -87t127.5 -128.5t85 -156.5t45 -172t8.5 -174t-28 -173.5t-66.5 -171.5t-104.5 -157t-144 -129t-183 -87t-222 -32q-130 0 -231 31t-176.5 84.5t-127 126t-82.5 156 t-42.5 173.5t-6.5 179zM397 741q-4 -64 1.5 -136t21.5 -142.5t45 -135t72 -114t102 -78.5t137 -28q71 0 127.5 25.5t100 68.5t75.5 100t53.5 121t33 130.5t14.5 129.5q7 141 -12 260t-65.5 205.5t-122.5 134.5t-183 45q-70 -2 -126 -28.5t-99.5 -70.5t-75 -102t-52.5 -122.5 t-32.5 -132t-14.5 -130.5zM590 1879.5q3 26.5 24 52.5q20 25 46 34t53 5t53 -18.5t46 -36.5l223 -239l-79 -101l-288 172q-24 15 -43 35.5t-28.5 45t-6.5 51z" />
<glyph unicode="&#xd3;" horiz-adv-x="1560" d="M81 717q4 86 27.5 175t67 172t105.5 156.5t144.5 128.5t184 86.5t222.5 31.5q124 0 223 -32t174 -87t127.5 -128.5t85 -156.5t45 -172t8.5 -174t-28 -173.5t-66.5 -171.5t-104.5 -157t-144 -129t-183 -87t-222 -32q-130 0 -231 31t-176.5 84.5t-127 126t-82.5 156 t-42.5 173.5t-6.5 179zM397 741q-4 -64 1.5 -136t21.5 -142.5t45 -135t72 -114t102 -78.5t137 -28q71 0 127.5 25.5t100 68.5t75.5 100t53.5 121t33 130.5t14.5 129.5q7 141 -12 260t-65.5 205.5t-122.5 134.5t-183 45q-70 -2 -126 -28.5t-99.5 -70.5t-75 -102t-52.5 -122.5 t-32.5 -132t-14.5 -130.5zM691 1675l249 242q22 22 50 36.5t55.5 18t52.5 -5.5t42 -34q18 -26 18 -52.5t-11.5 -51t-32.5 -45t-46 -35.5l-308 -172z" />
<glyph unicode="&#xd4;" horiz-adv-x="1560" d="M81 717q4 86 27.5 175t67 172t105.5 156.5t144.5 128.5t184 86.5t222.5 31.5q124 0 223 -32t174 -87t127.5 -128.5t85 -156.5t45 -172t8.5 -174t-28 -173.5t-66.5 -171.5t-104.5 -157t-144 -129t-183 -87t-222 -32q-130 0 -231 31t-176.5 84.5t-127 126t-82.5 156 t-42.5 173.5t-6.5 179zM397 741q-4 -64 1.5 -136t21.5 -142.5t45 -135t72 -114t102 -78.5t137 -28q71 0 127.5 25.5t100 68.5t75.5 100t53.5 121t33 130.5t14.5 129.5q7 141 -12 260t-65.5 205.5t-122.5 134.5t-183 45q-70 -2 -126 -28.5t-99.5 -70.5t-75 -102t-52.5 -122.5 t-32.5 -132t-14.5 -130.5zM460 1681l434 307h40l384 -307l-57 -85l-367 179l-394 -176z" />
<glyph unicode="&#xd5;" horiz-adv-x="1560" d="M81 717q4 86 27.5 175t67 172t105.5 156.5t144.5 128.5t184 86.5t222.5 31.5q124 0 223 -32t174 -87t127.5 -128.5t85 -156.5t45 -172t8.5 -174t-28 -173.5t-66.5 -171.5t-104.5 -157t-144 -129t-183 -87t-222 -32q-130 0 -231 31t-176.5 84.5t-127 126t-82.5 156 t-42.5 173.5t-6.5 179zM397 741q-4 -64 1.5 -136t21.5 -142.5t45 -135t72 -114t102 -78.5t137 -28q71 0 127.5 25.5t100 68.5t75.5 100t53.5 121t33 130.5t14.5 129.5q7 141 -12 260t-65.5 205.5t-122.5 134.5t-183 45q-70 -2 -126 -28.5t-99.5 -70.5t-75 -102t-52.5 -122.5 t-32.5 -132t-14.5 -130.5zM458 1702q23 57 55.5 98t70 67t77 38.5t76.5 12.5q51 0 89.5 -16t72 -34.5t66.5 -34.5t72 -16q21 0 45.5 8.5t48.5 25t46 40t37 52.5l106 -54q-27 -80 -61.5 -129.5t-70.5 -77t-72.5 -37.5t-68.5 -10q-48 0 -85 16t-71 34.5t-69 34.5t-77 16 q-20 0 -43 -4t-47.5 -15t-48 -30.5t-44.5 -49.5z" />
<glyph unicode="&#xd6;" horiz-adv-x="1560" d="M81 717q4 86 27.5 175t67 172t105.5 156.5t144.5 128.5t184 86.5t222.5 31.5q124 0 223 -32t174 -87t127.5 -128.5t85 -156.5t45 -172t8.5 -174t-28 -173.5t-66.5 -171.5t-104.5 -157t-144 -129t-183 -87t-222 -32q-130 0 -231 31t-176.5 84.5t-127 126t-82.5 156 t-42.5 173.5t-6.5 179zM397 741q-4 -64 1.5 -136t21.5 -142.5t45 -135t72 -114t102 -78.5t137 -28q71 0 127.5 25.5t100 68.5t75.5 100t53.5 121t33 130.5t14.5 129.5q7 141 -12 260t-65.5 205.5t-122.5 134.5t-183 45q-70 -2 -126 -28.5t-99.5 -70.5t-75 -102t-52.5 -122.5 t-32.5 -132t-14.5 -130.5zM587 1777q0 34 11.5 64t31 52.5t45.5 36t54 13.5q27 0 49.5 -11.5t38.5 -31t24.5 -46t8.5 -56.5q0 -33 -11 -63t-30 -53t-44.5 -36.5t-54.5 -13.5q-27 0 -49.5 11t-39 30.5t-25.5 46t-9 57.5zM944 1777q0 34 11.5 64t31 52.5t45.5 36t54 13.5 q27 0 49.5 -11.5t38.5 -31t24.5 -46t8.5 -56.5q0 -33 -11 -63.5t-30 -53t-44.5 -36t-54.5 -13.5q-27 0 -49.5 11t-39 30.5t-25.5 46t-9 57.5z" />
<glyph unicode="&#xd7;" horiz-adv-x="1103" d="M57 298l346 325l-309 323l162 151l307 -327l354 341l130 -147l-346 -336l313 -344l-160 -148l-316 345l-346 -332z" />
<glyph unicode="&#xd8;" horiz-adv-x="1559" d="M81 717q4 86 27.5 175t67 172t105.5 156.5t144.5 128.5t184 86.5t222.5 31.5q90 0 165.5 -17t139.5 -47l128 201l157 -101l-132 -207q58 -56 99 -125t65.5 -145t34.5 -154.5t6 -154.5q-4 -85 -28 -173.5t-66.5 -171.5t-104.5 -157t-144 -129t-183 -87t-222 -32 q-81 0 -150 12t-128 35l-143 -223l-147 102l133 210q-68 55 -114 125.5t-73.5 151t-38 166.5t-5.5 171zM396 642.5q2 -51.5 9.5 -103.5t21 -103.5t34.5 -98.5l573 903q-45 44 -104 66.5t-133 20.5q-70 -2 -126 -28.5t-99.5 -70.5t-75 -102t-52.5 -122.5t-32.5 -132 t-14.5 -130.5q-3 -47 -1 -98.5zM573 177q40 -33 90 -52t113 -18q71 0 127.5 25.5t100 68.5t75.5 100t53.5 121t33 130.5t14.5 129.5q5 109 -5 204.5t-36 174.5z" />
<glyph unicode="&#xd9;" horiz-adv-x="1547" d="M89 1276l8 158h584l-7 -135q-35 -2 -62 -7t-47 -22t-31.5 -52t-14.5 -97l-30 -563q-7 -129 16.5 -212t66.5 -132t100.5 -69t119.5 -22q84 -3 152 22.5t117 80t78 138.5t35 197l28 537q1 28 3.5 55t4.5 51.5t4.5 44.5t5.5 33l-154 -6l8 158h474l-7 -135q-35 -2 -62 -7 t-47 -22t-31.5 -52t-14.5 -97l-27 -513q-9 -177 -59 -299t-131 -198t-187.5 -110t-229.5 -34q-115 0 -202.5 22.5t-150.5 64t-103.5 99.5t-63.5 128.5t-30.5 151.5t-2.5 169l26 496q1 28 3.5 55t4.5 51.5t4.5 44.5t5.5 33zM501 1879.5q3 26.5 24 52.5q20 25 46 34t53 5 t53 -18.5t46 -36.5l223 -239l-79 -101l-288 172q-24 15 -43 35.5t-28.5 45t-6.5 51z" />
<glyph unicode="&#xda;" horiz-adv-x="1547" d="M89 1276l8 158h584l-7 -135q-35 -2 -62 -7t-47 -22t-31.5 -52t-14.5 -97l-30 -563q-7 -129 16.5 -212t66.5 -132t100.5 -69t119.5 -22q84 -3 152 22.5t117 80t78 138.5t35 197l28 537q1 28 3.5 55t4.5 51.5t4.5 44.5t5.5 33l-154 -6l8 158h474l-7 -135q-35 -2 -62 -7 t-47 -22t-31.5 -52t-14.5 -97l-27 -513q-9 -177 -59 -299t-131 -198t-187.5 -110t-229.5 -34q-115 0 -202.5 22.5t-150.5 64t-103.5 99.5t-63.5 128.5t-30.5 151.5t-2.5 169l26 496q1 28 3.5 55t4.5 51.5t4.5 44.5t5.5 33zM727 1675l249 242q22 22 50 36.5t55.5 18 t52.5 -5.5t42 -34q18 -26 18 -52.5t-11.5 -51t-32.5 -45t-46 -35.5l-308 -172z" />
<glyph unicode="&#xdb;" horiz-adv-x="1547" d="M89 1276l8 158h584l-7 -135q-35 -2 -62 -7t-47 -22t-31.5 -52t-14.5 -97l-30 -563q-7 -129 16.5 -212t66.5 -132t100.5 -69t119.5 -22q84 -3 152 22.5t117 80t78 138.5t35 197l28 537q1 28 3.5 55t4.5 51.5t4.5 44.5t5.5 33l-154 -6l8 158h474l-7 -135q-35 -2 -62 -7 t-47 -22t-31.5 -52t-14.5 -97l-27 -513q-9 -177 -59 -299t-131 -198t-187.5 -110t-229.5 -34q-115 0 -202.5 22.5t-150.5 64t-103.5 99.5t-63.5 128.5t-30.5 151.5t-2.5 169l26 496q1 28 3.5 55t4.5 51.5t4.5 44.5t5.5 33zM453 1681l434 307h40l384 -307l-57 -85l-367 179 l-394 -176z" />
<glyph unicode="&#xdc;" horiz-adv-x="1547" d="M89 1276l8 158h584l-7 -135q-35 -2 -62 -7t-47 -22t-31.5 -52t-14.5 -97l-30 -563q-7 -129 16.5 -212t66.5 -132t100.5 -69t119.5 -22q84 -3 152 22.5t117 80t78 138.5t35 197l28 537q1 28 3.5 55t4.5 51.5t4.5 44.5t5.5 33l-154 -6l8 158h474l-7 -135q-35 -2 -62 -7 t-47 -22t-31.5 -52t-14.5 -97l-27 -513q-9 -177 -59 -299t-131 -198t-187.5 -110t-229.5 -34q-115 0 -202.5 22.5t-150.5 64t-103.5 99.5t-63.5 128.5t-30.5 151.5t-2.5 169l26 496q1 28 3.5 55t4.5 51.5t4.5 44.5t5.5 33zM584 1777q0 34 11.5 64t31 52.5t45.5 36t54 13.5 q27 0 49.5 -11.5t38.5 -31t24.5 -46t8.5 -56.5q0 -33 -11 -63t-30 -53t-44.5 -36.5t-54.5 -13.5q-27 0 -49.5 11t-39 30.5t-25.5 46t-9 57.5zM941 1777q0 34 11.5 64t31 52.5t45.5 36t54 13.5q27 0 49.5 -11.5t38.5 -31t24.5 -46t8.5 -56.5q0 -33 -11 -63.5t-30 -53 t-44.5 -36t-54.5 -13.5q-27 0 -49.5 11t-39 30.5t-25.5 46t-9 57.5z" />
<glyph unicode="&#xdd;" horiz-adv-x="1362" d="M48 1276l8 158h598l-7 -135q-45 3 -79 -5.5t-52.5 -28.5t-19 -51t21.5 -73l143 -257q9 -16 20.5 -38t25.5 -50.5t27 -57.5t20 -51h3q11 23 37.5 72.5t68.5 127.5q155 275 171.5 302t33 52t30.5 41v2l-157 -8l8 158h452l-7 -135q-36 -6 -66 -20t-58.5 -39.5t-57 -65 t-61.5 -94.5l-294 -512l-12 -232q-2 -28 -4 -55t-4 -51.5t-4.5 -44.5t-5.5 -33l164 6l-8 -158h-593l7 135q34 2 61.5 7t47.5 22t31.5 52t14.5 97l10 179l-347 595q-14 24 -26.5 51t-22 53.5t-15 50t-4.5 40.5zM672 1675l249 242q22 22 50 36.5t55.5 18t52.5 -5.5t42 -34 q18 -26 18 -52.5t-11.5 -51t-32.5 -45t-46 -35.5l-308 -172z" />
<glyph unicode="&#xde;" horiz-adv-x="1290" d="M72 0l7 135q34 2 61.5 7t47.5 22t31.5 52t14.5 97l41 785q1 28 3.5 55t4.5 51.5t4.5 44.5t5.5 33l-154 -6l8 158h583l-7 -135q-31 -2 -56.5 -6t-44.5 -17t-31.5 -38t-18.5 -70l122 2q135 1 244.5 -20.5t185.5 -73t113.5 -135.5t27.5 -206q-6 -82 -47.5 -157t-117.5 -133 t-187 -94t-256 -40q-42 -2 -71.5 -1.5t-60.5 1.5q-3 -49 -7 -92.5t-9 -66.5l154 6l-8 -158h-583zM533 461q18 -2 36.5 -3t38.5 -1q169 0 251.5 74t90.5 223q3 66 -9.5 111.5t-35 75.5t-52 47t-60.5 25t-60 10t-50 2h-66.5t-53.5 -1z" />
<glyph unicode="&#xdf;" horiz-adv-x="1375" d="M-236 -407q0 18 7 40.5t22 42.5t39.5 33t59.5 12q23 -1 43 -10.5t34 -26.5t20.5 -39.5t2.5 -49.5q8 -5 26 -5q35 0 57.5 38t36 96t21 125.5t12.5 127.5q5 58 10.5 131.5t12 154.5t12.5 166t11.5 165.5t11 153t9.5 129.5l-163 -2l18 149h165q18 157 72 260t130.5 163.5 t166.5 84.5t180 24q45 0 95.5 -4.5t101 -16t96.5 -32t81.5 -53t56.5 -78t21 -106.5q0 -64 -27 -113t-67.5 -89t-88 -73t-88 -63t-67.5 -60t-27 -64q0 -18 2.5 -34t17.5 -35.5t48.5 -44.5t96.5 -61q51 -29 103 -61.5t95 -72t70 -89t27 -113.5q0 -69 -30.5 -127t-85.5 -100 t-130 -65.5t-163 -23.5q-74 0 -138.5 16.5t-113 47.5t-76.5 75t-28 99q0 31 10 57.5t28 45.5t42 29.5t51 10.5q36 0 63.5 -16t43.5 -42.5t18.5 -60t-12.5 -68.5q5 -11 18.5 -22t30.5 -19t35.5 -13t33.5 -5q45 0 74.5 11t46.5 29t24 41t7 47q0 28 -15.5 52t-42.5 46t-62.5 43 t-75.5 44q-71 40 -120 75.5t-79.5 70t-44.5 68.5t-14 72q0 49 17 88.5t45 73t63.5 62.5t72 56.5t71.5 55.5t61 59t40.5 67t11.5 80q-4 48 -23 78t-47 47.5t-61.5 24t-65.5 6.5q-65 0 -113 -20.5t-82.5 -56t-58 -83t-38 -100.5t-22.5 -108.5t-12 -108.5l-79 -955 q-14 -119 -46 -216.5t-85.5 -168t-130.5 -109t-182 -38.5q-94 0 -144.5 40t-50.5 108z" />
<glyph unicode="&#xe0;" horiz-adv-x="1125" d="M52 351q0 140 41 266t120 221.5t194 152t262 56.5q58 0 134 -11.5t161 -32.5q-7 -51 -17 -119t-20.5 -142.5t-20.5 -151t-18 -145.5t-13 -126t-5 -92q0 -37 9.5 -48.5t20.5 -11.5q12 0 24.5 8t26 27t27 50.5t26.5 77.5l111 -33q-9 -44 -29.5 -99.5t-55 -104.5t-84 -82.5 t-116.5 -33.5q-33 0 -63 8.5t-52.5 30t-36 57.5t-13.5 90q0 27 2 60.5t6 59.5h-2q-38 -89 -79 -148t-85.5 -94t-90.5 -49.5t-93 -14.5q-56 0 -105.5 22.5t-86 69t-58 117t-21.5 165.5zM331 339q0 -84 21 -132t57 -48q38 0 71 33.5t61.5 90t52 131t40.5 157t28.5 167 t15.5 161.5q-11 4 -36 8t-49 4q-58 0 -106 -36.5t-82.5 -108.5t-54 -179t-19.5 -248zM411.5 1474q-3.5 27 5 53.5t33.5 48.5q25 20 51.5 24.5t51 -3t45.5 -26t36 -44.5l159 -286l-99 -83l-232 219q-19 19 -33 44.5t-17.5 52.5z" />
<glyph unicode="&#xe1;" horiz-adv-x="1125" d="M52 351q0 140 41 266t120 221.5t194 152t262 56.5q58 0 134 -11.5t161 -32.5q-7 -51 -17 -119t-20.5 -142.5t-20.5 -151t-18 -145.5t-13 -126t-5 -92q0 -37 9.5 -48.5t20.5 -11.5q12 0 24.5 8t26 27t27 50.5t26.5 77.5l111 -33q-9 -44 -29.5 -99.5t-55 -104.5t-84 -82.5 t-116.5 -33.5q-33 0 -63 8.5t-52.5 30t-36 57.5t-13.5 90q0 27 2 60.5t6 59.5h-2q-38 -89 -79 -148t-85.5 -94t-90.5 -49.5t-93 -14.5q-56 0 -105.5 22.5t-86 69t-58 117t-21.5 165.5zM331 339q0 -84 21 -132t57 -48q38 0 71 33.5t61.5 90t52 131t40.5 157t28.5 167 t15.5 161.5q-11 4 -36 8t-49 4q-58 0 -106 -36.5t-82.5 -108.5t-54 -179t-19.5 -248zM579 1241l182 286q17 26 41 45t51 26.5t53.5 3t49.5 -25.5q24 -21 30.5 -48.5t1 -55.5t-21.5 -54t-38 -44l-260 -216z" />
<glyph unicode="&#xe2;" horiz-adv-x="1125" d="M52 351q0 140 41 266t120 221.5t194 152t262 56.5q58 0 134 -11.5t161 -32.5q-7 -51 -17 -119t-20.5 -142.5t-20.5 -151t-18 -145.5t-13 -126t-5 -92q0 -37 9.5 -48.5t20.5 -11.5q12 0 24.5 8t26 27t27 50.5t26.5 77.5l111 -33q-9 -44 -29.5 -99.5t-55 -104.5t-84 -82.5 t-116.5 -33.5q-33 0 -63 8.5t-52.5 30t-36 57.5t-13.5 90q0 27 2 60.5t6 59.5h-2q-38 -89 -79 -148t-85.5 -94t-90.5 -49.5t-93 -14.5q-56 0 -105.5 22.5t-86 69t-58 117t-21.5 165.5zM290 1266l367 337h21l310 -347l-89 -94l-256 212h-2l-279 -205zM331 339q0 -84 21 -132 t57 -48q38 0 71 33.5t61.5 90t52 131t40.5 157t28.5 167t15.5 161.5q-11 4 -36 8t-49 4q-58 0 -106 -36.5t-82.5 -108.5t-54 -179t-19.5 -248z" />
<glyph unicode="&#xe3;" horiz-adv-x="1125" d="M52 351q0 140 41 266t120 221.5t194 152t262 56.5q58 0 134 -11.5t161 -32.5q-7 -51 -17 -119t-20.5 -142.5t-20.5 -151t-18 -145.5t-13 -126t-5 -92q0 -37 9.5 -48.5t20.5 -11.5q12 0 24.5 8t26 27t27 50.5t26.5 77.5l111 -33q-9 -44 -29.5 -99.5t-55 -104.5t-84 -82.5 t-116.5 -33.5q-33 0 -63 8.5t-52.5 30t-36 57.5t-13.5 90q0 27 2 60.5t6 59.5h-2q-38 -89 -79 -148t-85.5 -94t-90.5 -49.5t-93 -14.5q-56 0 -105.5 22.5t-86 69t-58 117t-21.5 165.5zM330 1310q16 46 42.5 83.5t58 64t66.5 40.5t69 14q48 0 79 -12t57 -27t51.5 -27 t62.5 -12q36 0 70 28.5t60 76.5l110 -59q-21 -64 -49.5 -108.5t-61 -72t-66 -40t-63.5 -12.5q-41 0 -73.5 12.5t-61 27t-55.5 27t-57 12.5q-12 0 -28 -4t-33.5 -13.5t-35.5 -26t-34 -40.5zM331 339q0 -84 21 -132t57 -48q38 0 71 33.5t61.5 90t52 131t40.5 157t28.5 167 t15.5 161.5q-11 4 -36 8t-49 4q-58 0 -106 -36.5t-82.5 -108.5t-54 -179t-19.5 -248z" />
<glyph unicode="&#xe4;" horiz-adv-x="1125" d="M52 351q0 140 41 266t120 221.5t194 152t262 56.5q58 0 134 -11.5t161 -32.5q-7 -51 -17 -119t-20.5 -142.5t-20.5 -151t-18 -145.5t-13 -126t-5 -92q0 -37 9.5 -48.5t20.5 -11.5q12 0 24.5 8t26 27t27 50.5t26.5 77.5l111 -33q-9 -44 -29.5 -99.5t-55 -104.5t-84 -82.5 t-116.5 -33.5q-33 0 -63 8.5t-52.5 30t-36 57.5t-13.5 90q0 27 2 60.5t6 59.5h-2q-38 -89 -79 -148t-85.5 -94t-90.5 -49.5t-93 -14.5q-56 0 -105.5 22.5t-86 69t-58 117t-21.5 165.5zM331 339q0 -84 21 -132t57 -48q38 0 71 33.5t61.5 90t52 131t40.5 157t28.5 167 t15.5 161.5q-11 4 -36 8t-49 4q-58 0 -106 -36.5t-82.5 -108.5t-54 -179t-19.5 -248zM411 1373q0 33 12 63t31.5 52.5t45.5 36t54 13.5t50.5 -11.5t38.5 -31t25 -45.5t9 -56q0 -35 -11 -65t-30 -52.5t-45 -35.5t-55 -13q-27 0 -50 11t-39.5 30.5t-26 46t-9.5 57.5zM767 1373 q0 33 12 63t31.5 52.5t45.5 36t54 13.5t50.5 -11.5t38.5 -31t25 -45.5t9 -56q0 -35 -11 -65.5t-30 -53t-45 -35t-55 -12.5q-27 0 -50 11t-39.5 30.5t-26 46t-9.5 57.5z" />
<glyph unicode="&#xe5;" horiz-adv-x="1125" d="M52 351q0 140 41 266t120 221.5t194 152t262 56.5q58 0 134 -11.5t161 -32.5q-7 -51 -17 -119t-20.5 -142.5t-20.5 -151t-18 -145.5t-13 -126t-5 -92q0 -37 9.5 -48.5t20.5 -11.5q12 0 24.5 8t26 27t27 50.5t26.5 77.5l111 -33q-9 -44 -29.5 -99.5t-55 -104.5t-84 -82.5 t-116.5 -33.5q-33 0 -63 8.5t-52.5 30t-36 57.5t-13.5 90q0 27 2 60.5t6 59.5h-2q-38 -89 -79 -148t-85.5 -94t-90.5 -49.5t-93 -14.5q-56 0 -105.5 22.5t-86 69t-58 117t-21.5 165.5zM331 339q0 -84 21 -132t57 -48q38 0 71 33.5t61.5 90t52 131t40.5 157t28.5 167 t15.5 161.5q-11 4 -36 8t-49 4q-58 0 -106 -36.5t-82.5 -108.5t-54 -179t-19.5 -248zM449 1381q1 52 22.5 97.5t57 78.5t81 52t93.5 19q43 0 85 -13.5t75 -41.5t52.5 -70.5t18.5 -99.5q-2 -57 -25 -103.5t-59 -79t-80.5 -50t-88.5 -17.5q-43 0 -85 15t-75 44t-53 71.5 t-19 97.5zM617 1406q-3 -64 20 -97.5t59 -32.5q26 1 49.5 26.5t26.5 73.5q4 69 -19.5 100.5t-56.5 30.5q-13 0 -26.5 -6.5t-24.5 -18.5t-19 -31t-9 -45z" />
<glyph unicode="&#xe6;" horiz-adv-x="1497" d="M39 250q3 65 28.5 114t67 85t96.5 60.5t118.5 40t132 23t137.5 10.5l6 134q2 40 -4 74t-22 59t-42 38.5t-65 12.5q-41 -2 -76.5 -14.5t-61.5 -39.5q14 -17 17.5 -42t2.5 -40q-1 -21 -10.5 -44t-27 -42t-44 -31t-62.5 -11q-61 2 -92 42.5t-28 97.5t35.5 106t88.5 85.5 t132 57.5t166 21q49 0 91 -7t75.5 -24.5t58 -46.5t37.5 -73q57 72 137 111.5t171 39.5q68 0 125 -15t98.5 -46.5t65 -80.5t23.5 -116q0 -56 -24 -99t-65.5 -76t-96.5 -57t-116.5 -41.5t-126 -29t-124.5 -20.5q0 -87 17 -145t44 -92.5t60.5 -49t66.5 -14.5q25 0 60.5 7 t73 28.5t73.5 61t64 103.5l116 -57q-44 -101 -96 -165t-109 -101t-117 -51t-120 -14q-53 0 -95.5 9.5t-77 28.5t-63 47t-55.5 63q-46 -44 -94 -72.5t-96 -45t-95.5 -23t-92.5 -7.5q-74 0 -129 20.5t-91 57.5t-52.5 86.5t-13.5 108.5zM308 284q-1 -29 9.5 -50t27 -35.5 t38 -21.5t43.5 -7q24 0 52 4.5t55.5 13.5t52 22t41.5 30q-10 63 -14.5 113t-2.5 105q-57 -6 -111 -17.5t-96 -31.5t-68 -50.5t-27 -74.5zM868 598q83 15 141.5 37t96 50t54 61.5t15.5 71.5q-1 25 -10 42.5t-23 29t-31 17t-32 5.5q-52 0 -89.5 -27.5t-62.5 -72t-39 -101 t-20 -113.5z" />
<glyph unicode="&#xe7;" horiz-adv-x="956" d="M55 424q0 66 13.5 138t41 141t69.5 131.5t98 109.5t126.5 75t155.5 28q70 0 131 -17.5t105 -50t69.5 -78t25.5 -101.5q0 -62 -35 -100t-95 -40q-35 -1 -59.5 11t-39.5 30.5t-21.5 40t-6.5 39.5t4.5 41.5t15.5 43.5q-8 19 -34.5 32.5t-62.5 13.5q-44 0 -77 -21 t-57.5 -55.5t-40.5 -79.5t-25.5 -93.5t-14.5 -96.5t-6 -89q-3 -84 11.5 -141.5t39 -94.5t56 -54.5t63.5 -20.5q28 -3 64 3t73.5 28.5t75 66t69.5 115.5l117 -57q-41 -94 -88.5 -158t-100 -103.5t-109 -58.5t-115.5 -23l-51 -120h2q13 7 31.5 13t38.5 10.5t39 6.5t33 2 q32 -1 59 -9.5t46 -26t29 -44t8 -63.5q-3 -48 -28 -85.5t-65.5 -66.5t-91 -50.5t-103 -36.5t-102.5 -24.5t-90 -14.5l-10 106q16 3 41 8t53 12.5t56.5 17.5t51.5 23.5t38 30.5t16 38q1 26 -15 37.5t-39 12t-47.5 -7.5t-39.5 -20l-75 32l68 230q-66 15 -119.5 49.5t-91 88 t-58 127.5t-20.5 169z" />
<glyph unicode="&#xe8;" horiz-adv-x="963" d="M56 424q0 66 13 138t40.5 141t69.5 131.5t99.5 109.5t131 75t163.5 28q68 0 124.5 -15t97 -46.5t63 -80.5t22.5 -116q0 -56 -23.5 -100t-64 -78t-94 -59.5t-114 -44t-124.5 -31t-124 -21.5q0 -87 16.5 -143.5t42.5 -89t59 -45t66 -12.5q25 0 59.5 7t71 28t72 60t63.5 103 l116 -56q-44 -101 -95.5 -165t-107.5 -100.5t-115 -50.5t-119 -14q-94 -1 -169.5 26t-129 82.5t-82 140t-28.5 198.5zM327.5 1474q-3.5 27 5 53.5t33.5 48.5q25 20 51.5 24.5t51 -3t45.5 -26t36 -44.5l159 -286l-99 -83l-232 219q-19 19 -33 44.5t-17.5 52.5zM343 587 q83 15 140.5 38.5t92.5 53.5t50.5 65.5t14.5 73.5q-1 25 -9.5 42.5t-21.5 29t-29 17t-31 5.5q-52 0 -88.5 -29.5t-61 -76t-38 -104.5t-19.5 -115z" />
<glyph unicode="&#xe9;" horiz-adv-x="963" d="M56 424q0 66 13 138t40.5 141t69.5 131.5t99.5 109.5t131 75t163.5 28q68 0 124.5 -15t97 -46.5t63 -80.5t22.5 -116q0 -56 -23.5 -100t-64 -78t-94 -59.5t-114 -44t-124.5 -31t-124 -21.5q0 -87 16.5 -143.5t42.5 -89t59 -45t66 -12.5q25 0 59.5 7t71 28t72 60t63.5 103 l116 -56q-44 -101 -95.5 -165t-107.5 -100.5t-115 -50.5t-119 -14q-94 -1 -169.5 26t-129 82.5t-82 140t-28.5 198.5zM343 587q83 15 140.5 38.5t92.5 53.5t50.5 65.5t14.5 73.5q-1 25 -9.5 42.5t-21.5 29t-29 17t-31 5.5q-52 0 -88.5 -29.5t-61 -76t-38 -104.5t-19.5 -115z M468 1241l182 286q17 26 41 45t51 26.5t53.5 3t49.5 -25.5q24 -21 30.5 -48.5t1 -55.5t-21.5 -54t-38 -44l-260 -216z" />
<glyph unicode="&#xea;" horiz-adv-x="963" d="M56 424q0 66 13 138t40.5 141t69.5 131.5t99.5 109.5t131 75t163.5 28q68 0 124.5 -15t97 -46.5t63 -80.5t22.5 -116q0 -56 -23.5 -100t-64 -78t-94 -59.5t-114 -44t-124.5 -31t-124 -21.5q0 -87 16.5 -143.5t42.5 -89t59 -45t66 -12.5q25 0 59.5 7t71 28t72 60t63.5 103 l116 -56q-44 -101 -95.5 -165t-107.5 -100.5t-115 -50.5t-119 -14q-94 -1 -169.5 26t-129 82.5t-82 140t-28.5 198.5zM212 1266l367 337h21l310 -347l-89 -94l-256 212h-2l-279 -205zM343 587q83 15 140.5 38.5t92.5 53.5t50.5 65.5t14.5 73.5q-1 25 -9.5 42.5t-21.5 29 t-29 17t-31 5.5q-52 0 -88.5 -29.5t-61 -76t-38 -104.5t-19.5 -115z" />
<glyph unicode="&#xeb;" horiz-adv-x="963" d="M56 424q0 66 13 138t40.5 141t69.5 131.5t99.5 109.5t131 75t163.5 28q68 0 124.5 -15t97 -46.5t63 -80.5t22.5 -116q0 -56 -23.5 -100t-64 -78t-94 -59.5t-114 -44t-124.5 -31t-124 -21.5q0 -87 16.5 -143.5t42.5 -89t59 -45t66 -12.5q25 0 59.5 7t71 28t72 60t63.5 103 l116 -56q-44 -101 -95.5 -165t-107.5 -100.5t-115 -50.5t-119 -14q-94 -1 -169.5 26t-129 82.5t-82 140t-28.5 198.5zM271 1373q0 33 12 63t31.5 52.5t45.5 36t54 13.5t50.5 -11.5t38.5 -31t25 -45.5t9 -56q0 -35 -11 -65t-30 -52.5t-45 -35.5t-55 -13q-27 0 -50 11 t-39.5 30.5t-26 46t-9.5 57.5zM343 587q83 15 140.5 38.5t92.5 53.5t50.5 65.5t14.5 73.5q-1 25 -9.5 42.5t-21.5 29t-29 17t-31 5.5q-52 0 -88.5 -29.5t-61 -76t-38 -104.5t-19.5 -115zM627 1373q0 33 12 63t31.5 52.5t45.5 36t54 13.5t50.5 -11.5t38.5 -31t25 -45.5t9 -56 q0 -35 -11 -65.5t-30 -53t-45 -35t-55 -12.5q-27 0 -50 11t-39.5 30.5t-26 46t-9.5 57.5z" />
<glyph unicode="&#xec;" horiz-adv-x="704" d="M4 727q9 44 33 99.5t64 104.5t95 82.5t124 33.5q53 0 89 -17t58.5 -48t32 -75t9.5 -98q0 -33 -4.5 -83.5t-12 -108.5t-15.5 -118.5t-15.5 -114.5t-12 -97t-4.5 -66q0 -34 10 -44t21 -10q23 0 48 35.5t51 127.5l111 -33q-9 -44 -32.5 -99.5t-62.5 -104.5t-93 -82.5 t-123 -33.5q-57 0 -94.5 15.5t-60 45.5t-32 73t-9.5 97q0 40 5 91t12 106.5t16 112t16 109.5t12 98.5t5 77.5q0 34 -10 44t-21 10q-23 0 -48 -35.5t-51 -127.5zM111.5 1474q-3.5 27 5 53.5t33.5 48.5q25 20 51.5 24.5t51 -3t45.5 -26t36 -44.5l159 -286l-99 -83l-232 219 q-19 19 -33 44.5t-17.5 52.5z" />
<glyph unicode="&#xed;" horiz-adv-x="704" d="M4 727q9 44 33 99.5t64 104.5t95 82.5t124 33.5q53 0 89 -17t58.5 -48t32 -75t9.5 -98q0 -33 -4.5 -83.5t-12 -108.5t-15.5 -118.5t-15.5 -114.5t-12 -97t-4.5 -66q0 -34 10 -44t21 -10q23 0 48 35.5t51 127.5l111 -33q-9 -44 -32.5 -99.5t-62.5 -104.5t-93 -82.5 t-123 -33.5q-57 0 -94.5 15.5t-60 45.5t-32 73t-9.5 97q0 40 5 91t12 106.5t16 112t16 109.5t12 98.5t5 77.5q0 34 -10 44t-21 10q-23 0 -48 -35.5t-51 -127.5zM245 1241l182 286q17 26 41 45t51 26.5t53.5 3t49.5 -25.5q24 -21 30.5 -48.5t1 -55.5t-21.5 -54t-38 -44 l-260 -216z" />
<glyph unicode="&#xee;" horiz-adv-x="704" d="M4 727q9 44 33 99.5t64 104.5t95 82.5t124 33.5q53 0 89 -17t58.5 -48t32 -75t9.5 -98q0 -33 -4.5 -83.5t-12 -108.5t-15.5 -118.5t-15.5 -114.5t-12 -97t-4.5 -66q0 -34 10 -44t21 -10q23 0 48 35.5t51 127.5l111 -33q-9 -44 -32.5 -99.5t-62.5 -104.5t-93 -82.5 t-123 -33.5q-57 0 -94.5 15.5t-60 45.5t-32 73t-9.5 97q0 40 5 91t12 106.5t16 112t16 109.5t12 98.5t5 77.5q0 34 -10 44t-21 10q-23 0 -48 -35.5t-51 -127.5zM42 1266l357 337h21l290 -347l-89 -94l-242 212h-2l-263 -205z" />
<glyph unicode="&#xef;" horiz-adv-x="704" d="M4 727q9 44 33 99.5t64 104.5t95 82.5t124 33.5q53 0 89 -17t58.5 -48t32 -75t9.5 -98q0 -33 -4.5 -83.5t-12 -108.5t-15.5 -118.5t-15.5 -114.5t-12 -97t-4.5 -66q0 -34 10 -44t21 -10q23 0 48 35.5t51 127.5l111 -33q-9 -44 -32.5 -99.5t-62.5 -104.5t-93 -82.5 t-123 -33.5q-57 0 -94.5 15.5t-60 45.5t-32 73t-9.5 97q0 40 5 91t12 106.5t16 112t16 109.5t12 98.5t5 77.5q0 34 -10 44t-21 10q-23 0 -48 -35.5t-51 -127.5zM58 1373q0 33 12 63t31.5 52.5t45.5 36t54 13.5t50.5 -11.5t38.5 -31t25 -45.5t9 -56q0 -35 -11 -65t-30 -52.5 t-45 -35.5t-55 -13q-27 0 -50 11t-39.5 30.5t-26 46t-9.5 57.5zM414 1373q0 33 12 63t31.5 52.5t45.5 36t54 13.5t50.5 -11.5t38.5 -31t25 -45.5t9 -56q0 -35 -11 -65.5t-30 -53t-45 -35t-55 -12.5q-27 0 -50 11t-39.5 30.5t-26 46t-9.5 57.5z" />
<glyph unicode="&#xf0;" horiz-adv-x="1069" d="M59 453q0 59 11 124t35 128.5t60.5 121.5t88 102t117.5 70t148 26q39 0 69 -8.5t53.5 -21.5t42 -30t33.5 -33h2q-5 42 -27.5 92t-54.5 96.5t-69.5 84.5t-72.5 58l-126 -145l-118 109l106 117q-36 22 -81 39t-99 28l34 145q90 -8 157 -30t114 -45l112 137l113 -106 l-112 -103q85 -60 154.5 -139t119 -176t76.5 -211.5t27 -244.5q0 -87 -13 -170t-40 -156t-68 -135t-97 -106t-127 -69t-157 -25q-81 0 -155.5 25.5t-131.5 82t-90.5 147t-33.5 221.5zM334 465q0 -76 7.5 -140.5t26.5 -112t50.5 -74t79.5 -26.5q39 0 70 19.5t54 52t38.5 75 t25 89.5t14 94.5t4.5 89.5q0 72 -6 137t-23 114.5t-47 78.5t-78 29q-59 0 -100.5 -38.5t-67 -99.5t-37 -137t-11.5 -151z" />
<glyph unicode="&#xf1;" horiz-adv-x="1250" d="M17 727q9 44 27.5 99.5t51 104.5t80.5 82.5t115 33.5q33 0 64 -8.5t55 -30t38.5 -57.5t14.5 -90q0 -20 -1 -35.5t-2.5 -29t-4 -27.5t-4.5 -31h2q36 92 78.5 152t88 95t92 48.5t90.5 13.5q65 0 111.5 -22.5t76.5 -63.5t44 -99t14 -130q0 -57 -8 -122.5t-17.5 -133 t-17.5 -133.5t-8 -122q0 -34 10 -44t21 -10q23 0 48 35.5t51 127.5l111 -33q-9 -44 -32.5 -99.5t-62 -104.5t-92.5 -82.5t-123 -33.5q-57 0 -94 15.5t-58.5 45.5t-30.5 73t-9 97q0 61 8 139t17.5 156.5t17.5 150t8 118.5q0 46 -13 66.5t-45 20.5q-31 0 -64 -33t-64.5 -88 t-59.5 -127.5t-49 -151.5t-33.5 -159.5t-12.5 -151.5q0 -14 0.5 -34.5t1.5 -41.5t2 -40.5t2 -31.5h-264q-2 21 -3.5 35.5t-2 25t-0.5 19v18.5q0 44 5.5 106.5t13.5 132.5t18 142t18 136t13.5 113.5t5.5 74.5q0 34 -9 44t-20 10q-23 0 -48 -35.5t-51 -127.5zM349 1310 q16 46 42.5 83.5t58 64t66.5 40.5t69 14q48 0 79 -12t57 -27t51.5 -27t62.5 -12q36 0 70 28.5t60 76.5l110 -59q-21 -64 -49.5 -108.5t-61 -72t-66 -40t-63.5 -12.5q-41 0 -73.5 12.5t-61 27t-55.5 27t-57 12.5q-12 0 -28 -4t-33.5 -13.5t-35.5 -26t-34 -40.5z" />
<glyph unicode="&#xf2;" horiz-adv-x="1055" d="M57 443q0 123 36 232.5t103 192t162.5 131t213.5 48.5q85 0 160.5 -30.5t131 -89t88 -143.5t32.5 -194q0 -122 -35.5 -233t-102 -195.5t-161.5 -134.5t-215 -50q-104 0 -181.5 37t-129 100t-77 148t-25.5 181zM336 500q0 -62 7.5 -130t26.5 -125t51 -94.5t81 -37.5 q35 0 63 19.5t50 51.5t37.5 74.5t26 89t16 93.5t6.5 89q1 37 -1 79.5t-8.5 85t-18 81.5t-29.5 68.5t-44 47.5t-60 19q-47 1 -84.5 -32t-64 -89t-41 -131t-14.5 -159zM337.5 1474q-3.5 27 5 53.5t33.5 48.5q25 20 51.5 24.5t51 -3t45.5 -26t36 -44.5l159 -286l-99 -83 l-232 219q-19 19 -33 44.5t-17.5 52.5z" />
<glyph unicode="&#xf3;" horiz-adv-x="1055" d="M57 443q0 123 36 232.5t103 192t162.5 131t213.5 48.5q85 0 160.5 -30.5t131 -89t88 -143.5t32.5 -194q0 -122 -35.5 -233t-102 -195.5t-161.5 -134.5t-215 -50q-104 0 -181.5 37t-129 100t-77 148t-25.5 181zM336 500q0 -62 7.5 -130t26.5 -125t51 -94.5t81 -37.5 q35 0 63 19.5t50 51.5t37.5 74.5t26 89t16 93.5t6.5 89q1 37 -1 79.5t-8.5 85t-18 81.5t-29.5 68.5t-44 47.5t-60 19q-47 1 -84.5 -32t-64 -89t-41 -131t-14.5 -159zM488 1241l182 286q17 26 41 45t51 26.5t53.5 3t49.5 -25.5q24 -21 30.5 -48.5t1 -55.5t-21.5 -54t-38 -44 l-260 -216z" />
<glyph unicode="&#xf4;" horiz-adv-x="1055" d="M57 443q0 123 36 232.5t103 192t162.5 131t213.5 48.5q85 0 160.5 -30.5t131 -89t88 -143.5t32.5 -194q0 -122 -35.5 -233t-102 -195.5t-161.5 -134.5t-215 -50q-104 0 -181.5 37t-129 100t-77 148t-25.5 181zM226 1266l367 337h21l310 -347l-89 -94l-256 212h-2 l-279 -205zM336 500q0 -62 7.5 -130t26.5 -125t51 -94.5t81 -37.5q35 0 63 19.5t50 51.5t37.5 74.5t26 89t16 93.5t6.5 89q1 37 -1 79.5t-8.5 85t-18 81.5t-29.5 68.5t-44 47.5t-60 19q-47 1 -84.5 -32t-64 -89t-41 -131t-14.5 -159z" />
<glyph unicode="&#xf5;" horiz-adv-x="1055" d="M57 443q0 123 36 232.5t103 192t162.5 131t213.5 48.5q85 0 160.5 -30.5t131 -89t88 -143.5t32.5 -194q0 -122 -35.5 -233t-102 -195.5t-161.5 -134.5t-215 -50q-104 0 -181.5 37t-129 100t-77 148t-25.5 181zM234 1310q16 46 42.5 83.5t58 64t66.5 40.5t69 14 q48 0 79 -12t57 -27t51.5 -27t62.5 -12q36 0 70 28.5t60 76.5l110 -59q-21 -64 -49.5 -108.5t-61 -72t-66 -40t-63.5 -12.5q-41 0 -73.5 12.5t-61 27t-55.5 27t-57 12.5q-12 0 -28 -4t-33.5 -13.5t-35.5 -26t-34 -40.5zM336 500q0 -62 7.5 -130t26.5 -125t51 -94.5t81 -37.5 q35 0 63 19.5t50 51.5t37.5 74.5t26 89t16 93.5t6.5 89q1 37 -1 79.5t-8.5 85t-18 81.5t-29.5 68.5t-44 47.5t-60 19q-47 1 -84.5 -32t-64 -89t-41 -131t-14.5 -159z" />
<glyph unicode="&#xf6;" horiz-adv-x="1055" d="M57 443q0 123 36 232.5t103 192t162.5 131t213.5 48.5q85 0 160.5 -30.5t131 -89t88 -143.5t32.5 -194q0 -122 -35.5 -233t-102 -195.5t-161.5 -134.5t-215 -50q-104 0 -181.5 37t-129 100t-77 148t-25.5 181zM246 1373q0 33 12 63t31.5 52.5t45.5 36t54 13.5t50.5 -11.5 t38.5 -31t25 -45.5t9 -56q0 -35 -11 -65t-30 -52.5t-45 -35.5t-55 -13q-27 0 -50 11t-39.5 30.5t-26 46t-9.5 57.5zM336 500q0 -62 7.5 -130t26.5 -125t51 -94.5t81 -37.5q35 0 63 19.5t50 51.5t37.5 74.5t26 89t16 93.5t6.5 89q1 37 -1 79.5t-8.5 85t-18 81.5t-29.5 68.5 t-44 47.5t-60 19q-47 1 -84.5 -32t-64 -89t-41 -131t-14.5 -159zM602 1373q0 33 12 63t31.5 52.5t45.5 36t54 13.5t50.5 -11.5t38.5 -31t25 -45.5t9 -56q0 -35 -11 -65.5t-30 -53t-45 -35t-55 -12.5q-27 0 -50 11t-39.5 30.5t-26 46t-9.5 57.5z" />
<glyph unicode="&#xf7;" horiz-adv-x="566" d="M122 249q2 33 15.5 62.5t35.5 51.5t49.5 34.5t57.5 12.5q32 0 58.5 -12.5t45 -34.5t28 -51.5t7.5 -62.5t-13.5 -62t-31.5 -50.5t-47.5 -34t-60.5 -12.5q-34 0 -61 12.5t-46 34t-29 50.5t-8 62zM142 957q2 33 15.5 62.5t35.5 51.5t49.5 34.5t57.5 12.5q32 0 58.5 -12.5 t45 -34.5t28 -51.5t7.5 -62.5t-13.5 -62t-31.5 -50.5t-47.5 -34t-60.5 -12.5q-34 0 -61 12.5t-46 34t-29 50.5t-8 62z" />
<glyph unicode="&#xf8;" horiz-adv-x="1055" d="M27 -68l131 184q-51 63 -76 147t-25 180q0 123 36 232.5t103 192t162.5 131t213.5 48.5q109 0 199 -49l120 169l130 -101l-128 -174q43 -57 67 -132.5t24 -169.5q0 -122 -35.5 -233t-102 -195.5t-161.5 -134.5t-215 -50q-60 0 -110 12t-92 35l-133 -181zM310 500 q0 -39 4 -80.5t12 -82.5l341 492q-22 37 -53 59.5t-74 22.5q-51 0 -93.5 -32.5t-72.5 -89t-47 -131t-17 -158.5zM379 194q23 -37 54 -59t73 -22q39 0 70 19.5t55.5 51.5t42 74.5t29 89t17.5 93.5t7 89q1 32 -1.5 67t-7.5 71z" />
<glyph unicode="&#xf9;" horiz-adv-x="1225" d="M-3 727q9 44 32.5 99.5t62 104.5t92.5 82.5t123 33.5q57 0 94 -15.5t59.5 -45.5t31.5 -73t9 -97q0 -41 -4 -89.5t-10 -100.5t-12.5 -105.5t-12.5 -102.5t-10 -92t-4 -74q0 -46 13 -66.5t45 -20.5q28 0 59.5 33t61.5 88t57.5 127.5t48.5 151.5t33 159t12 152 q0 14 -0.5 34.5t-1 41.5t-2 40.5t-2.5 31.5h264q2 -21 3.5 -35.5t2 -25t0.5 -19v-18.5q0 -44 -5.5 -106.5t-14 -132.5t-18.5 -142t-18.5 -136t-14 -113.5t-5.5 -74.5q0 -34 9 -44t20 -10q23 0 48 35.5t51 127.5l111 -33q-9 -44 -27.5 -99.5t-51 -104.5t-80.5 -82.5 t-115 -33.5q-33 0 -64 8.5t-55 30t-38.5 57.5t-14.5 90q0 41 3.5 69.5t8.5 63.5h-2q-36 -92 -76.5 -153.5t-83.5 -98.5t-87.5 -52t-88.5 -15q-65 0 -111.5 22.5t-76.5 63.5t-44 99t-14 130q0 57 8.5 122.5t18 133t18 133.5t8.5 122q0 34 -11 44t-22 10q-23 0 -48 -35.5 t-51 -127.5zM409.5 1474q-3.5 27 5 53.5t33.5 48.5q25 20 51.5 24.5t51 -3t45.5 -26t36 -44.5l159 -286l-99 -83l-232 219q-19 19 -33 44.5t-17.5 52.5z" />
<glyph unicode="&#xfa;" horiz-adv-x="1225" d="M-3 727q9 44 32.5 99.5t62 104.5t92.5 82.5t123 33.5q57 0 94 -15.5t59.5 -45.5t31.5 -73t9 -97q0 -41 -4 -89.5t-10 -100.5t-12.5 -105.5t-12.5 -102.5t-10 -92t-4 -74q0 -46 13 -66.5t45 -20.5q28 0 59.5 33t61.5 88t57.5 127.5t48.5 151.5t33 159t12 152 q0 14 -0.5 34.5t-1 41.5t-2 40.5t-2.5 31.5h264q2 -21 3.5 -35.5t2 -25t0.5 -19v-18.5q0 -44 -5.5 -106.5t-14 -132.5t-18.5 -142t-18.5 -136t-14 -113.5t-5.5 -74.5q0 -34 9 -44t20 -10q23 0 48 35.5t51 127.5l111 -33q-9 -44 -27.5 -99.5t-51 -104.5t-80.5 -82.5 t-115 -33.5q-33 0 -64 8.5t-55 30t-38.5 57.5t-14.5 90q0 41 3.5 69.5t8.5 63.5h-2q-36 -92 -76.5 -153.5t-83.5 -98.5t-87.5 -52t-88.5 -15q-65 0 -111.5 22.5t-76.5 63.5t-44 99t-14 130q0 57 8.5 122.5t18 133t18 133.5t8.5 122q0 34 -11 44t-22 10q-23 0 -48 -35.5 t-51 -127.5zM531 1241l182 286q17 26 41 45t51 26.5t53.5 3t49.5 -25.5q24 -21 30.5 -48.5t1 -55.5t-21.5 -54t-38 -44l-260 -216z" />
<glyph unicode="&#xfb;" horiz-adv-x="1225" d="M-3 727q9 44 32.5 99.5t62 104.5t92.5 82.5t123 33.5q57 0 94 -15.5t59.5 -45.5t31.5 -73t9 -97q0 -41 -4 -89.5t-10 -100.5t-12.5 -105.5t-12.5 -102.5t-10 -92t-4 -74q0 -46 13 -66.5t45 -20.5q28 0 59.5 33t61.5 88t57.5 127.5t48.5 151.5t33 159t12 152 q0 14 -0.5 34.5t-1 41.5t-2 40.5t-2.5 31.5h264q2 -21 3.5 -35.5t2 -25t0.5 -19v-18.5q0 -44 -5.5 -106.5t-14 -132.5t-18.5 -142t-18.5 -136t-14 -113.5t-5.5 -74.5q0 -34 9 -44t20 -10q23 0 48 35.5t51 127.5l111 -33q-9 -44 -27.5 -99.5t-51 -104.5t-80.5 -82.5 t-115 -33.5q-33 0 -64 8.5t-55 30t-38.5 57.5t-14.5 90q0 41 3.5 69.5t8.5 63.5h-2q-36 -92 -76.5 -153.5t-83.5 -98.5t-87.5 -52t-88.5 -15q-65 0 -111.5 22.5t-76.5 63.5t-44 99t-14 130q0 57 8.5 122.5t18 133t18 133.5t8.5 122q0 34 -11 44t-22 10q-23 0 -48 -35.5 t-51 -127.5zM308 1266l367 337h21l310 -347l-89 -94l-256 212h-2l-279 -205z" />
<glyph unicode="&#xfc;" horiz-adv-x="1225" d="M-3 727q9 44 32.5 99.5t62 104.5t92.5 82.5t123 33.5q57 0 94 -15.5t59.5 -45.5t31.5 -73t9 -97q0 -41 -4 -89.5t-10 -100.5t-12.5 -105.5t-12.5 -102.5t-10 -92t-4 -74q0 -46 13 -66.5t45 -20.5q28 0 59.5 33t61.5 88t57.5 127.5t48.5 151.5t33 159t12 152 q0 14 -0.5 34.5t-1 41.5t-2 40.5t-2.5 31.5h264q2 -21 3.5 -35.5t2 -25t0.5 -19v-18.5q0 -44 -5.5 -106.5t-14 -132.5t-18.5 -142t-18.5 -136t-14 -113.5t-5.5 -74.5q0 -34 9 -44t20 -10q23 0 48 35.5t51 127.5l111 -33q-9 -44 -27.5 -99.5t-51 -104.5t-80.5 -82.5 t-115 -33.5q-33 0 -64 8.5t-55 30t-38.5 57.5t-14.5 90q0 41 3.5 69.5t8.5 63.5h-2q-36 -92 -76.5 -153.5t-83.5 -98.5t-87.5 -52t-88.5 -15q-65 0 -111.5 22.5t-76.5 63.5t-44 99t-14 130q0 57 8.5 122.5t18 133t18 133.5t8.5 122q0 34 -11 44t-22 10q-23 0 -48 -35.5 t-51 -127.5zM339 1373q0 33 12 63t31.5 52.5t45.5 36t54 13.5t50.5 -11.5t38.5 -31t25 -45.5t9 -56q0 -35 -11 -65t-30 -52.5t-45 -35.5t-55 -13q-27 0 -50 11t-39.5 30.5t-26 46t-9.5 57.5zM695 1373q0 33 12 63t31.5 52.5t45.5 36t54 13.5t50.5 -11.5t38.5 -31t25 -45.5 t9 -56q0 -35 -11 -65.5t-30 -53t-45 -35t-55 -12.5q-27 0 -50 11t-39.5 30.5t-26 46t-9.5 57.5z" />
<glyph unicode="&#xfd;" horiz-adv-x="1148" d="M-15 718q3 30 12 66t24.5 72.5t39 71t56.5 61t76 42.5t98 16q50 0 89.5 -19t70 -49.5t53 -68.5t38.5 -77q22 -52 51 -128t59 -166.5t56.5 -190t43.5 -198.5h2q63 141 97 267.5t38.5 184t5 76.5t-2 40t-8 40.5t-16.5 32.5q-32 -6 -59.5 1t-48.5 23.5t-33 40.5t-12 51 q0 36 12.5 62t32.5 43.5t45.5 26t51.5 8.5q57 0 96 -25.5t64 -66t36 -92.5t11 -104q0 -71 -18 -165t-51.5 -199.5t-80.5 -217t-104 -217t-123 -199t-137.5 -164t-147 -111.5t-151.5 -41q-94 0 -143.5 44.5t-49.5 114.5q0 33 11.5 59.5t30 45.5t42 29t47.5 10q54 0 85.5 -29 t39.5 -82q24 -7 50.5 2.5t53 29t52 46.5t47.5 56t39 56.5t26 48.5q-15 98 -48 212t-74.5 230t-86.5 226.5t-85 200.5q-7 16 -16.5 35.5t-21.5 36.5t-26.5 28.5t-31.5 11.5q-14 0 -28 -6t-26.5 -23t-22 -47t-15.5 -78zM573 1241l182 286q17 26 41 45t51 26.5t53.5 3 t49.5 -25.5q24 -21 30.5 -48.5t1 -55.5t-21.5 -54t-38 -44l-260 -216z" />
<glyph unicode="&#xfe;" horiz-adv-x="1064" d="M-51 -389q38 0 62 13.5t38 38.5t20 58.5t9 74.5q8 129 15 245.5t13.5 226t12.5 215t12 212.5t13 218.5t14 233.5q1 18 2 41t2.5 48.5t4 51t5.5 48.5q-17 -1 -142 -6l8 155q71 0 124.5 6t91.5 15t61.5 19.5t34.5 20.5h111l-41 -418q-5 -47 -8.5 -83t-8 -72t-9.5 -77 t-12 -98h2q37 70 75.5 117.5t78 77t80.5 42t83 12.5q77 0 132 -30.5t90.5 -83.5t52 -123.5t16.5 -151.5q0 -146 -33 -270.5t-101.5 -216t-174.5 -143t-252 -51.5q-12 0 -34.5 0.5t-40.5 2.5l-8 -169q-1 -15 -2.5 -36.5t-3.5 -46.5t-4.5 -51t-5.5 -49l136 6v-156h-519v133z M363 127q11 -3 40.5 -8.5t52.5 -5.5q58 0 100 29t70.5 75.5t45.5 105.5t26 119.5t12 116.5t3 96q0 56 -9 95.5t-24 64t-35 35.5t-42 11q-92 0 -155 -180t-85 -554z" />
<glyph unicode="&#xff;" horiz-adv-x="1148" d="M-15 718q3 30 12 66t24.5 72.5t39 71t56.5 61t76 42.5t98 16q50 0 89.5 -19t70 -49.5t53 -68.5t38.5 -77q22 -52 51 -128t59 -166.5t56.5 -190t43.5 -198.5h2q63 141 97 267.5t38.5 184t5 76.5t-2 40t-8 40.5t-16.5 32.5q-32 -6 -59.5 1t-48.5 23.5t-33 40.5t-12 51 q0 36 12.5 62t32.5 43.5t45.5 26t51.5 8.5q57 0 96 -25.5t64 -66t36 -92.5t11 -104q0 -71 -18 -165t-51.5 -199.5t-80.5 -217t-104 -217t-123 -199t-137.5 -164t-147 -111.5t-151.5 -41q-94 0 -143.5 44.5t-49.5 114.5q0 33 11.5 59.5t30 45.5t42 29t47.5 10q54 0 85.5 -29 t39.5 -82q24 -7 50.5 2.5t53 29t52 46.5t47.5 56t39 56.5t26 48.5q-15 98 -48 212t-74.5 230t-86.5 226.5t-85 200.5q-7 16 -16.5 35.5t-21.5 36.5t-26.5 28.5t-31.5 11.5q-14 0 -28 -6t-26.5 -23t-22 -47t-15.5 -78zM330 1373q0 33 12 63t31.5 52.5t45.5 36t54 13.5 t50.5 -11.5t38.5 -31t25 -45.5t9 -56q0 -35 -11 -65t-30 -52.5t-45 -35.5t-55 -13q-27 0 -50 11t-39.5 30.5t-26 46t-9.5 57.5zM686 1373q0 33 12 63t31.5 52.5t45.5 36t54 13.5t50.5 -11.5t38.5 -31t25 -45.5t9 -56q0 -35 -11 -65.5t-30 -53t-45 -35t-55 -12.5 q-27 0 -50 11t-39.5 30.5t-26 46t-9.5 57.5z" />
<glyph unicode="&#x152;" horiz-adv-x="2078" d="M79 691q5 93 28 187t65 180t104.5 161t146.5 130t190.5 86.5t237.5 31.5q25 0 57 -2t67 -6t70.5 -10t67.5 -15h856l-9 -397h-135q4 83 -16.5 135t-55 81t-78 39t-85.5 9l-74 -2q-32 -1 -58 -6.5t-44.5 -23.5t-29.5 -53t-14 -95l-16 -307h241v177h158l-26 -498h-135 q3 64 -11 101t-40 55t-62.5 21.5t-78.5 2.5l-54 -1l-17 -336q-2 -28 -4 -54.5t-4 -50.5t-4.5 -43.5t-5.5 -32.5l275 1q45 0 90.5 15t83 49.5t62 91t29.5 139.5h135l-36 -451h-912q-75 -21 -152 -27.5t-144 -5.5q-158 2 -284 58.5t-213 153.5t-130.5 228t-35.5 284zM397 748 q-7 -133 16.5 -242.5t75 -190t130.5 -128t182 -55.5q65 -5 119.5 2t107.5 26l49 938q2 46 6 89t8 72q-51 32 -114.5 47t-135.5 12q-111 -4 -192 -52t-135 -126.5t-82.5 -179.5t-34.5 -212z" />
<glyph unicode="&#x153;" horiz-adv-x="1605" d="M58 443q0 123 34 232.5t98 192t157 131t211 48.5q39 0 80.5 -9.5t82 -32.5t76.5 -61.5t63 -96.5h2q72 108 161 154t192 46q68 0 124.5 -15t97 -46.5t63 -80.5t22.5 -116q0 -56 -23.5 -100t-64 -78t-94 -59.5t-114 -44t-124.5 -31t-124 -21.5q0 -87 16.5 -143.5t42.5 -89 t59 -45t66 -12.5q25 0 59 7t69.5 28.5t70 60.5t62.5 103l121 -57q-44 -101 -95.5 -165t-107.5 -101t-115 -50.5t-119 -13.5q-32 0 -73 8t-84 30t-83 60t-69 97h-2q-35 -61 -77 -99t-85.5 -59.5t-87 -29t-80.5 -7.5q-104 0 -181 37t-127.5 100t-75 148t-24.5 181zM337 500 q0 -41 3 -85.5t10 -87.5t18.5 -82t29.5 -68t42.5 -46.5t57.5 -17.5q35 0 63 19.5t49 51.5t35.5 74.5t24.5 89t15 93.5t6 89q1 37 -0.5 79.5t-7 85t-16.5 81.5t-28.5 68.5t-43 47.5t-59.5 19q-47 1 -83.5 -32t-62.5 -89t-39.5 -131t-13.5 -159zM985 587q83 15 140.5 38.5 t92.5 53.5t50.5 65.5t14.5 73.5q-1 25 -9.5 42.5t-21.5 29t-29 17t-31 5.5q-52 0 -88.5 -29.5t-61 -76t-38 -104.5t-19.5 -115z" />
<glyph unicode="&#x178;" horiz-adv-x="1362" d="M48 1276l8 158h598l-7 -135q-45 3 -79 -5.5t-52.5 -28.5t-19 -51t21.5 -73l143 -257q9 -16 20.5 -38t25.5 -50.5t27 -57.5t20 -51h3q11 23 37.5 72.5t68.5 127.5q155 275 171.5 302t33 52t30.5 41v2l-157 -8l8 158h452l-7 -135q-36 -6 -66 -20t-58.5 -39.5t-57 -65 t-61.5 -94.5l-294 -512l-12 -232q-2 -28 -4 -55t-4 -51.5t-4.5 -44.5t-5.5 -33l164 6l-8 -158h-593l7 135q34 2 61.5 7t47.5 22t31.5 52t14.5 97l10 179l-347 595q-14 24 -26.5 51t-22 53.5t-15 50t-4.5 40.5zM470 1777q0 34 11.5 64t31 52.5t45.5 36t54 13.5 q27 0 49.5 -11.5t38.5 -31t24.5 -46t8.5 -56.5q0 -33 -11 -63t-30 -53t-44.5 -36.5t-54.5 -13.5q-27 0 -49.5 11t-39 30.5t-25.5 46t-9 57.5zM827 1777q0 34 11.5 64t31 52.5t45.5 36t54 13.5q27 0 49.5 -11.5t38.5 -31t24.5 -46t8.5 -56.5q0 -33 -11 -63.5t-30 -53 t-44.5 -36t-54.5 -13.5q-27 0 -49.5 11t-39 30.5t-25.5 46t-9 57.5z" />
<glyph unicode="&#x2c6;" horiz-adv-x="878" d="M90 1266l367 337h21l310 -347l-89 -94l-256 212h-2l-279 -205z" />
<glyph unicode="&#x2dc;" horiz-adv-x="910" d="M92 1310q16 46 42.5 83.5t58 64t66.5 40.5t69 14q48 0 79 -12t57 -27t51.5 -27t62.5 -12q36 0 70 28.5t60 76.5l110 -59q-21 -64 -49.5 -108.5t-61 -72t-66 -40t-63.5 -12.5q-41 0 -73.5 12.5t-61 27t-55.5 27t-57 12.5q-12 0 -28 -4t-33.5 -13.5t-35.5 -26t-34 -40.5z " />
<glyph unicode="&#x2000;" horiz-adv-x="1058" />
<glyph unicode="&#x2001;" horiz-adv-x="2116" />
<glyph unicode="&#x2002;" horiz-adv-x="1058" />
<glyph unicode="&#x2003;" horiz-adv-x="2116" />
<glyph unicode="&#x2004;" horiz-adv-x="705" />
<glyph unicode="&#x2005;" horiz-adv-x="529" />
<glyph unicode="&#x2006;" horiz-adv-x="352" />
<glyph unicode="&#x2007;" horiz-adv-x="352" />
<glyph unicode="&#x2008;" horiz-adv-x="264" />
<glyph unicode="&#x2009;" horiz-adv-x="423" />
<glyph unicode="&#x200a;" horiz-adv-x="117" />
<glyph unicode="&#x2010;" horiz-adv-x="968" d="M103 535l11 214h754l-11 -207z" />
<glyph unicode="&#x2011;" horiz-adv-x="968" d="M103 535l11 214h754l-11 -207z" />
<glyph unicode="&#x2012;" horiz-adv-x="968" d="M103 535l11 214h754l-11 -207z" />
<glyph unicode="&#x2013;" horiz-adv-x="1153" d="M101 535l11 215h941l-11 -208z" />
<glyph unicode="&#x2014;" horiz-adv-x="1359" d="M102 535l11 215h1146l-11 -208z" />
<glyph unicode="&#x2018;" horiz-adv-x="460" d="M105 1118q5 99 57 214t155 233l76 -57q-17 -20 -39.5 -56.5t-43 -80.5t-35.5 -92.5t-16 -93.5q15 5 24 6t20 1q27 0 52.5 -8t44 -24.5t29 -42t8.5 -61.5q-1 -30 -13 -58t-32.5 -49t-48.5 -34t-61 -13q-47 -1 -81.5 15.5t-56.5 45.5t-31.5 69t-7.5 86z" />
<glyph unicode="&#x2019;" horiz-adv-x="434" d="M95 1401q1 30 13 58t32.5 49t48.5 34t61 13q47 1 81.5 -15.5t56.5 -45.5t31.5 -69t7.5 -86q-5 -99 -57 -214t-155 -233l-76 57q17 20 39.5 56.5t43 80.5t35.5 92.5t16 93.5q-15 -5 -24 -6t-20 -1q-27 0 -52.5 8t-44 24.5t-29 42t-8.5 61.5z" />
<glyph unicode="&#x201a;" horiz-adv-x="509" d="M56 127q1 30 13 58t32.5 49t48.5 34t61 13q47 1 81.5 -15.5t56.5 -45.5t31.5 -69t7.5 -86q-5 -99 -57 -214t-155 -233l-76 57q17 20 39.5 56.5t43 80.5t35.5 92.5t16 93.5q-15 -5 -24 -6t-20 -1q-27 0 -52.5 8t-44 24.5t-29 42t-8.5 61.5z" />
<glyph unicode="&#x201c;" horiz-adv-x="849" d="M105 1118q5 99 57 214t155 233l76 -57q-17 -20 -39.5 -56.5t-43 -80.5t-35.5 -92.5t-16 -93.5q15 5 24 6t20 1q27 0 52.5 -8t44 -24.5t29 -42t8.5 -61.5q-1 -30 -13 -58t-32.5 -49t-48.5 -34t-61 -13q-47 -1 -81.5 15.5t-56.5 45.5t-31.5 69t-7.5 86zM494 1118 q5 99 57 214t155 233l76 -57q-17 -20 -39.5 -56.5t-43 -80.5t-35.5 -92.5t-16 -93.5q15 5 24 6t20 1q27 0 52.5 -8t44 -24.5t29 -42t8.5 -61.5q-1 -30 -13 -58t-32.5 -49t-48.5 -34t-61 -13q-47 -1 -81.5 15.5t-56.5 45.5t-31.5 69t-7.5 86z" />
<glyph unicode="&#x201d;" horiz-adv-x="810" d="M93 1403q1 30 13 58t32.5 49t48.5 34t61 13q47 1 81.5 -15.5t56.5 -45.5t31.5 -69t7.5 -86q-5 -99 -57 -214t-155 -233l-76 57q17 20 39.5 56.5t43 80.5t35.5 92.5t16 93.5q-15 -5 -24 -6t-20 -1q-27 0 -52.5 8t-44 24.5t-29 42t-8.5 61.5zM473 1403q1 30 13 58t32.5 49 t48.5 34t61 13q47 1 81.5 -15.5t56.5 -45.5t31.5 -69t7.5 -86q-5 -99 -57 -214t-155 -233l-76 57q17 20 39.5 56.5t43 80.5t35.5 92.5t16 93.5q-15 -5 -24 -6t-20 -1q-27 0 -52.5 8t-44 24.5t-29 42t-8.5 61.5z" />
<glyph unicode="&#x201e;" horiz-adv-x="899" d="M56 127q1 30 13 58t32.5 49t48.5 34t61 13q47 1 81.5 -15.5t56.5 -45.5t31.5 -69t7.5 -86q-5 -99 -57 -214t-155 -233l-76 57q17 20 39.5 56.5t43 80.5t35.5 92.5t16 93.5q-15 -5 -24 -6t-20 -1q-27 0 -52.5 8t-44 24.5t-29 42t-8.5 61.5zM446 127q1 30 13 58t32.5 49 t48.5 34t61 13q47 1 81.5 -15.5t56.5 -45.5t31.5 -69t7.5 -86q-5 -99 -57 -214t-155 -233l-76 57q17 20 39.5 56.5t43 80.5t35.5 92.5t16 93.5q-15 -5 -24 -6t-20 -1q-27 0 -52.5 8t-44 24.5t-29 42t-8.5 61.5z" />
<glyph unicode="&#x2022;" horiz-adv-x="774" d="M72 727v16q4 68 32 126t73.5 101t105.5 67t128 24q64 0 120.5 -22.5t97.5 -62.5t65 -94.5t24 -118.5q0 -71 -26.5 -132.5t-73 -107t-108.5 -71.5t-132 -26q-66 0 -122.5 23t-97 63t-63.5 95t-23 120z" />
<glyph unicode="&#x2026;" horiz-adv-x="1584" d="M57 126q2 33 15.5 62.5t35.5 51.5t49.5 34.5t57.5 12.5q32 0 58.5 -12.5t45 -34.5t28 -51.5t7.5 -62.5t-13.5 -62t-31.5 -50.5t-47.5 -34t-60.5 -12.5q-34 0 -61 12.5t-46 34t-29 50.5t-8 62zM610 126q2 33 15.5 62.5t35.5 51.5t49.5 34.5t57.5 12.5q32 0 58.5 -12.5 t45 -34.5t28 -51.5t7.5 -62.5t-13.5 -62t-31.5 -50.5t-47.5 -34t-60.5 -12.5q-34 0 -61 12.5t-46 34t-29 50.5t-8 62zM1163 126q2 33 15.5 62.5t35.5 51.5t49.5 34.5t57.5 12.5q32 0 58.5 -12.5t45 -34.5t28 -51.5t7.5 -62.5t-13.5 -62t-31.5 -50.5t-47.5 -34t-60.5 -12.5 q-34 0 -61 12.5t-46 34t-29 50.5t-8 62z" />
<glyph unicode="&#x202f;" horiz-adv-x="423" />
<glyph unicode="&#x2039;" horiz-adv-x="762" d="M34 529l2 44l586 560l96 -105l-404 -480v-2l348 -480l-105 -99z" />
<glyph unicode="&#x203a;" horiz-adv-x="760" d="M34 72l404 480v2l-348 480l105 99l523 -562l-2 -44l-586 -560z" />
<glyph unicode="&#x205f;" horiz-adv-x="529" />
<glyph unicode="&#x20ac;" horiz-adv-x="1621" d="M60 474l46 160l155 -1q-1 30 1 60.5t4 60.5h-192l47 160l179 -1q33 111 92.5 211.5t147.5 176.5t203.5 121t259.5 45q81 0 169 -23.5t168 -77.5h2l7 87h158l-73 -449h-134q6 151 -64 232t-214 82q-85 0 -155.5 -32t-126 -87t-95 -129t-62.5 -157l687 -2l-105 -153 l-610 -3q-4 -31 -5.5 -61.5t3.5 -61.5l578 -1l-109 -153l-451 -2q36 -170 139 -256.5t259 -86.5q64 0 130.5 16.5t130 48t121 77.5t103.5 105l89 -85q-80 -104 -165.5 -168t-168 -99.5t-159.5 -48t-140 -12.5q-128 0 -234 37.5t-186 105t-133.5 161t-77.5 204.5z" />
<glyph unicode="&#x2122;" horiz-adv-x="2225" d="M144 1131l23 303h785l-9 -303h-80q5 99 -32.5 146.5t-106.5 46.5h-68l-27 -518q-2 -33 -5 -63t-6 -46l98 4l-6 -113h-385l5 99q20 1 36 4t27.5 13.5t18.5 31t9 56.5l28 530h-66q-68 0 -111 -46.5t-48 -144.5h-80zM957 588l5 98q20 1 35.5 4t26 13.5t17 31t9.5 56.5 l33 428q2 32 5 62.5t6 45.5l-92 -3l6 110h309l176 -470q20 -56 32.5 -99.5t24.5 -87.5h1q6 18 15.5 44t19.5 52t19.5 48.5t14.5 33.5l209 479h319l-5 -97q-21 -1 -38 -4t-29 -13t-19 -30.5t-7 -57.5l-6 -427q-1 -35 -4.5 -64t-6.5 -45l92 4l-6 -112h-365l5 98q20 1 36.5 4 t28.5 13.5t19 31t7 56.5l3 237q0 11 0.5 34.5t1 53.5t1.5 62t1 60h-1l-277 -662h-156l-155 398q-6 16 -15.5 45.5t-20 65t-20 74.5t-15.5 75h-1q-3 -62 -4.5 -118.5t-5.5 -111.5l-8 -199q-2 -33 -7 -63t-8 -46l93 4l-6 -112h-293z" />
<glyph unicode="&#x25fc;" horiz-adv-x="1045" d="M0 0v1045h1045v-1045h-1045z" />
<glyph unicode="&#xfb01;" horiz-adv-x="1399" d="M-236 -407q0 17 6.5 39.5t21.5 42t38.5 33t56.5 13.5q21 0 40.5 -7.5t34 -22t23 -34t8.5 -43.5v-9.5t-1 -9.5q8 -5 26 -5q35 0 57.5 38t36 96t21 125.5t12.5 127.5q5 58 10.5 131.5t12 154.5t12.5 166t11.5 165.5t11 153t9.5 129.5q-42 -1 -88 -1.5t-75 -0.5l18 149h165 q34 269 171 400.5t380 131.5q37 0 83 -5.5t93 -18t91.5 -32.5t78.5 -49t55 -67t21 -87q0 -18 -6 -41.5t-21 -44.5t-39.5 -35.5t-61.5 -14.5q-26 0 -49 9t-40 25t-27 38.5t-10 49.5q0 13 2.5 31.5t7.5 32.5q-16 18 -33 31.5t-38 23t-48 14.5t-64 5q-68 0 -117.5 -20.5 t-83.5 -60.5t-54 -99t-28 -135l-9 -82h213l-13 -141l-209 -4q-4 -58 -9 -132t-11 -154.5t-12.5 -165.5t-13.5 -165.5t-14 -153.5t-14 -131q-14 -119 -46 -216.5t-85.5 -168t-130.5 -109t-182 -38.5q-94 0 -144.5 40t-50.5 108zM700 727q9 44 33 99.5t64 104.5t95 82.5 t124 33.5q53 0 89 -17t58.5 -48t32 -75t9.5 -98q0 -33 -4.5 -83.5t-12 -108.5t-15.5 -118.5t-15.5 -114.5t-12 -97t-4.5 -66q0 -34 10 -44t21 -10q23 0 48 35.5t51 127.5l111 -33q-9 -44 -32.5 -99.5t-62.5 -104.5t-93 -82.5t-123 -33.5q-57 0 -94.5 15.5t-60 45.5t-32 73 t-9.5 97q0 40 5 91t12 106.5t16 112t16 109.5t12 98.5t5 77.5q0 34 -10 44t-21 10q-23 0 -48 -35.5t-51 -127.5z" />
<glyph unicode="&#xfb02;" horiz-adv-x="1348" d="M-236 -407q0 17 6.5 39.5t21.5 42t38.5 33t56.5 13.5q21 0 40.5 -7.5t34 -22t23 -34t8.5 -43.5v-9.5t-1 -9.5q8 -5 26 -5q35 0 57.5 38t36 96t21 125.5t12.5 127.5q5 58 10.5 131.5t12 154.5t12.5 166t11.5 165.5t11 153t9.5 129.5q-42 -1 -88 -1.5t-75 -0.5l18 149h165 q16 132 54 231.5t99.5 166.5t149.5 100.5t205 33.5q63 0 118.5 -13.5t102.5 -23t85.5 -7.5t68.5 34h111q-27 -234 -47.5 -414t-36 -316t-26 -233.5t-16.5 -166t-9 -113.5t-3 -76q0 -37 9.5 -48.5t20.5 -11.5q23 0 48 35.5t51 127.5l111 -33q-13 -52 -36 -108.5t-60.5 -103.5 t-91 -77.5t-127.5 -30.5q-37 0 -70.5 10.5t-59 34t-40.5 61.5t-15 92q0 93 8 207t20.5 240t27.5 259t30 263q2 20 5.5 47t7 55.5t7.5 57t7 51.5q-46 35 -99 50.5t-98 15.5q-60 0 -103 -20.5t-73 -60.5t-47.5 -99t-25.5 -135l-9 -82h213l-13 -141l-209 -4q-4 -58 -9 -132 t-11 -154.5t-12.5 -165.5t-13.5 -165.5t-14 -153.5t-14 -131q-14 -119 -46 -216.5t-85.5 -168t-130.5 -109t-182 -38.5q-94 0 -144.5 40t-50.5 108z" />
</font>
</defs>
</svg>
