<?xml version="1.0" standalone="no"?>
<!DOCTYPE svg PUBLIC "-//W3C//DTD SVG 1.1//EN" "http://www.w3.org/Graphics/SVG/1.1/DTD/svg11.dtd" >
<svg xmlns="http://www.w3.org/2000/svg">
<metadata></metadata>
<defs>
<font id="league_gothic_condensed_itaRg" horiz-adv-x="456" >
<font-face units-per-em="2048" ascent="1505" descent="-543" />
<missing-glyph horiz-adv-x="221" />
<glyph horiz-adv-x="2048" />
<glyph horiz-adv-x="2048" />
<glyph horiz-adv-x="682" />
<glyph unicode="&#xd;" horiz-adv-x="221" />
<glyph unicode=" "  horiz-adv-x="221" />
<glyph unicode="&#x09;" horiz-adv-x="221" />
<glyph unicode="&#xa0;" horiz-adv-x="221" />
<glyph unicode="!" horiz-adv-x="292" d="M-47 0l47 227h166l-49 -227h-164zM66 406l200 1099h180l-266 -1099h-114z" />
<glyph unicode="&#x22;" horiz-adv-x="462" d="M156 954l98 551h166l-135 -551h-129zM362 954l99 551h166l-135 -551h-130z" />
<glyph unicode="#" horiz-adv-x="800" d="M12 0l131 438h-120l57 195h119q15 59 39 129l38 129h-116l55 194h119q10 37 31.5 109.5t29.5 99.5l64 211h153l-123 -420h119q10 36 31.5 107.5t30.5 101.5l63 211h154l-125 -420h117l-58 -194h-114l-39 -129q-30 -92 -39 -129h114l-57 -195h-115l-65 -219 q-11 -39 -33 -112.5t-31 -106.5h-155l129 438h-119l-66 -219q-11 -40 -32.5 -113.5t-30.5 -105.5h-156zM354 633h119q15 59 39 129l39 129h-119z" />
<glyph unicode="$" horiz-adv-x="479" d="M0 131q-19 98 6 227l135 13q-13 -82 -2 -129q10 -58 54 -58q33 0 63 58q26 54 41 127q16 77 -4 174q-9 43 -21 84q-23 66 -53 176q-33 149 -33 227q0 69 13 125q22 118 77 211q58 105 146 131l29 131h86l-27 -125q73 -11 100 -96q20 -74 4 -186l-139 -25q9 51 0.5 88.5 t-39.5 36.5q-29 0 -55 -51q-28 -54 -39 -111q-15 -70 4 -172q9 -51 45 -166q9 -27 29 -98q35 -123 35 -225q0 -62 -15 -127q-30 -148 -88 -242q-72 -113 -162 -127l-45 -217h-86l45 221q-81 22 -104 125z" />
<glyph unicode="%" horiz-adv-x="837" d="M76 0l751 1505h131l-745 -1505h-137zM156 911l92 437q18 76 69.5 125t120.5 49q75 0 100 -49.5t15 -124.5l-92 -437q-20 -77 -70 -126.5t-119 -49.5q-74 0 -102.5 51.5t-13.5 124.5zM272.5 875q1.5 -19 24.5 -19q14 0 23.5 10t12 19.5t5.5 25.5l92 437q12 55 -16 55 q-29 0 -43 -55l-92 -437q-8 -17 -6.5 -36zM479 158l92 436q15 75 68.5 125.5t122.5 50.5q72 0 98.5 -51.5t16.5 -124.5l-93 -436q-20 -75 -70 -124.5t-118 -49.5q-73 0 -102.5 50.5t-14.5 123.5zM597.5 131.5q-0.5 -12.5 5 -22t18.5 -9.5q29 0 41 58l92 436q12 55 -17 55 q-30 0 -43 -55l-92 -436q-4 -14 -4.5 -26.5z" />
<glyph unicode="&#x26;" horiz-adv-x="573" d="M-35.5 196q0.5 49 10.5 95q14 71 58 167.5t74.5 150t85.5 143.5q-16 226 28 442q80 328 250 328q45 0 74 -24t40 -58.5t12 -81t-4 -83.5t-13 -75q-12 -58 -33.5 -114t-56.5 -119.5t-57 -99t-68 -107.5q15 -260 16 -271q20 33 42 90.5t30 94.5l131 -25q-15 -63 -49 -141.5 t-55 -117.5t-72 -132q3 -13 20.5 -31t38.5 -30l-45 -213q-54 17 -73 38t-35 61l-3 9q-62 -108 -184 -108q-61 0 -99.5 32t-51 81.5t-12 98.5zM135.5 204.5q7.5 -42.5 36.5 -42.5q54 0 100 98q-29 124 -39 281q-8 -19 -27 -63t-25 -58t-16.5 -41.5t-16 -46.5t-9.5 -39 q-11 -46 -3.5 -88.5zM344 975q72 136 92 225q9 34 12.5 66t-0.5 56t-18 24q-20 0 -38.5 -46t-29.5 -100q-28 -139 -18 -225z" />
<glyph unicode="'" horiz-adv-x="198" d="M158 954l98 551h166l-135 -551h-129z" />
<glyph unicode="(" horiz-adv-x="397" d="M37 283q9 164 51 362q71 333 229 664q73 155 158 301l103 -109q-124 -197 -236 -506q-56 -149 -98 -350q-71 -331 -56 -620q5 -123 25 -234l-145 -106q-46 256 -31 598z" />
<glyph unicode=")" horiz-adv-x="397" d="M-104 -209q98 153 235 506q62 180 98 348q66 316 54 621q-7 147 -25 235l148 109q43 -265 28 -600q-9 -167 -51 -365q-71 -332 -229 -663q-57 -118 -158 -297z" />
<glyph unicode="*" horiz-adv-x="468" d="M137 1083l125 134l-106 38l59 142l88 -47l23 155h129l-43 -157l106 49v-142l-117 -38l60 -134l-119 -100l-37 125l-88 -125z" />
<glyph unicode="+" horiz-adv-x="698" d="M86 649l37 172h221l74 346h141l-74 -346h222l-37 -172h-221l-74 -346h-142l74 346h-221z" />
<glyph unicode="," horiz-adv-x="247" d="M-45 -266l104 266h-51l49 227h166l-49 -227l-123 -266h-96z" />
<glyph unicode="-" horiz-adv-x="327" d="M63 455l41 194h215l-40 -194h-216z" />
<glyph unicode="." horiz-adv-x="253" d="M2 0l47 227h166l-47 -227h-166z" />
<glyph unicode="/" horiz-adv-x="493" d="M-117 -147l676 1652h135l-674 -1652h-137z" />
<glyph unicode="0" horiz-adv-x="495" d="M-12.5 180q0.5 51 12.5 109l197 928q18 84 50 149.5t89.5 110.5t130.5 45q58 0 94.5 -29.5t48 -77.5t10.5 -97.5t-12 -100.5l-198 -928q-28 -132 -94.5 -218.5t-174.5 -86.5q-57 0 -92.5 27t-48.5 72.5t-12.5 96.5zM169.5 223.5q4.5 -24.5 18.5 -24.5q15 0 30.5 27 t21.5 63l198 928q19 90 -14 90q-17 0 -31 -25.5t-22 -64.5l-199 -928q-7 -41 -2.5 -65.5z" />
<glyph unicode="1" horiz-adv-x="346" d="M2 0l252 1180h-88l29 137q64 22 139 110q23 33 43 78h117l-322 -1505h-170z" />
<glyph unicode="2" horiz-adv-x="499" d="M-66 0l48 219q199 341 269 481q122 243 167 433q5 22 9 49.5t7.5 59.5t0.5 53.5t-13 21.5q-21 0 -44 -71.5t-30 -112.5l-22 -105h-170l22 105q86 389 287 389q202 0 119 -375q-38 -183 -159 -437t-259 -491h211l-47 -219h-396z" />
<glyph unicode="3" horiz-adv-x="473" d="M27 434h166q-10 -44 -16.5 -80t-13 -80.5t-4 -70t14.5 -25.5q35 0 78 205q35 170 24.5 231.5t-81.5 65.5l38 182q41 3 70 23t46 56.5t27 72.5t21 87q3 14 4 21q30 148 25 182q-3 17 -12 17q-38 0 -90 -250h-168q12 57 25 106.5t39 116.5t56 114t76.5 80.5t100.5 33.5 q59 0 94 -35t44.5 -90.5t7.5 -108t-13 -102.5q-36 -166 -77.5 -256.5t-115.5 -161.5q92 -73 25 -383q-17 -84 -38 -147.5t-54 -125t-82 -95t-111 -33.5q-203 0 -106 450z" />
<glyph unicode="4" horiz-adv-x="479" d="M-6 328l39 194l420 983h165l-208 -983h61l-41 -194h-61l-72 -328h-145l71 328h-229zM176 522h92l99 465z" />
<glyph unicode="5" horiz-adv-x="483" d="M1 205.5q4 63.5 13 112t20 99.5q2 5 2.5 7.5t1 6.5t1.5 7h168l-21 -100q-6 -29 -10 -57.5t-5.5 -52t1.5 -38t10 -14.5q36 0 72 160l80 377q9 47 4.5 78.5t-19.5 31.5q-21 0 -40 -41t-25 -69h-148l168 792h357l-47 -219h-205l-68 -321q7 20 41.5 39.5t59.5 19.5 q35 0 58.5 -14.5t34 -42t14.5 -56.5t0.5 -68.5t-8 -67t-11.5 -62.5l-76 -357q-86 -372 -291 -372q-55 0 -86.5 32.5t-40.5 79t-5 110z" />
<glyph unicode="6" horiz-adv-x="481" d="M-10.5 195.5q1.5 45.5 10.5 93.5l190 889q77 344 275 344q199 0 129 -344l-23 -107h-163q8 41 13.5 71.5t13 80.5t5 78t-15.5 28q-30 0 -64 -151l-59 -279q5 10 30.5 22.5t47.5 12.5q38 0 64.5 -12.5t39.5 -36t19 -49.5t4 -60.5t-6 -60.5t-11 -58l-79 -368 q-12 -54 -35 -105t-56.5 -97.5t-83 -74.5t-106.5 -28t-91 31.5t-42 83t-6.5 97zM166 264q-18 -88 18 -88q22 0 37 28.5t21 59.5l92 430q8 68 -25 68q-14 0 -25.5 -12.5t-15 -21.5t-10.5 -28z" />
<glyph unicode="7" horiz-adv-x="415" d="M-27 0l408 1286h-201l47 219h373l-47 -221l-408 -1284h-172z" />
<glyph unicode="8" horiz-adv-x="479" d="M-4.5 168.5q-3.5 48.5 6.5 91.5l70 320q28 130 131 215q-21 26 -31 49.5t-15 61t7 83.5l61 291q21 97 87 169.5t159 72.5q51 0 86 -22.5t48.5 -57.5t17 -78t-8.5 -84l-61 -291q-14 -71 -42.5 -115t-78.5 -79q36 -24 47 -79.5t-6 -135.5l-70 -320q-11 -50 -32 -97 t-52.5 -88t-76.5 -66t-97 -25t-87 27t-47 68t-15.5 89.5zM166 201q5 -19 20 -19q13 0 28.5 20t21.5 48q2 12 14 66t20 94q9 47 22 105.5t17 78.5q9 32 5.5 59t-21.5 27q-36 0 -53 -88q-17 -85 -39 -182q-7 -33 -18 -84t-15 -74q-7 -32 -2 -51zM314 897.5q6 -18.5 22 -18.5 q13 0 28 19.5t21 47.5q2 10 11.5 54t17.5 85q28 124 35 164q9 32 5 58t-22 26q-36 0 -53 -86q-12 -59 -35 -162q-8 -37 -16.5 -76t-12.5 -61q-7 -32 -1 -50.5z" />
<glyph unicode="9" horiz-adv-x="481" d="M-18 185q2 42 6.5 74.5t11.5 68.5l23 106h163q-10 -50 -14.5 -73t-13 -77.5t-6 -81t15.5 -26.5q31 0 65 152l58 278q-5 -10 -30.5 -22.5t-47.5 -12.5q-38 0 -64.5 12.5t-39.5 36t-19.5 49.5t-4.5 60.5t6 60.5t11 58l80 369q12 54 35 105t56.5 97.5t83 74.5t106.5 28 q47 0 78.5 -22t45 -54.5t17 -76t0 -80t-11.5 -72.5l-189 -889q-16 -66 -34.5 -117.5t-50.5 -107.5t-80.5 -87.5t-110.5 -31.5q-43 0 -73 16.5t-44.5 46t-22 63t-5.5 75.5zM258.5 770.5q4.5 -27.5 26.5 -27.5q33 0 49 62l92 436q18 88 -18 88q-22 0 -37 -28.5t-21 -59.5 l-90 -430q-6 -13 -1.5 -40.5z" />
<glyph unicode=":" horiz-adv-x="278" d="M-33 0l47 227h166l-49 -227h-164zM156 893l49 227h166l-49 -227h-166z" />
<glyph unicode=";" horiz-adv-x="278" d="M-74 -266l105 266h-49l47 227h166l-50 -227l-122 -266h-97zM170 893l49 227h166l-49 -227h-166z" />
<glyph unicode="&#x3c;" horiz-adv-x="696" d="M88 655l31 148l692 508l-47 -219l-504 -363q24 -25 53 -55.5t65.5 -67.5t55.5 -57l176 -182l-47 -220z" />
<glyph unicode="=" horiz-adv-x="696" d="M47 477l37 172h584l-37 -172h-584zM129 864l37 172h584l-37 -172h-584z" />
<glyph unicode="&#x3e;" horiz-adv-x="696" d="M-18 147l45 220l499 362l-346 363l47 219l475 -508l-30 -148z" />
<glyph unicode="?" horiz-adv-x="313" d="M2 0l49 227h166l-49 -227h-166zM96 406l56 256q24 113 98 270q30 64 102 182q9 14 18 30.5t22.5 42t20 47.5t9.5 42.5t-6.5 32.5t-30.5 12q-31 0 -72 -55q-11 -15 -21 -32.5t-19 -35.5l-11 -22l-104 84q22 61 98 153q85 100 174 100q188 0 133 -266q-21 -99 -110 -239 q-6 -10 -20 -32.5t-21 -33.5q-52 -82 -86 -172q-17 -50 -29 -108l-55 -256h-146z" />
<glyph unicode="@" horiz-adv-x="692" d="M2 311l184 873q23 115 103 211q119 133 278 133q163 0 226 -133q36 -85 10 -211l-168 -795h-137l-15 64q-12 -28 -50 -53t-71 -25q-51 0 -68.5 55t1.5 133l100 477q43 185 170 185q37 0 66 -29q4 50 -8 78q-17 53 -99 53q-75 0 -114 -53q-38 -44 -50 -90l-184 -873 q-10 -42 10 -84q19 -55 93 -55q83 0 145 72l123 -103q-62 -76 -135.5 -120t-173.5 -44q-156 0 -222 132q-35 81 -14 202zM455 575q-3 -14 3.5 -24t14.5 -10q26 0 31 34l96 449q3 15 -3 25t-17 10q-8 0 -17 -10.5t-12 -24.5z" />
<glyph unicode="A" horiz-adv-x="520" d="M-86 0l457 1505h198l-186 -1505h-166l43 307h-94l-88 -307h-164zM233 541h64l94 598z" />
<glyph unicode="B" horiz-adv-x="507" d="M-49 0l319 1505h150q63 0 99.5 -21t58.5 -67q24 -54 24 -134q0 -77 -22 -177q-24 -122 -58 -195q-47 -84 -96 -116q26 -30 39 -60.5t14 -87.5q0 -47 -33 -221q-19 -88 -47 -174.5t-49 -122.5q-76 -129 -178 -129h-221zM166 219q33 0 43 10q30 30 70 222q11 53 17.5 86.5 t10.5 63.5t3 47t-7 24q-8 10 -39 10zM307 885q33 0 45 12q29 34 62 188q23 107 23 156q0 22 -5 33q-10 12 -39 12z" />
<glyph unicode="C" horiz-adv-x="487" d="M-12 184q1 50 12 105l197 928q12 54 32.5 104.5t52 97.5t78 75t101.5 28q58 0 94 -32t46 -82q10 -48 9 -93q0 -50 -10 -98l-49 -228h-166l49 228q7 32 7 53q0 37 -23 37q-30 0 -45 -82l-201 -936q-8 -36 -8 -57q0 -33 18 -33q35 0 54 90l49 227h166l-50 -227 q-28 -134 -93 -219.5t-173 -85.5q-56 0 -91 28t-46 76q-10 44 -10 88v8z" />
<glyph unicode="D" horiz-adv-x="518" d="M-49 0l319 1505h142q100 0 140.5 -34t51.5 -121q2 -20 1 -43q0 -69 -15 -167q-21 -130 -74 -388q-41 -190 -61.5 -281.5t-49.5 -193.5t-53 -144q-35 -66 -89.5 -99.5t-149.5 -33.5h-162zM166 221q2 -1 11 -1h7.5h4.5q3 0 10 2t11 5t10 8.5t10.5 14t9.5 20.5q10 31 94 418 q13 63 35 163t30.5 140.5t20 96.5t16.5 88t8 59v8q0 8 -1 14q-2 9 -4.5 14t-10 8t-10 3.5t-13.5 1t-12 0.5z" />
<glyph unicode="E" horiz-adv-x="438" d="M-49 0l319 1505h340l-49 -227h-170l-84 -395h123l-51 -242h-123l-88 -414h170l-49 -227h-338z" />
<glyph unicode="F" horiz-adv-x="432" d="M-49 0l319 1505h353l-50 -227h-182l-84 -395h123l-47 -228h-123l-141 -655h-168z" />
<glyph unicode="G" horiz-adv-x="503" d="M-12 196q2 48 12 93l197 928q12 55 33 105.5t52.5 97t78.5 74.5t102 28q58 0 94 -29.5t47 -78.5q10 -47 10 -93q0 -51 -12 -104l-53 -252h-170l53 252q6 32 6 52q0 38 -20 38q-16 0 -29 -27.5t-20 -62.5l-201 -947q-7 -33 -7 -54q0 -36 21 -36q43 0 62 90l61 293h-37 l39 187h195l-160 -750h-88l-6 55q-20 -27 -59.5 -49t-67.5 -22q-53 0 -85 32t-40 82q-8 42 -8 84v14z" />
<glyph unicode="H" horiz-adv-x="528" d="M-49 0l319 1505h170l-133 -622h66l133 622h170l-322 -1505h-170l142 655h-66l-141 -655h-168z" />
<glyph unicode="I" horiz-adv-x="292" d="M-49 0l319 1505h170l-321 -1505h-168z" />
<glyph unicode="J" horiz-adv-x="315" d="M-88 -12l45 221q9 -2 16 -2q30 0 48 27q23 34 32 79l254 1192h170l-260 -1226q-62 -293 -273 -293q-16 0 -32 2z" />
<glyph unicode="K" horiz-adv-x="522" d="M-49 0l319 1505h164l-92 -432l203 432h166l-267 -551l-59 -954h-166l47 717l-153 -717h-162z" />
<glyph unicode="L" horiz-adv-x="423" d="M-49 0l319 1505h170l-276 -1300h176l-45 -205h-344z" />
<glyph unicode="M" horiz-adv-x="655" d="M-49 0l319 1505h189l-74 -710l229 710h189l-322 -1505h-157l153 741l-215 -741h-92l94 741l-158 -741h-155z" />
<glyph unicode="N" horiz-adv-x="546" d="M-49 0l319 1505h144l-29 -710l152 710h157l-321 -1505h-144l33 731l-156 -731h-155z" />
<glyph unicode="O" horiz-adv-x="495" d="M0 289l197 928q18 84 50 149.5t89.5 110.5t130.5 45q58 0 94.5 -29.5t48.5 -77.5q11 -44 10 -90v-7q-1 -50 -12 -101l-198 -928q-28 -132 -94.5 -218.5t-174.5 -86.5q-57 0 -92.5 27t-48.5 73q-13 44 -13 92q0 52 13 113zM170 224q4 -24 18 -25q15 0 30.5 27t21.5 63 l198 928q7 33 7 54q0 36 -21 36q-17 0 -31 -25.5t-22 -64.5l-199 -928q-4 -25 -5 -44q1 -11 3 -21z" />
<glyph unicode="P" horiz-adv-x="493" d="M-49 0l319 1505h172q53 0 86 -19.5t54 -70.5q24 -55 23 -140q0 -92 -27 -220q-55 -250 -150 -367q-69 -82 -180 -86l-129 -602h-168zM295 827q41 0 59 25q23 34 58 195q30 141 30 193q0 14 -2 22q-2 11 -11 16t-15.5 5.5t-20.5 0.5z" />
<glyph unicode="Q" horiz-adv-x="499" d="M-8 187q1 48 12 102l197 928q13 62 34 114t52 96.5t76.5 69.5t101.5 25q58 0 94 -29.5t47 -77.5q10 -44 10 -89v-8q-1 -50 -12 -101l-196 -928q-17 -84 -68 -178q-2 -1 -2 -2v-3q12 -27 39 -36l-39 -185q-124 0 -143 107h-2q-12 -4 -19 -4l-27 -4h-16q-2 0 -3.5 1t-2.5 1 q-52 4 -83.5 32.5t-41.5 74.5q-9 40 -9 82q0 6 1 12zM172 226q1 -27 14 -27q14 0 27 27.5t20 62.5l197 928q8 37 8 59q0 31 -16 31q-29 0 -47 -90l-197 -928q-7 -29 -7 -54q0 -4 1 -9z" />
<glyph unicode="R" horiz-adv-x="505" d="M-49 0l319 1505h172q116 0 148 -110q13 -44 13 -105q0 -91 -28 -219q-55 -253 -151 -342l-51 -729h-166l53 655l-141 -655h-168zM297 829q29 0 49 23q28 30 66 211q27 130 27 179q0 16 -3 24q-9 20 -43 20z" />
<glyph unicode="S" horiz-adv-x="483" d="M-20 178v10q0 30 5 72q6 50 11 76.5t13 68.5q1 5 1.5 8.5t1.5 6.5l172 24q-7 -34 -12.5 -63t-13.5 -81q-5 -35 -4 -61v-22q4 -31 20 -31q22 0 36 33.5t30 112.5q10 46 12 90v19q0 39 -6 89q-8 62 -16.5 107t-28.5 145q-24 143 -24 250q0 78 13 137q12 58 30.5 111.5 t49.5 111t79 93.5t106 37h5q38 0 66 -14q30 -16 45.5 -40.5t22.5 -61.5t8 -71q0 -6 1 -12q0 -29 -5 -65q-5 -44 -10.5 -71.5l-12.5 -62.5l-172 -24q1 5 4 21.5t5.5 28t6 30.5t5 33.5t3.5 31.5t2.5 29t-0.5 23t-4.5 16.5t-8.5 5.5q-17 0 -31 -37.5t-29 -112.5q-6 -35 -8 -73 q0 -8 -1 -17q1 -31 5 -70q6 -49 11.5 -87t17.5 -107q17 -84 25 -131q6 -47 14 -112q5 -46 5 -88v-32q-3 -55 -15 -110q-78 -358 -279 -358q-43 0 -73 17t-46.5 41t-23.5 64t-8 72z" />
<glyph unicode="T" horiz-adv-x="450" d="M27 0l272 1278h-125l49 227h420l-49 -227h-125l-272 -1278h-170z" />
<glyph unicode="U" horiz-adv-x="512" d="M0 289l256 1216h170l-258 -1216q-8 -34 -8 -56v-11q2 -24 22 -23q31 0 49 90l258 1216h170l-258 -1216q-66 -305 -266 -305q-151 0 -151 174q0 56 16 131z" />
<glyph unicode="V" horiz-adv-x="491" d="M49 0l182 1505h166l-106 -770l221 770h166l-461 -1505h-168z" />
<glyph unicode="W" horiz-adv-x="684" d="M29 0l207 1505h159l-108 -706l200 706h125l-98 -704q29 111 95.5 352t95.5 352h159l-432 -1505h-145l96 721l-211 -721h-143z" />
<glyph unicode="X" horiz-adv-x="503" d="M-88 0l313 791q0 243 4 356l4 358h168l-18 -364q25 70 74 198.5t63 165.5h168l-295 -714q-1 -41 -4 -128t-4 -131l-16 -532h-166l26 416l-153 -416h-164z" />
<glyph unicode="Y" horiz-adv-x="481" d="M55 0l138 641l43 864h167l-36 -438q28 83 82.5 237.5t70.5 200.5h168l-326 -864l-137 -641h-170z" />
<glyph unicode="Z" horiz-adv-x="438" d="M-86 0l51 238l428 1048h-178l47 219h361l-48 -219l-440 -1067h213l-47 -219h-387z" />
<glyph unicode="[" horiz-adv-x="385" d="M-82 -213l363 1718h276l-41 -196h-121l-282 -1325h120l-40 -197h-275z" />
<glyph unicode="\" horiz-adv-x="536" d="M233 -180l31 1872h135l-28 -1872h-138z" />
<glyph unicode="]" horiz-adv-x="385" d="M-96 -213l41 197h118l283 1325h-121l41 196h277l-365 -1718h-274z" />
<glyph unicode="^" horiz-adv-x="722" d="M61 809l377 696h178l78 -696h-155l-58 487l-264 -487h-156z" />
<glyph unicode="_" horiz-adv-x="724" d="M-16 -326l34 172h613l-37 -172h-610z" />
<glyph unicode="`" horiz-adv-x="675" d="M328 1489h164l22 -184h-131z" />
<glyph unicode="a" horiz-adv-x="471" d="M-12 94q-1 10 -1 22q1 18 3 42q4 40 6.5 55.5l7.5 46.5q61 273 242 404q67 47 84 79l24 121q7 26 6.5 60t-12.5 34q-13 0 -28 -33t-21 -61l-14 -73h-156l14 67q15 68 45.5 128.5t84.5 105.5t118 45q45 0 75.5 -25t41.5 -63q10 -39 12 -83v-12q0 -37 -10 -71l-145 -688 q-20 -85 -33 -195h-137q-11 55 -9 68q-22 -35 -55 -59.5t-68 -24.5q-26 0 -43 14.5t-23 43t-9 52.5zM148 198q2 -20 16 -20q19 0 36 22.5t23 53.5l56 260q-36 -36 -74 -111t-51 -141q-2 -7 -5 -25q-2 -10 -1 -20q-1 -10 0 -19z" />
<glyph unicode="b" horiz-adv-x="473" d="M-47 0l317 1505h162l-92 -432q9 20 42.5 42t55.5 22q37 0 58.5 -20.5t27.5 -54.5q4 -24 3 -48q-1 -11 -1 -22q-2 -35 -10 -74l-151 -715q-1 -4 -5.5 -25t-6.5 -29t-7.5 -28.5t-9 -30t-10.5 -27t-13.5 -26t-16.5 -20.5t-20 -18t-23 -10.5t-28 -4.5q-36 0 -65 27t-35 50 l-12 -61h-160zM166 256q-6 -28 -6 -46q0 -32 18 -32q30 0 45 78l135 627q4 18 4 34q0 9 -2 17q-4 22 -16 22q-14 0 -26 -22.5t-17 -50.5z" />
<glyph unicode="c" horiz-adv-x="448" d="M10 136q-1 19 -1 36q0 24 2 45q4 37 12 78l112 530q14 56 32 104.5t48 98.5t75.5 79.5t100.5 29.5q45 0 75.5 -11.5t46 -35t23.5 -48.5q5 -18 5 -43q0 -9 -1 -21q-3 -40 -7.5 -68.5t-14.5 -73.5l-22 -109h-156l31 147q7 33 7 51.5t-5 24.5t-15 6q-13 0 -29 -25.5 t-22 -56.5l-131 -616q-7 -31 -4.5 -59.5t16.5 -28.5q34 0 52 88l32 156h156l-27 -129q-10 -46 -19 -77.5t-23.5 -70t-32.5 -63t-43.5 -47t-60.5 -33t-79 -10.5q-45 0 -75 21.5t-42.5 54t-15.5 76.5z" />
<glyph unicode="d" horiz-adv-x="473" d="M-12 84q2 24 4.5 40t7 42t6.5 37l152 715q9 39 21.5 73.5t32.5 69.5t50.5 55.5t67.5 20.5q22 0 45.5 -22t23.5 -42l93 432h161l-319 -1505h-162l12 61q-13 -22 -55 -49.5t-78 -27.5q-20 0 -34 7.5t-20 22.5q-7 14 -9 30q-1 9 -1 20q0 9 1 20zM168 256q-5 -28 -5 -46 q0 -32 17 -32q14 0 26 23t19 55l135 627q4 24 4 40q0 33 -18 33q-13 0 -25 -21t-18 -52z" />
<glyph unicode="e" d="M4 167q2 46 12 99l125 584q25 115 89.5 201t158.5 86q50 0 82.5 -17.5t46.5 -43.5q14 -27 18 -66q2 -18 2 -36q0 -20 -2 -38q-4 -36 -14 -80l-69 -334h-224l-53 -243q-8 -47 -9 -75q0 -38 17 -38q39 0 62 113l26 122h154l-31 -141q-59 -276 -260 -276q-50 0 -81 25 t-41 69q-9 38 -9 77v12zM262 684h70l35 158q9 43 9 69q0 45 -26 45q-18 0 -32 -38t-21 -76z" />
<glyph unicode="f" horiz-adv-x="346" d="M-23 0l197 934h-63l41 186h63l12 66q11 46 18.5 73t22 71.5t31 71.5t39 55.5t53 42t66.5 13.5q42 0 71 -20l-34 -170q-14 10 -31 10t-27 -8q-24 -21 -45 -127l-16 -78h63l-41 -186h-63l-199 -934h-158z" />
<glyph unicode="g" horiz-adv-x="501" d="M-88 -184q18 89 141 170h2q-60 31 -60 105q0 20 5 44q8 43 43 89.5t76 78.5q-36 79 -36 161q0 41 9 83l66 305q9 38 22.5 75.5t36 76t49 67.5t62.5 47.5t75 18.5q91 0 113 -70q73 70 143 70l-38 -185q-59 0 -80 -24q4 -15 -2 -49l-72 -338q-13 -48 -35 -94t-53.5 -88.5 t-75.5 -68.5t-94 -26h-10q-18 -22 -23 -49t16.5 -44.5t51.5 -25.5q82 -24 108 -63q31 -51 31 -122q0 -35 -8 -75q-27 -124 -101 -205t-192 -81q-103 0 -147 59q-30 39 -30 98q0 28 7 60zM74 -150q-3 -14 -3 -26q0 -17 7 -30q11 -21 43 -21q33 0 58.5 21.5t33.5 53.5 q2 12 2 22q0 42 -39 58l-45 17q-47 -41 -57 -95zM242 468q0 -32 14 -32q30 0 51 101l68 317q10 43 10 68q0 34 -18 34q-14 0 -28.5 -33t-21.5 -69l-67 -317q-8 -37 -8 -69z" />
<glyph unicode="h" horiz-adv-x="468" d="M-49 0l319 1505h162l-92 -432q8 21 41 42.5t59 21.5q36 0 56.5 -23.5t24.5 -61.5q2 -23 2 -45q-1 -13 -1 -25q-2 -32 -8 -64l-197 -918h-153l188 883q7 29 7 46q0 27 -17 27q-27 0 -43 -73l-188 -883h-160z" />
<glyph unicode="i" horiz-adv-x="270" d="M-49 0l237 1120h162l-239 -1120h-160zM225 1298l45 207h162l-45 -207h-162z" />
<glyph unicode="j" horiz-adv-x="280" d="M-182 -369l45 187q16 -3 27.5 -4t21 8.5t15.5 17.5t11 23.5t7.5 26.5t5.5 26q1 7 2 10l252 1194h162l-244 -1149q-29 -138 -66 -221q-66 -135 -170 -135q-36 0 -69 16zM242 1298l45 207h162l-46 -207h-161z" />
<glyph unicode="k" horiz-adv-x="446" d="M-49 0l319 1505h156l-131 -618l125 233h155l-219 -385l-24 -735h-156l31 475l-103 -475h-153z" />
<glyph unicode="l" horiz-adv-x="280" d="M-49 0l319 1505h162l-321 -1505h-160z" />
<glyph unicode="m" horiz-adv-x="673" d="M-29 0l236 1120h162l-13 -59q25 31 61.5 53.5t65.5 22.5q32 0 48.5 -24.5t13.5 -57.5q21 33 64.5 57.5t78.5 24.5q19 0 32.5 -6t21 -19t12.5 -25.5t5 -34v-35t-4 -37t-6 -33t-6 -29.5l-194 -918h-150l189 883q4 23 4 38q0 35 -21 35q-16 0 -28.5 -24.5t-16.5 -48.5 l-188 -883h-148l189 887q7 32 2.5 50.5t-19.5 18.5q-13 0 -25 -21t-18 -52l-188 -883h-160z" />
<glyph unicode="n" horiz-adv-x="475" d="M-29 0l236 1120h162l-13 -57q24 26 62.5 50t62.5 24q77 0 77 -110q0 -45 -13 -109l-195 -918h-160l189 885q4 21 4 36q0 35 -21 35q-29 0 -43 -73l-188 -883h-160z" />
<glyph unicode="o" d="M5 116q-2 20 -2 40t2 38q4 38 13 85l121 563q62 295 254 295q59 0 93 -22q34 -23 44 -65q7 -31 7 -64q-1 -12 -1 -25q-4 -47 -18 -113l-121 -576q-30 -139 -89 -213.5t-163 -74.5q-46 0 -77 18t-45 45.5t-18 68.5zM168 258q-7 -33 -7 -54q0 -38 23 -38q21 0 37 34.5 t19 57.5l129 604q10 33 10 59q-1 4 -1 7q-2 28 -24 28q-36 0 -57 -94z" />
<glyph unicode="p" horiz-adv-x="473" d="M-90 -385l317 1505h162l-12 -57q19 28 57 51t66 23q80 0 80 -107q0 -46 -15 -112l-151 -715q-49 -219 -160 -219q-28 0 -54.5 24.5t-33.5 57.5l-96 -451h-160zM205 246q-4 -22 -4 -36q0 -32 20 -32q28 0 43 68l133 635q5 27 5 44q0 31 -17 31q-32 0 -47 -75z" />
<glyph unicode="q" horiz-adv-x="473" d="M24 66q-2 19 -2 36t2 32q2 29 9 69l151 715q49 219 160 219q28 0 56 -23t34 -51l12 57h162l-319 -1505h-162l96 451q-23 -34 -60 -58t-65 -24q-35 0 -53.5 21.5t-20.5 60.5zM203 246q-5 -23 -5 -38q0 -30 19 -30q31 0 45 68l133 635q5 26 5 42q0 33 -19 33q-30 0 -45 -75 z" />
<glyph unicode="r" horiz-adv-x="364" d="M-29 0l236 1120h158l-13 -61q62 78 154 78l-51 -246q-30 19 -56 19q-25 0 -47 -19q-44 -38 -59 -113l-166 -778h-156z" />
<glyph unicode="s" horiz-adv-x="440" d="M-9 127q-1 10 -1 21q0 20 2 44q4 38 8 66.5t12 67.5h148q-16 -80 -16 -123q0 -47 20 -47t33 31.5t28 103.5q4 21 4 46t-2 44t-9 51t-11 47.5t-14 52.5q-4 15 -18.5 59.5t-19.5 65.5t-11 59q-5 29 -5 58v18q2 36 11 78q25 116 84.5 191.5t146.5 75.5q40 0 68.5 -14 t42.5 -41q14 -26 20 -54q5 -21 4 -47v-20q-2 -38 -6.5 -65.5t-11.5 -61.5h-140q4 16 6.5 35.5t4 42.5t-3 38t-15.5 15q-28 0 -55 -117q-4 -21 -4.5 -44t1 -39t6.5 -40t8 -34.5t10.5 -35.5t9.5 -30q16 -41 26 -75q12 -34 22 -82q10 -46 10 -98q0 -57 -13 -116 q-7 -33 -17.5 -65.5t-31 -71t-46 -66.5t-64.5 -47.5t-85 -19.5q-36 0 -62 11.5t-41.5 29t-23 46.5t-9.5 56z" />
<glyph unicode="t" horiz-adv-x="358" d="M-2 0l197 934h-68l41 186h68l57 277h158l-58 -277h86l-41 -186h-86l-198 -934h-156z" />
<glyph unicode="u" horiz-adv-x="475" d="M6 203l195 917h159l-188 -884q-4 -22 -4 -38q0 -34 20 -34q28 0 45 74l187 882h162l-238 -1120h-162l13 57q-22 -25 -61 -49t-64 -24q-75 0 -75 115q0 44 11 104z" />
<glyph unicode="v" horiz-adv-x="421" d="M49 0l121 1120h152l-93 -657l189 657h151l-360 -1120h-160z" />
<glyph unicode="w" horiz-adv-x="604" d="M33 0l139 1120h145l-71 -514l155 514h99l-68 -514l150 514h145l-338 -1120h-133l68 532l-160 -532h-131z" />
<glyph unicode="x" horiz-adv-x="444" d="M-47 0l235 578l-8 542h152l-8 -280l114 280h152l-244 -542l-8 -578h-150l21 303q-14 -34 -54 -151.5t-53 -151.5h-149z" />
<glyph unicode="y" horiz-adv-x="466" d="M-98 -395l39 182q18 -8 33 -8q22 0 38 18q46 53 74 170l109 1153h157l-80 -661q19 67 95 323t98 338h160l-396 -1204q-36 -134 -102 -217q-50 -66 -111 -91q-31 -14 -61 -14q-27 0 -53 11z" />
<glyph unicode="z" horiz-adv-x="380" d="M-70 0l37 168l330 764h-143l41 188h311l-37 -168l-332 -764h170l-41 -188h-336z" />
<glyph unicode="{" horiz-adv-x="475" d="M-1.5 -214.5q5.5 51.5 21.5 130.5l84 397q10 35 2 78q-4 59 -49 62l35 163q47 0 76 60q26 45 31 80l84 397q23 102 47.5 164.5t67 113.5t107 72t159.5 19l-37 -172q-41 -1 -71 -12t-48.5 -26t-32.5 -43t-21 -52t-16 -64l-84 -397q-15 -75 -59.5 -141.5t-89.5 -79.5 q39 -30 54.5 -90.5t0.5 -131.5l-84 -397q-11 -65 -12 -108.5t26.5 -66t90.5 -22.5l-37 -172q-79 0 -130.5 16.5t-78.5 44t-34.5 77t-2 101z" />
<glyph unicode="|" horiz-adv-x="274" d="M-139 -512l465 2204h151l-467 -2204h-149z" />
<glyph unicode="}" horiz-adv-x="475" d="M-135 -453l37 172q47 0 78 11.5t51 40t30.5 59t24.5 86.5l84 397q15 71 56 131.5t93 90.5q-39 13 -54.5 79.5t-0.5 141.5l84 397q12 57 15 100t-25 69t-92 28l37 172q125 3 182.5 -38t60 -124t-21.5 -207l-84 -397q-7 -52 -2 -80q7 -60 51 -60l-35 -163q-44 -3 -78 -62 q-16 -30 -30 -78l-84 -397q-14 -66 -27 -110.5t-33.5 -90t-47 -74t-64 -51.5t-88.5 -33t-117 -10z" />
<glyph unicode="~" horiz-adv-x="829" d="M180 1358q55 136 166 254q50 47 117 47q82 0 147 -92l8 -11q49 -71 78 -71q30 0 86 90q19 24 45 86q1 2 5 11t4 11l100 -79q-69 -154 -166 -256q-51 -48 -113 -48q-29 0 -51.5 7.5t-42 25t-30 30t-29.5 38.5q-51 74 -80 74q-31 0 -94 -91q-41 -75 -54 -108z" />
<glyph horiz-adv-x="475" d="M94 1012l49 227l123 266h99l-99 -266h43l-49 -227h-166zM315 1012l50 227l122 266h99l-99 -266h43l-49 -227h-166z" />
<glyph horiz-adv-x="466" d="M94 1012l101 266h-43l47 227h166l-48 -227l-124 -266h-99zM315 1012l101 266h-43l47 227h166l-47 -227l-125 -266h-99z" />
<glyph unicode="&#xa1;" horiz-adv-x="292" d="M-92 -385l264 1100h115l-201 -1100h-178zM182 893l49 227h166l-49 -227h-166z" />
<glyph unicode="&#xa2;" horiz-adv-x="444" d="M25.5 374q3.5 57 15.5 115l113 531q9 42 23.5 85t37.5 89.5t58.5 82t76.5 48.5l51 242h111l-51 -240q31 -7 52 -22t30.5 -39t13.5 -48.5t0.5 -60t-8 -61.5t-12.5 -66l-23 -108h-156l31 147q7 33 7 51.5t-4.5 24.5t-14.5 6q-13 0 -29 -25.5t-22 -56.5l-131 -616 q-7 -31 -4.5 -59.5t16.5 -28.5q33 0 51 88l33 155h155l-26 -129q-12 -51 -21 -83.5t-26 -72.5t-36.5 -65.5t-50 -46.5t-69.5 -29l-65 -305h-111l68 301q-48 18 -67.5 78.5t-16 117.5z" />
<glyph unicode="&#xa3;" horiz-adv-x="550" d="M-80 68q37 81 107 163q22 24 63 45q43 101 64 199q14 67 18 174h-113l31 137h90q-2 20 -2 64q8 217 25 299q32 150 92 250q75 120 184 123q128 3 152 -123q18 -111 -21 -279h-166q6 24 11 49.5t9.5 63t0 61t-20.5 23.5q-12 0 -23.5 -16t-21 -40.5t-16.5 -46.5t-13 -44 l-5 -21q-22 -105 -29 -363h125l-31 -137h-104q-3 -97 -21 -174q-17 -95 -84 -219q34 -41 49 -57l25 43q25 42 51 149l143 -29q-46 -183 -113 -280.5t-138 -97.5q-30 0 -58 25.5t-49 51t-35 25.5t-43 -51q-19 -28 -39 -76z" />
<glyph unicode="&#xa5;" horiz-adv-x="493" d="M31 340l28 137h105l29 137h-105l31 138h88l29 753h167l-30 -438q15 43 77 207t85 231h167l-292 -753h90l-31 -138h-107l-28 -137h106l-28 -137h-107l-74 -340h-170l74 340h-104z" />
<glyph unicode="&#xa8;" horiz-adv-x="675" d="M252 1305l43 200h151l-43 -200h-151zM465 1305l43 200h151l-43 -200h-151z" />
<glyph unicode="&#xa9;" horiz-adv-x="1048" d="M67 455q-6 138 27 297q65 319 252 544q85 106 186.5 166t202.5 60t177 -60t118 -166q88 -225 23 -544q-69 -320 -254 -543q-86 -106 -187 -165.5t-202 -59.5t-178 59.5t-117 165.5q-42 108 -48 246zM201 752q-59 -271 16 -457q76 -193 217 -193q71 0 149.5 51t151.5 142 q152 193 209 457q56 271 -14 460q-34 90 -91 140.5t-128 50.5q-142 0 -299 -191q-155 -189 -211 -460zM373 389q-3 46 8 98l113 531q19 96 86 166q30 30 90 30q86 0 94 -98q4 -53 -6 -98l-27 -125h-119l27 125q8 30 4 53q-2 0 -2 4l-10 -20q0 -2 -4 -6q-7 -13 -11 -31 l-112 -531q-7 -32 0 -57l-2 -6q2 0 4 4.5t5.5 13t6.5 13.5q8 16 8 32l27 125h119l-27 -125q-26 -99 -86 -165q-31 -31 -86 -31q-92 0 -100 98z" />
<glyph unicode="&#xad;" horiz-adv-x="327" d="M63 455l41 194h215l-40 -194h-216z" />
<glyph unicode="&#xae;" horiz-adv-x="1048" d="M67 455q-6 138 27 297q65 319 252 544q85 106 186.5 166t202.5 60t177 -60t118 -166q88 -225 23 -544q-69 -320 -254 -543q-86 -106 -187 -165.5t-202 -59.5t-178 59.5t-117 165.5q-42 108 -48 246zM201 752q-59 -271 16 -457q76 -193 217 -193q71 0 149.5 51t151.5 142 q152 193 209 457q56 271 -14 460q-34 90 -91 140.5t-128 50.5q-142 0 -299 -191q-155 -189 -211 -460zM342 313l186 879h138q156 0 100 -258q-14 -73 -33.5 -121t-66.5 -100h2l-21 -400h-129l21 338l-72 -338h-125zM571 805h9q9 0 20 11.5t18 29.5q19 34 29 86q12 62 8 88 q0 43 -20 43h-8z" />
<glyph unicode="&#xaf;" horiz-adv-x="675" d="M301 1315l33 162h274l-33 -162h-274z" />
<glyph unicode="&#xb4;" horiz-adv-x="675" d="M354 1305l105 184h164l-138 -184h-131z" />
<glyph unicode="&#xb7;" horiz-adv-x="190" d="M37 649l49 228h166l-49 -228h-166z" />
<glyph unicode="&#xb8;" horiz-adv-x="675" d="M193 -385l61 133h-45l31 141h139l-31 -141l-55 -133h-100z" />
<glyph unicode="&#xbf;" horiz-adv-x="448" d="M-104.5 -216.5q1.5 41.5 12.5 89.5q16 86 106 240q11 16 41 65q52 82 86 172q14 34 29 109l55 256h146l-56 -256q-24 -115 -98 -271q-35 -78 -102 -182q-15 -24 -29.5 -52t-30 -66.5t-10 -63.5t36.5 -25q29 0 74 56q10 15 20 32.5t18 35t11 22.5l104 -84 q-23 -63 -98 -154q-82 -100 -174 -100q-57 0 -91 25t-43 67.5t-7.5 84zM250 893l49 227h166l-49 -227h-166z" />
<glyph unicode="&#xc0;" horiz-adv-x="520" d="M-102 0l454 1505h199l-184 -1505h-166l43 307h-94l-89 -307h-163zM215 541h64l94 598zM356 1823h164l27 -185h-131z" />
<glyph unicode="&#xc1;" horiz-adv-x="520" d="M-102 0l454 1505h199l-184 -1505h-166l43 307h-94l-89 -307h-163zM215 541h64l94 598zM408 1638l102 185h164l-135 -185h-131z" />
<glyph unicode="&#xc2;" horiz-adv-x="520" d="M-102 0l454 1505h199l-184 -1505h-166l43 307h-94l-89 -307h-163zM215 541h64l94 598zM313 1638l125 185h166l45 -185h-133l-16 80l-54 -80h-133z" />
<glyph unicode="&#xc3;" horiz-adv-x="520" d="M-102 0l454 1505h199l-184 -1505h-166l41 307h-95l-86 -307h-163zM215 541h64l94 598zM336 1604l37 176q40 43 94 43q25 0 53 -17.5t47 -17.5t50 21t45 38l-35 -170q-43 -51 -95 -51q-24 0 -53 19.5t-49 19.5q-17 0 -49.5 -23t-44.5 -38z" />
<glyph unicode="&#xc4;" horiz-adv-x="520" d="M-102 0l454 1505h199l-184 -1505h-166l41 307h-90l-91 -307h-163zM217 541h59l84 536zM307 1638l43 201h152l-43 -201h-152zM506 1638l43 201h149l-43 -201h-149z" />
<glyph unicode="&#xc5;" horiz-adv-x="520" d="M-106 0l454 1505h199l-185 -1505h-165l41 307h-91l-90 -307h-163zM213 541h59l84 536zM393 1761q13 62 54.5 103t87.5 41q45 0 67.5 -41t9.5 -103t-53.5 -102.5t-85.5 -40.5q-46 0 -69.5 40.5t-10.5 102.5zM473 1714q5 -18 16 -18q10 0 25 19t21 46t-1.5 45.5t-17.5 18.5 q-11 0 -24 -18t-19 -46q-5 -29 0 -47z" />
<glyph unicode="&#xc6;" horiz-adv-x="720" d="M-88 0l571 1505h410l-49 -227h-170l-84 -395h123l-51 -242h-123l-88 -414h170l-50 -227h-340l66 307h-100l-119 -307h-166zM283 541h65q8 41 32 153.5t52 243t35 164.5z" />
<glyph unicode="&#xc7;" horiz-adv-x="487" d="M6 184.5q1 49.5 12 104.5l197 928q12 54 33 104.5t52.5 97t78.5 75t102 28.5q58 0 93.5 -32t45.5 -82t9 -97.5t-11 -93.5l-47 -228h-165l47 228q20 90 -15 90q-27 0 -47 -82l-198 -936q-19 -90 10 -90q34 0 53 90l49 227h166l-49 -227q-13 -63 -34.5 -115t-53 -96 t-78 -69t-102.5 -25t-91 28t-46.5 75.5t-10.5 97zM12 -385l54 133h-37l30 141h140l-31 -141l-55 -133h-101z" />
<glyph unicode="&#xc8;" horiz-adv-x="438" d="M-66 0l318 1505h340l-47 -227h-170l-84 -395h123l-52 -242h-122l-88 -414h170l-50 -227h-338zM338 1823h164l26 -185h-131z" />
<glyph unicode="&#xc9;" horiz-adv-x="438" d="M-66 0l318 1505h340l-47 -227h-170l-84 -395h123l-52 -242h-122l-88 -414h170l-50 -227h-338zM373 1638l102 185h164l-135 -185h-131z" />
<glyph unicode="&#xca;" horiz-adv-x="438" d="M-66 0l318 1505h340l-47 -227h-170l-84 -395h123l-52 -242h-122l-88 -414h170l-50 -227h-338zM287 1638l125 185h166l45 -185h-134l-16 80l-53 -80h-133z" />
<glyph unicode="&#xcb;" horiz-adv-x="438" d="M-66 0l318 1505h340l-49 -227h-170l-84 -395h123l-52 -242h-122l-88 -414h169l-47 -227h-338zM281 1638l43 201h151l-43 -201h-151zM479 1638l43 201h150l-43 -201h-150z" />
<glyph unicode="&#xcc;" horiz-adv-x="303" d="M-55 0l317 1505h170l-319 -1505h-168zM268 1823h164l25 -185h-129z" />
<glyph unicode="&#xcd;" horiz-adv-x="303" d="M-66 0l318 1505h170l-320 -1505h-168zM283 1638l102 185h164l-135 -185h-131z" />
<glyph unicode="&#xce;" horiz-adv-x="284" d="M-70 0l318 1505h168l-320 -1505h-166zM190 1638l125 185h166l45 -185h-133l-16 80l-53 -80h-134z" />
<glyph unicode="&#xcf;" horiz-adv-x="284" d="M-70 0l318 1505h170l-320 -1505h-168zM190 1638l43 201h152l-43 -201h-152zM389 1638l43 201h150l-43 -201h-150z" />
<glyph unicode="&#xd0;" horiz-adv-x="518" d="M-49 0l139 655h-37l47 228h37l133 622h123q135 0 180 -50q50 -54 34 -212q-12 -117 -91 -491q-38 -179 -59.5 -272t-52.5 -194.5t-56.5 -143.5t-67 -81.5t-89.5 -50t-119 -10.5h-121zM166 221q63 11 84 72q25 63 49 170q8 35 28.5 131.5t34.5 159.5q12 57 32.5 154.5 t27.5 135.5q20 101 24 170q1 22 -3.5 36.5t-14 21t-17 9t-18.5 3.5l-86 -401h31l-47 -228h-31z" />
<glyph unicode="&#xd1;" horiz-adv-x="546" d="M-66 0l318 1505h143l-28 -710l151 710h158l-320 -1505h-143l31 731l-154 -731h-156zM346 1604l37 176q40 43 94 43q24 0 53.5 -17.5t47.5 -17.5q19 0 49.5 21t44.5 38l-35 -170q-43 -51 -94 -51q-24 0 -53.5 19.5t-49.5 19.5q-17 0 -49.5 -23t-44.5 -38z" />
<glyph unicode="&#xd2;" horiz-adv-x="495" d="M-27 180q1 51 13 109l194 928q13 61 35.5 114t55.5 96.5t79.5 69t102.5 25.5q58 0 94 -29.5t47 -77.5t10 -97.5t-12 -100.5l-197 -928q-14 -62 -35.5 -114t-53.5 -96.5t-78.5 -69.5t-102.5 -25q-57 0 -92.5 27t-48 72.5t-11.5 96.5zM153.5 223.5q4.5 -24.5 18.5 -24.5 q15 0 30 27t23 63l197 928q19 90 -14 90q-17 0 -31.5 -26t-22.5 -64l-196 -928q-9 -41 -4.5 -65.5zM346 1823h164l27 -185h-131z" />
<glyph unicode="&#xd3;" horiz-adv-x="495" d="M-27 180q1 51 13 109l194 928q13 61 35.5 114t55.5 96.5t79.5 69t102.5 25.5q58 0 94 -29.5t47 -77.5t10 -97.5t-12 -100.5l-197 -928q-14 -62 -35.5 -114t-53.5 -96.5t-78.5 -69.5t-102.5 -25q-57 0 -92.5 27t-48 72.5t-11.5 96.5zM153.5 223.5q4.5 -24.5 18.5 -24.5 q15 0 30 27t23 63l197 928q19 90 -14 90q-17 0 -31.5 -26t-22.5 -64l-196 -928q-9 -41 -4.5 -65.5zM403 1638l105 185h164l-137 -185h-132z" />
<glyph unicode="&#xd4;" horiz-adv-x="495" d="M-27 180q1 51 13 109l194 928q13 61 35.5 114t55.5 96.5t79.5 69t102.5 25.5q58 0 94 -29.5t47 -77.5t10 -97.5t-12 -100.5l-197 -928q-14 -62 -35.5 -114t-53.5 -96.5t-78.5 -69.5t-102.5 -25q-57 0 -92.5 27t-48 72.5t-11.5 96.5zM153.5 223.5q4.5 -24.5 18.5 -24.5 q15 0 30 27t23 63l197 928q19 90 -14 90q-17 0 -31.5 -26t-22.5 -64l-196 -928q-9 -41 -4.5 -65.5zM307 1638l125 185h166l45 -185h-133l-18 80l-52 -80h-133z" />
<glyph unicode="&#xd5;" horiz-adv-x="495" d="M-29 180q1 51 13 109l194 928q13 61 35.5 114t55.5 96.5t79.5 69t102.5 25.5q58 0 94 -29.5t47 -77.5t10 -97.5t-12 -100.5l-197 -928q-28 -132 -95 -218.5t-175 -86.5q-57 0 -92.5 27t-48 72.5t-11.5 96.5zM153 223.5q5 -24.5 19 -24.5t28.5 26.5t22.5 63.5l197 928 q19 90 -12 90q-17 0 -32.5 -26t-23.5 -64l-196 -928q-8 -41 -3 -65.5zM322 1604l38 176q37 43 93 43q25 0 54 -17.5t48 -17.5t49.5 21t44.5 38l-37 -170q-43 -51 -92 -51q-24 0 -53 19.5t-49 19.5q-16 0 -48 -22.5t-48 -38.5z" />
<glyph unicode="&#xd6;" horiz-adv-x="495" d="M-28.5 180.5q0.5 51.5 12.5 108.5l194 928q30 132 98 218.5t175 86.5q58 0 94 -29.5t47 -77.5t10 -97.5t-12 -100.5l-197 -928q-13 -62 -34.5 -114t-53 -96.5t-78 -69.5t-102.5 -25q-57 0 -93 27t-48.5 72.5t-12 97zM153 223.5q5 -24.5 19 -24.5t28.5 26.5t22.5 63.5 l197 928q19 90 -12 90q-16 0 -31 -25.5t-25 -64.5l-196 -928q-8 -41 -3 -65.5zM301 1638l43 201h152l-43 -201h-152zM500 1638l43 201h149l-43 -201h-149z" />
<glyph unicode="&#xd8;" horiz-adv-x="495" d="M-53 -20l53 129q-15 65 4 180l199 928q18 84 50 149.5t89.5 110.5t130.5 45q50 0 92 -27l13 31h94l-54 -129q17 -67 -4 -180l-198 -928q-28 -132 -94.5 -218.5t-174.5 -86.5q-49 0 -92 24l-12 -28h-96zM176 223.5q5 -24.5 19 -24.5q15 0 30 27t21 63l86 399l-142 -350 l-12 -49q-7 -41 -2 -65.5zM295 836l141 344l8 37q19 90 -14 90q-17 0 -31 -25.5t-22 -64.5z" />
<glyph unicode="&#xd9;" horiz-adv-x="512" d="M-16 289l256 1216h170l-258 -1216q-10 -43 -8.5 -66.5t20.5 -23.5q33 0 51 90l258 1216h170l-258 -1216q-66 -305 -266 -305t-135 305zM362 1823h164l25 -185h-131z" />
<glyph unicode="&#xda;" horiz-adv-x="512" d="M-16 289l256 1216h170l-258 -1216q-10 -43 -8.5 -66.5t20.5 -23.5q33 0 51 90l258 1216h170l-258 -1216q-66 -305 -266 -305t-135 305zM418 1638l102 185h164l-135 -185h-131z" />
<glyph unicode="&#xdb;" horiz-adv-x="512" d="M-16 289l256 1216h170l-258 -1216q-10 -43 -8.5 -66.5t20.5 -23.5q33 0 51 90l258 1216h170l-258 -1216q-66 -305 -266 -305t-135 305zM297 1638l125 185h166l45 -185h-133l-19 80l-51 -80h-133z" />
<glyph unicode="&#xdc;" horiz-adv-x="512" d="M-18 289l256 1216h170l-258 -1216q-10 -43 -7.5 -66.5t21.5 -23.5q31 0 49 90l258 1216h170l-258 -1216q-63 -305 -264 -305q-202 0 -137 305zM293 1638l43 201h151l-43 -201h-151zM492 1638l43 201h149l-43 -201h-149z" />
<glyph unicode="&#xdd;" horiz-adv-x="483" d="M39 0l137 641l41 864h168l-35 -438q22 67 74 213.5t78 224.5h168l-324 -864l-137 -641h-170zM383 1638l104 185h164l-137 -185h-131z" />
<glyph unicode="&#xde;" horiz-adv-x="495" d="M-49 0l319 1505h168l-49 -241q95 -7 137 -95q50 -125 0 -356q-51 -237 -151 -354q-80 -89 -178 -99l-78 -360h-168zM244 586q39 8 57 41q24 35 55 178q32 147 21 186q-5 40 -37 47z" />
<glyph unicode="&#xdf;" horiz-adv-x="514" d="M-66 0l261 1235q26 120 96 203.5t172 83.5q57 0 93 -25.5t48.5 -69t12 -91t-12.5 -99.5q-21 -102 -96 -174q41 -54 41 -150q0 -111 -47 -338q-76 -354 -154 -475q-36 -58 -85 -79t-122 -21l41 193q44 0 74 67q35 78 86 315q51 240 51 332q0 72 -43 72l29 141 q23 0 45.5 32.5t32.5 84.5q10 41 1 70.5t-34 29.5q-45 0 -68 -102l-262 -1235h-160z" />
<glyph unicode="&#xe0;" horiz-adv-x="471" d="M-12 260q54 269 239 404q67 47 84 79l25 121q7 26 6.5 60t-12.5 34q-13 0 -28 -33t-21 -61l-17 -73h-155l14 67q15 67 46.5 128t85.5 106t118 45q45 0 75.5 -25t41 -63t12.5 -82.5t-10 -83.5l-146 -688q-26 -115 -33 -195h-137q-3 7 -6.5 32.5t-3.5 35.5 q-20 -35 -53 -59.5t-68 -24.5q-112 0 -57 276zM129.5 198.5q2.5 -20.5 15.5 -20.5q20 0 37 22.5t23 53.5l55 260q-36 -36 -74 -111t-51 -141q-2 -7 -5 -25t-0.5 -38.5zM303 1489h164l25 -184h-132z" />
<glyph unicode="&#xe1;" horiz-adv-x="471" d="M-12 260q54 269 239 404q67 47 84 79l25 121q7 26 6.5 60t-12.5 34q-13 0 -28 -33t-21 -61l-17 -73h-155l14 67q15 67 46.5 128t85.5 106t118 45q45 0 75.5 -25t41 -63t12.5 -82.5t-10 -83.5l-146 -688q-26 -115 -33 -195h-137q-3 7 -6.5 32.5t-3.5 35.5 q-20 -35 -53 -59.5t-68 -24.5q-112 0 -57 276zM129.5 198.5q2.5 -20.5 15.5 -20.5q20 0 37 22.5t23 53.5l55 260q-36 -36 -74 -111t-51 -141q-2 -7 -5 -25t-0.5 -38.5zM319 1305l105 184h164l-137 -184h-132z" />
<glyph unicode="&#xe2;" horiz-adv-x="471" d="M-12 260q54 269 239 404q67 47 84 79l25 121q7 26 6.5 60t-12.5 34q-13 0 -28 -33t-21 -61l-17 -73h-155l14 67q15 67 46.5 128t85.5 106t118 45q45 0 75.5 -25t41 -63t12.5 -82.5t-10 -83.5l-146 -688q-26 -115 -33 -195h-137q-3 7 -6.5 32.5t-3.5 35.5 q-20 -35 -53 -59.5t-68 -24.5q-112 0 -57 276zM129.5 198.5q2.5 -20.5 15.5 -20.5q20 0 37 22.5t23 53.5l55 260q-36 -36 -74 -111t-51 -141q-2 -7 -5 -25t-0.5 -38.5zM236 1305l124 184h166l45 -184h-133l-18 79l-51 -79h-133z" />
<glyph unicode="&#xe3;" horiz-adv-x="471" d="M-31 97.5q1 50.5 6 88t13 74.5q54 272 239 404q70 52 82 79l25 121q7 26 6.5 60t-12.5 34q-13 0 -28 -33t-21 -61l-15 -73h-155l14 67q15 67 46.5 128t85.5 106t118 45q45 0 74.5 -25t40.5 -63.5t11.5 -81.5t-10.5 -84l-145 -688q-23 -102 -31 -195h-137q-3 8 -7 34 t-3 34q-22 -35 -55 -59.5t-68 -24.5q-38 0 -56.5 31.5t-17.5 82zM127.5 198.5q2.5 -20.5 15.5 -20.5q20 0 37 22.5t23 53.5l55 260q-36 -36 -74 -111t-51 -141q-2 -7 -5 -25t-0.5 -38.5zM254 1268l39 176q37 43 92 43q25 0 53 -17.5t47 -17.5q18 0 49.5 20.5t47.5 38.5 l-37 -170q-43 -51 -92 -51q-24 0 -53.5 19.5t-49.5 19.5q-16 0 -48 -22.5t-48 -38.5z" />
<glyph unicode="&#xe4;" horiz-adv-x="471" d="M-12 260q54 269 239 404q70 52 82 79l27 121q6 26 5 60t-13 34q-13 0 -27 -32.5t-20 -61.5l-17 -73h-155l14 67q15 67 46.5 128t85.5 106t118 45q45 0 75 -25t40.5 -63t13 -82.5t-9.5 -83.5l-148 -688q-25 -127 -31 -195h-137q-3 7 -6.5 32.5t-3.5 35.5 q-22 -35 -55 -59.5t-68 -24.5q-110 0 -55 276zM127.5 198.5q2.5 -20.5 15.5 -20.5q20 0 37 22.5t23 53.5l55 260q-36 -36 -74 -111t-51 -141q-2 -7 -5 -25t-0.5 -38.5zM231 1305l43 200h152l-43 -200h-152zM430 1305l43 200h150l-43 -200h-150z" />
<glyph unicode="&#xe5;" horiz-adv-x="471" d="M-16 260q54 269 239 404q68 48 82 79l27 121q7 26 6.5 60t-12.5 34q-13 0 -28.5 -33t-21.5 -61l-16 -73h-156l15 67q15 67 46.5 128t85.5 106t118 45q45 0 75 -25t41 -63t12.5 -82.5t-10.5 -83.5l-145 -688q-26 -115 -33 -195h-137q-3 7 -6.5 32.5t-3.5 35.5 q-20 -35 -53 -59.5t-68 -24.5q-112 0 -57 276zM125.5 198.5q2.5 -20.5 15.5 -20.5q20 0 37 22.5t23 53.5l55 260q-36 -36 -74 -111t-51 -141q-2 -7 -5 -25t-0.5 -38.5zM315 1421q13 62 54.5 103t87.5 41q45 0 68 -41t10 -103t-54 -102.5t-86 -40.5q-46 0 -69.5 40.5 t-10.5 102.5zM395 1374.5q6 -18.5 17 -18.5q10 0 24.5 19t20.5 46t-1.5 45.5t-17.5 18.5q-11 0 -24 -18t-19 -46t0 -46.5z" />
<glyph unicode="&#xe6;" horiz-adv-x="681" d="M-1.5 133.5q-1.5 42.5 1.5 70.5t8 56q61 273 242 404q67 47 84 79l24 121q7 26 6.5 60t-12.5 34q-13 0 -28 -33t-21 -61l-14 -73h-156l14 67q15 68 45.5 128.5t84.5 105.5t118 45q61 0 94 -45q58 45 119 45q50 0 82.5 -17.5t47 -44t18 -65.5t-0.5 -74.5t-14 -79.5 l-69 -334h-223l-54 -243q-20 -113 8 -113q39 0 62 113l27 122h153l-31 -141q-59 -276 -260 -276q-80 0 -108 55q-26 -26 -65 -40.5t-77 -14.5t-62 22.5t-33 53.5t-10.5 73.5zM152.5 198.5q2.5 -20.5 15.5 -20.5q19 0 36 22.5t23 53.5l56 260q-36 -36 -74 -111t-51 -141 q-2 -7 -5 -25t-0.5 -38.5zM481 684h70l35 158q25 114 -17 114q-18 0 -32 -38t-21 -76z" />
<glyph unicode="&#xe7;" horiz-adv-x="448" d="M14 -385l54 133h-37l30 141h140l-31 -141l-55 -133h-101zM29 195.5q3 47.5 14 99.5l113 530q10 43 23 82.5t35 83t49 74.5t65.5 51.5t83.5 20.5t75.5 -11.5t46 -35t23 -48.5t4.5 -64.5t-7.5 -68t-14.5 -73.5l-23 -109h-156l31 147q17 82 -14 82q-13 0 -28 -25.5 t-21 -56.5l-131 -616q-7 -31 -4.5 -59.5t16.5 -28.5q33 0 51 88l33 156h156l-27 -129q-11 -47 -20 -78t-23.5 -69.5t-33 -63t-44 -47t-60.5 -33t-79 -10.5q-57 0 -89.5 31t-39.5 82t-4 98.5z" />
<glyph unicode="&#xe8;" d="M-12.5 167q1.5 46 12.5 99l123 584q11 52 31.5 101t51 92t73.5 68.5t92 25.5q50 0 82.5 -17.5t47 -44t18 -65.5t-0.5 -74.5t-14 -79.5l-70 -334h-223l-53 -243q-20 -113 8 -113q38 0 61 113l27 122h154l-31 -141q-59 -276 -260 -276q-50 0 -81 25t-40.5 68.5t-8 89.5z M244 684h69l35 158q10 41 8.5 77.5t-24.5 36.5q-18 0 -32 -38t-21 -76zM283 1489h163l25 -184h-131z" />
<glyph unicode="&#xe9;" d="M-12.5 167q1.5 46 12.5 99l123 584q11 52 31.5 101t51 92t73.5 68.5t92 25.5q50 0 82.5 -17.5t47 -44t18 -65.5t-0.5 -74.5t-14 -79.5l-70 -334h-223l-53 -243q-20 -113 8 -113q38 0 61 113l27 122h154l-31 -141q-59 -276 -260 -276q-50 0 -81 25t-40.5 68.5t-8 89.5z M244 684h69l35 158q10 41 8.5 77.5t-24.5 36.5q-18 0 -32 -38t-21 -76zM338 1305l104 184h164l-137 -184h-131z" />
<glyph unicode="&#xea;" d="M-12.5 167q1.5 46 12.5 99l123 584q11 52 31.5 101t51 92t73.5 68.5t92 25.5q50 0 82.5 -17.5t47 -44t18 -65.5t-0.5 -74.5t-14 -79.5l-70 -334h-223l-53 -243q-20 -113 8 -113q38 0 61 113l27 122h154l-31 -141q-59 -276 -260 -276q-50 0 -81 25t-40.5 68.5t-8 89.5z M240 1305l125 184h165l45 -184h-133l-18 79l-51 -79h-133zM244 684h69l35 158q10 41 8.5 77.5t-24.5 36.5q-18 0 -32 -38t-21 -76z" />
<glyph unicode="&#xeb;" d="M-14 166.5q2 46.5 14 99.5l121 584q16 72 46.5 134t84.5 107.5t119 45.5q42 0 71.5 -11.5t45.5 -33t24 -47t7.5 -60t-4 -63.5t-11.5 -66l-72 -334h-223l-51 -243q-4 -18 -6.5 -37t-3 -36.5t3.5 -28.5t12 -11q22 0 38.5 36t24.5 77l27 122h154l-31 -141 q-59 -276 -262 -276q-50 0 -81 25t-40.5 68t-7.5 89.5zM233 1305l43 200h152l-43 -200h-152zM244 684h69l33 158q25 114 -16 114q-26 0 -54 -114zM432 1305l43 200h150l-43 -200h-150z" />
<glyph unicode="&#xec;" horiz-adv-x="284" d="M-47 0l235 1120h162l-237 -1120h-160zM199 1489h163l27 -184h-131z" />
<glyph unicode="&#xed;" horiz-adv-x="284" d="M-47 0l235 1120h162l-237 -1120h-160zM227 1305l103 184h164l-136 -184h-131z" />
<glyph unicode="&#xee;" horiz-adv-x="284" d="M-47 0l235 1120h162l-237 -1120h-160zM141 1305l125 184h166l45 -184h-133l-16 79l-54 -79h-133z" />
<glyph unicode="&#xef;" horiz-adv-x="284" d="M-49 0l237 1120h162l-239 -1120h-160zM135 1305l43 200h152l-43 -200h-152zM334 1305l43 200h149l-43 -200h-149z" />
<glyph unicode="&#xf0;" horiz-adv-x="464" d="M-16.5 179.5q1.5 48.5 12.5 99.5l121 579q64 279 192 279q33 0 64 -35q6 64 6 127l-55 -64l-27 88l84 93q-2 13 -7 28t-9 23.5t-3 9.5l113 131l19 -68l73 82l25 -90l-76 -88q38 -233 -8 -446l-139 -656q-10 -47 -30.5 -95t-50.5 -92.5t-74.5 -72.5t-94.5 -28 q-52 0 -84.5 27.5t-42.5 73.5t-8.5 94.5zM141 258q-16 -92 17 -92q13 0 30.5 32.5t22.5 59.5l129 604q18 94 -14 94q-15 0 -33 -36t-23 -58z" />
<glyph unicode="&#xf1;" horiz-adv-x="475" d="M-49 0l235 1120h162l-12 -57q24 26 62.5 50t62.5 24q108 0 63 -219l-194 -918h-160l188 885q13 71 -16 71t-43 -73l-188 -883h-160zM258 1276l39 176q40 43 92 43q25 0 55 -17.5t48 -17.5t49 21t45 39l-37 -170q-44 -52 -92 -52q-24 0 -53.5 19.5t-49.5 19.5 q-16 0 -48 -22.5t-48 -38.5z" />
<glyph unicode="&#xf2;" d="M-13 116q-4 41 0 78.5t13 84.5l121 563q62 295 254 295q59 0 93.5 -22t44 -64.5t6 -89.5t-18.5 -113l-121 -576q-30 -139 -89 -213.5t-163 -74.5q-46 0 -77 18t-45 45.5t-18 68.5zM142.5 195q3.5 -29 23.5 -29q21 0 36.5 34.5t18.5 57.5l129 604q11 38 9.5 66t-23.5 28 q-36 0 -57 -94l-129 -604q-11 -34 -7.5 -63zM281 1489h163l25 -184h-131z" />
<glyph unicode="&#xf3;" d="M-13 116q-4 41 0 78.5t13 84.5l121 563q62 295 254 295q59 0 93.5 -22t44 -64.5t6 -89.5t-18.5 -113l-121 -576q-30 -139 -89 -213.5t-163 -74.5q-46 0 -77 18t-45 45.5t-18 68.5zM142.5 195q3.5 -29 23.5 -29q21 0 36.5 34.5t18.5 57.5l129 604q11 38 9.5 66t-23.5 28 q-36 0 -57 -94l-129 -604q-11 -34 -7.5 -63zM336 1305l102 184h164l-135 -184h-131z" />
<glyph unicode="&#xf4;" d="M-13 116q-4 41 0 78.5t13 84.5l121 563q62 295 254 295q59 0 93.5 -22t44 -64.5t6 -89.5t-18.5 -113l-121 -576q-30 -139 -89 -213.5t-163 -74.5q-46 0 -77 18t-45 45.5t-18 68.5zM142.5 195q3.5 -29 23.5 -29q21 0 36.5 34.5t18.5 57.5l129 604q11 38 9.5 66t-23.5 28 q-36 0 -57 -94l-129 -604q-11 -34 -7.5 -63zM240 1305l125 184h165l45 -184h-133l-18 79l-51 -79h-133z" />
<glyph unicode="&#xf5;" d="M0 279l119 563q62 295 256 295q48 0 79 -15.5t45.5 -40t17.5 -64t-1.5 -78t-15.5 -91.5l-123 -576q-30 -139 -89 -213.5t-163 -74.5q-187 0 -125 295zM147 258q-20 -92 17 -92q21 0 36.5 34.5t18.5 57.5l129 604q11 38 9.5 66t-23.5 28q-37 0 -58 -94zM250 1274l37 176 q40 43 94 43q25 0 53 -17.5t47 -17.5q18 0 49 21t45 39l-36 -170q-39 -52 -93 -52q-24 0 -53 19.5t-49 19.5q-17 0 -49.5 -23t-44.5 -38z" />
<glyph unicode="&#xf6;" d="M0 279l119 563q62 295 256 295q48 0 79 -15.5t45.5 -40t17.5 -64t-1.5 -78t-15.5 -91.5l-123 -576q-30 -139 -89 -213.5t-163 -74.5q-187 0 -125 295zM150 258q-25 -92 14 -92q21 0 37.5 34.5t19.5 57.5l127 604q26 94 -14 94q-37 0 -58 -94zM233 1305l43 200h152 l-43 -200h-152zM432 1305l43 200h150l-43 -200h-150z" />
<glyph unicode="&#xf8;" horiz-adv-x="468" d="M-25 -76l50 129q-31 70 0 226l120 563q62 295 254 295q35 0 68 -11l31 70h88l-56 -129q28 -58 -6 -219l-121 -576q-30 -140 -88.5 -214t-162.5 -74q-33 0 -60 10l-26 -70h-91zM168 180q7 -14 22 -14q21 0 37 34.5t19 57.5l49 229zM244 580l139 344q0 32 -23 32 q-36 0 -57 -94z" />
<glyph unicode="&#xf9;" horiz-adv-x="475" d="M-12 203l194 917h160l-188 -884q-17 -72 14 -72t45 74l188 882h162l-239 -1120h-162l12 57q-22 -25 -60 -49t-63 -24q-108 0 -63 219zM289 1489h164l24 -184h-131z" />
<glyph unicode="&#xfa;" horiz-adv-x="475" d="M-12 203l194 917h160l-188 -884q-17 -72 14 -72t45 74l188 882h162l-239 -1120h-162l12 57q-22 -25 -60 -49t-63 -24q-108 0 -63 219zM344 1305l105 184h163l-137 -184h-131z" />
<glyph unicode="&#xfb;" horiz-adv-x="475" d="M-12 203l194 917h160l-188 -884q-17 -72 14 -72t45 74l188 882h162l-239 -1120h-162l12 57q-22 -25 -60 -49t-63 -24q-108 0 -63 219zM240 1305l125 184h165l45 -184h-133l-18 79l-51 -79h-133z" />
<glyph unicode="&#xfc;" horiz-adv-x="475" d="M-12 203l192 917h160l-188 -884q-13 -72 16 -72q28 0 45 74l186 882h162l-237 -1120h-162l12 57q-22 -25 -61 -49t-64 -24q-106 0 -61 219zM231 1305l43 200h152l-43 -200h-152zM430 1305l43 200h150l-43 -200h-150z" />
<glyph unicode="&#xfd;" horiz-adv-x="462" d="M-119 -395l39 182q45 -19 74 10q50 57 72 170l110 1153h158l-82 -661q23 81 98.5 335.5t95.5 325.5h160l-395 -1204q-43 -139 -105 -217q-50 -66 -110.5 -91.5t-114.5 -2.5zM350 1305l103 184h163l-135 -184h-131z" />
<glyph unicode="&#xfe;" horiz-adv-x="473" d="M-111 -385l400 1890h162l-93 -432q9 20 42 42t55 22q37 0 59 -20.5t27 -55.5t3.5 -69t-9.5 -74l-152 -715q-2 -8 -8.5 -36.5t-10.5 -42.5t-12.5 -40t-17.5 -40t-22 -30t-30 -23t-38 -7q-36 0 -66.5 27.5t-34.5 49.5l-94 -446h-160zM180 202.5q3 -24.5 17 -24.5 q30 0 45 78l133 627q7 29 3.5 51t-16.5 22q-14 0 -27 -23t-18 -50l-133 -627q-7 -29 -4 -53.5z" />
<glyph unicode="&#xff;" horiz-adv-x="442" d="M-119 -395l39 182q45 -19 74 10q45 53 72 170l108 1153h158l-80 -661q18 66 94 322t98 339h160l-395 -1204q-36 -132 -103 -217q-50 -66 -110.5 -91.5t-114.5 -2.5zM252 1305l43 200h151l-43 -200h-151zM451 1305l43 200h149l-43 -200h-149z" />
<glyph unicode="&#x152;" horiz-adv-x="651" d="M-5.5 153.5q-2.5 67.5 13.5 155.5l189 887q64 309 270 309h377l-49 -227h-170l-84 -395h123l-52 -242h-123l-88 -414h170l-49 -227h-377q-73 4 -110.5 45t-40 108.5zM171 233.5q3 -34.5 17 -34.5q20 0 37 39.5t25 70.5l188 887q6 17 4.5 64t-18.5 47q-14 0 -33 -41 t-24 -70l-189 -887q-10 -41 -7 -75.5z" />
<glyph unicode="&#x153;" horiz-adv-x="659" d="M7 116q-4 41 0 78.5t13 84.5l121 563q62 295 254 295q78 0 113 -41q54 41 113 41q50 0 82.5 -17.5t47 -44t18 -65.5t-0.5 -74.5t-14 -79.5l-70 -334h-223l-53 -243q-20 -113 8 -113q38 0 61 113l27 122h153l-30 -141q-59 -276 -260 -276q-67 0 -95 36q-55 -36 -125 -36 q-46 0 -77 18t-45 45.5t-18 68.5zM170 258q-20 -92 16 -92q21 0 37 34.5t19 57.5l129 604q11 38 9.5 66t-24.5 28q-36 0 -57 -94zM494 684h69l35 158q25 114 -16 114q-18 0 -32.5 -38.5t-21.5 -75.5z" />
<glyph unicode="&#x178;" horiz-adv-x="483" d="M39 0l135 641l43 864h168l-35 -438q22 67 74 213.5t78 224.5h168l-326 -864l-135 -641h-170zM297 1638l43 201h152l-43 -201h-152zM496 1638l43 201h149l-43 -201h-149z" />
<glyph unicode="&#x2c6;" horiz-adv-x="673" d="M266 1305l127 184h166l43 -184h-133l-16 79l-54 -79h-133z" />
<glyph unicode="&#x2dc;" horiz-adv-x="675" d="M291 1276l39 176q37 43 92 43q24 0 54 -17.5t48 -17.5t49 21t45 39l-36 -170q-44 -52 -93 -52q-24 0 -53 19.5t-49 19.5q-16 0 -48 -22.5t-48 -38.5z" />
<glyph unicode="&#x2000;" horiz-adv-x="952" />
<glyph unicode="&#x2001;" horiz-adv-x="1905" />
<glyph unicode="&#x2002;" horiz-adv-x="952" />
<glyph unicode="&#x2003;" horiz-adv-x="1905" />
<glyph unicode="&#x2004;" horiz-adv-x="635" />
<glyph unicode="&#x2005;" horiz-adv-x="476" />
<glyph unicode="&#x2006;" horiz-adv-x="317" />
<glyph unicode="&#x2007;" horiz-adv-x="317" />
<glyph unicode="&#x2008;" horiz-adv-x="238" />
<glyph unicode="&#x2009;" horiz-adv-x="381" />
<glyph unicode="&#x200a;" horiz-adv-x="105" />
<glyph unicode="&#x2010;" horiz-adv-x="327" d="M63 455l41 194h215l-40 -194h-216z" />
<glyph unicode="&#x2011;" horiz-adv-x="327" d="M63 455l41 194h215l-40 -194h-216z" />
<glyph unicode="&#x2012;" horiz-adv-x="327" d="M63 455l41 194h215l-40 -194h-216z" />
<glyph unicode="&#x2013;" horiz-adv-x="544" d="M84 649l41 195h432l-41 -195h-432z" />
<glyph unicode="&#x2014;" horiz-adv-x="645" d="M84 649l41 195h530l-41 -195h-530z" />
<glyph unicode="&#x2018;" horiz-adv-x="247" d="M90 1012l49 227l123 266h98l-98 -266h43l-49 -227h-166z" />
<glyph unicode="&#x2019;" horiz-adv-x="247" d="M88 1012l100 266h-43l48 227h165l-47 -227l-125 -266h-98z" />
<glyph unicode="&#x201a;" horiz-adv-x="247" d="M-45 -266l96 266h-43l49 227h166l-49 -227l-123 -266h-96z" />
<glyph unicode="&#x201c;" horiz-adv-x="475" d="M94 1012l49 227l123 266h99l-99 -266h43l-49 -227h-166zM315 1012l50 227l122 266h99l-99 -266h43l-49 -227h-166z" />
<glyph unicode="&#x201d;" horiz-adv-x="466" d="M94 1012l101 266h-43l47 227h166l-48 -227l-124 -266h-99zM315 1012l101 266h-43l47 227h166l-47 -227l-125 -266h-99z" />
<glyph unicode="&#x201e;" horiz-adv-x="436" d="M-39 -266l96 266h-43l49 227h166l-49 -227l-123 -266h-96zM139 -266l99 266h-43l49 227h166l-50 -227l-122 -266h-99z" />
<glyph unicode="&#x2022;" horiz-adv-x="458" d="M113 821q15 70 76.5 121t132.5 51q70 0 110 -50.5t25 -121.5q-15 -70 -76.5 -121t-132.5 -51q-70 0 -110 50.5t-25 121.5z" />
<glyph unicode="&#x2026;" horiz-adv-x="651" d="M2 0l47 227h166l-47 -227h-166zM215 0l47 227h166l-47 -227h-166zM428 0l47 227h166l-47 -227h-166z" />
<glyph unicode="&#x202f;" horiz-adv-x="381" />
<glyph unicode="&#x205f;" horiz-adv-x="476" />
<glyph unicode="&#x20ac;" horiz-adv-x="548" d="M49 547l29 137h63l31 137h-63l28 137h64l51 238q17 85 55 162q34 66 80 112q52 52 127 52q77 0 107 -52q24 -40 32 -112q6 -69 -10 -162l-18 -84h-162l18 84q10 54 0 94h2q-9 17 -12 17q-8 0 -33 -56q-11 -29 -16 -55l-51 -238h139l-29 -137h-139l-31 -137h140l-29 -137 h-139l-50 -238q-13 -58 -2 -94h-2l7 -16q16 0 40 55q1 4 8 24.5t9 30.5l16 84h162l-16 -84q-19 -72 -58 -164q-33 -58 -82 -110q-51 -51 -127 -51t-106 51q-31 64 -31 110q-9 72 12 164l50 238h-64z" />
<glyph unicode="&#x2122;" horiz-adv-x="624" d="M137 821l125 580h-61l20 104h230l-21 -104h-63l-125 -580h-105zM336 821l145 684h103l-17 -280q9 25 53 136.5t54 143.5h94l-145 -684h-88l77 361q-9 -27 -58 -181t-56 -180h-39l41 361l-78 -361h-86z" />
<glyph unicode="&#xe000;" horiz-adv-x="1116" d="M0 0v1116h1116v-1116h-1116z" />
<glyph unicode="&#xfb01;" horiz-adv-x="524" d="M-23 0l197 934h-63l41 186h63l12 66q11 46 18.5 73t22 71.5t31 71.5t39 55.5t53 42t66.5 13.5q42 0 71 -20l-34 -170q-14 10 -31 10t-27 -8q-24 -21 -45 -127l-16 -78h223l-240 -1120h-159l198 934h-63l-199 -934h-158z" />
<glyph unicode="&#xfb02;" horiz-adv-x="524" d="M-23 0l197 934h-63l41 186h63l12 66q11 46 18.5 73t22 71.5t31 71.5t39 55.5t53 42t66.5 13.5q12 0 28 -2t25 -4l10 -2h162l-322 -1505h-161l198 934h-63l-199 -934h-158zM375 1120h63l43 209q-27 10 -45 -4q-24 -21 -45 -127z" />
</font>
</defs>
</svg>
