<?xml version="1.0" standalone="no"?>
<!DOCTYPE svg PUBLIC "-//W3C//DTD SVG 1.1//EN" "http://www.w3.org/Graphics/SVG/1.1/DTD/svg11.dtd" >
<svg xmlns="http://www.w3.org/2000/svg">
<metadata></metadata>
<defs>
<font id="espregular" horiz-adv-x="1620" >
<font-face units-per-em="2048" ascent="1638" descent="-410" />
<missing-glyph horiz-adv-x="1228" />
<glyph horiz-adv-x="0" />
<glyph unicode="&#xd;" horiz-adv-x="1228" />
<glyph unicode=" "  horiz-adv-x="1228" />
<glyph unicode="&#x09;" horiz-adv-x="1228" />
<glyph unicode="&#xa0;" horiz-adv-x="1228" />
<glyph unicode="!" horiz-adv-x="614" d="M0 1126q0 172 5 228q11 130 51 200q50 85 150 84q98 0 148 -84q39 -68 50 -199q6 -67 6 -229q0 -171 -5 -228q-11 -131 -51 -199q-50 -85 -148 -85q-99 0 -149 85q-40 68 -51 199q-6 65 -6 228zM1 205q0 85 60 145t145 60t144.5 -60t59.5 -145t-60 -145t-144 -60 q-85 0 -145 60t-60 145z" />
<glyph unicode="&#x22;" horiz-adv-x="1126" d="M0 1331q0 113 52 203q60 104 153 104q94 0 153 -103q52 -90 52 -204q0 -112 -52 -201q-59 -102 -153 -103q-93 0 -152 102q-53 90 -53 202zM512 1331q0 113 52 203q60 104 153 104q94 0 153 -103q52 -90 52 -204q0 -112 -52 -201q-59 -102 -153 -103q-93 0 -152 102 q-53 90 -53 202z" />
<glyph unicode="#" horiz-adv-x="1638" d="M0 205v409h205v410h-205v410l205 -2v206h409v-206h205v206h410v-204l205 -2v-408h-205v-410h205v-409h-205v-205h-410v205h-205v-205h-409v205h-205zM614 614h205v410h-205v-410z" />
<glyph unicode="$" horiz-adv-x="1638" d="M0 410h1024v102v96h-614q-190 0 -288 62q-81 52 -107 155q-15 62 -15 199h1024q192 0 288 -60q81 -50 106 -152q15 -61 16 -198v-204q0 -139 -15 -197q-25 -101 -106 -152q-97 -61 -289 -61h-102v-202h-409v202h-103q-192 0 -288 60q-81 50 -107 152q-15 61 -15 198z M0 1229q0 139 14 197q25 101 107 152q97 61 289 60h103v206h409v-206h102q192 0 288 -60q81 -50 106 -152q16 -60 16 -197h-1434z" />
<glyph unicode="%" horiz-adv-x="1843" d="M0 1229q0 170 120 289.5t290 119.5t289.5 -119.5t119.5 -289.5q0 -169 -120 -289t-289 -120q-170 0 -290 119t-120 290zM102 206l1229 1432l205 -204l-1229 -1434zM234 1229q0 -73 51.5 -124t124.5 -51t124 51t51 124t-51.5 124t-123.5 51q-73 0 -124.5 -51t-51.5 -124z M818 410q0 170 120 290t290 120t290 -120t120 -290t-120 -290t-290 -120t-290 119.5t-120 290.5zM1053 410q0 -73 51 -124.5t124 -51.5t124 51.5t51 124.5t-51 124t-124 51t-124 -51.5t-51 -123.5z" />
<glyph unicode="&#x26;" horiz-adv-x="1638" d="M0 410v614h410h204h206v-410h-410v-204h614v204h410v-204q0 -139 -15 -197q-25 -101 -106 -152q-97 -61 -289 -61h-102v-202h-409v202h-103q-233 0 -321.5 87.5t-88.5 322.5zM0 1229q0 139 14 197q25 101 107 152q97 61 289 60h103v206h409v-206h102q192 0 288 -60 q81 -50 106 -152q15 -61 16 -197v-205h-410v205h-1024z" />
<glyph unicode="'" horiz-adv-x="614" d="M0 1331q0 113 52 203q60 104 153 104q94 0 153 -103q52 -90 52 -204q0 -112 -52 -201q-59 -102 -153 -103q-93 0 -152 102q-53 90 -53 202z" />
<glyph unicode="(" horiz-adv-x="819" d="M0 410v819q0 139 14 197q25 101 107 152q97 61 289 60h204v-409h-204v-819h204v-410h-204q-192 0 -288 60q-81 50 -107 152q-15 61 -15 198z" />
<glyph unicode=")" horiz-adv-x="819" d="M0 0v410h205v819h-205v409h205q192 0 288 -60q81 -50 106 -152q15 -61 15 -197v-819q0 -139 -14 -197q-25 -101 -106 -152q-97 -61 -289 -61h-205z" />
<glyph unicode="*" horiz-adv-x="1024" d="M0 1126v205h154l-102 102l154 154l101 -102v153h206v-153l101 102l154 -154l-102 -102h153v-205h-153l102 -102l-154 -154l-101 102v-154h-206v151l-101 -99l-154 154l102 102h-154z" />
<glyph unicode="+" horiz-adv-x="1228" d="M0 614v410h307v307l410 -3v-304h307v-410h-307v-305l-410 -2v307h-307z" />
<glyph unicode="," horiz-adv-x="614" d="M0 0q0 113 52 203q60 104 153 104q94 0 153 -103q52 -90 52 -204q0 -112 -52 -202q-59 -102 -153 -102q-93 0 -152 102q-53 90 -53 202z" />
<glyph unicode="-" horiz-adv-x="1228" d="M0 614v410h1024v-410h-1024z" />
<glyph unicode="." horiz-adv-x="614" d="M0 205q0 85 60 145t145 60t145 -60t60 -145t-60 -145t-145 -60t-145 60t-60 145z" />
<glyph unicode="/" horiz-adv-x="1638" d="M0 205l1229 1433l205 -204l-1229 -1434z" />
<glyph unicode="0" horiz-adv-x="1638" d="M0 410v614h410v-410l410 615h-820q0 230 87.5 319.5t322.5 89.5h614q229 0 319.5 -90t90.5 -319v-819q0 -230 -89.5 -320t-320.5 -90h-614q-230 0 -319 86q-91 89 -91 324zM614 410h206q151 0 176 23q28 26 28 181v410z" />
<glyph unicode="1" horiz-adv-x="1024" d="M0 1229q0 154 128 281.5t282 127.5h409v-409h-409h-410zM410 0v1024h409v-1024h-409z" />
<glyph unicode="2" horiz-adv-x="1638" d="M0 0v410l1024 819h-1024q0 139 14 197q25 101 107 152q97 61 289 60h614q192 0 288 -60q81 -50 106 -152q15 -61 16 -197v-118l-820 -701h820v-410h-1434z" />
<glyph unicode="3" horiz-adv-x="1638" d="M0 410v204h410v-204h614v204h-410v410h410v205h-1024q0 136 15 197q26 102 107 152q98 61 288 60h614q192 0 288 -60q81 -50 106 -152q15 -61 16 -197v-819q0 -138 -15 -197q-25 -102 -105 -152q-97 -61 -290 -61h-614q-192 0 -288 60q-81 50 -107 152q-15 61 -15 198z " />
<glyph unicode="4" horiz-adv-x="1638" d="M0 614v410h819v614h410v-614h198v-410h-198v-614h-410v614h-819zM0 1229v409h410v-409h-410z" />
<glyph unicode="5" horiz-adv-x="1638" d="M0 0v410h1024v204h-1024v410h1024q192 0 288 -60q81 -50 106 -152q15 -61 16 -198v-204q0 -139 -15 -197q-25 -101 -106 -152q-97 -61 -289 -61h-1024zM0 1229v409h1434v-409h-1434z" />
<glyph unicode="6" horiz-adv-x="1638" d="M0 410v204v410h1024q192 0 288 -60q81 -50 106 -152q15 -61 16 -198v-204q0 -139 -15 -197q-25 -101 -106 -152q-97 -61 -289 -61h-614q-192 0 -288 60q-81 50 -107 152q-15 61 -15 198zM0 1229q0 139 14 197q25 101 107 152q97 61 289 60h614q192 0 288 -60 q81 -50 106 -152q16 -60 16 -197h-1434zM410 410h614v204h-614v-204z" />
<glyph unicode="7" horiz-adv-x="1638" d="M0 1229v409h1434v-409l-512 -1229h-512l513 1229h-923z" />
<glyph unicode="8" horiz-adv-x="1638" d="M0 410q0 307 25.5 358t179.5 51q-138 0 -179 60q-26 38 -26 145h1018v205h-1018q0 139 14 197q25 101 107 152q97 61 289 60h614q192 0 288 -60q81 -50 106 -152q15 -61 16 -197q0 -139 -8 -197q-13 -102 -52 -152q-49 -61 -145 -61q96 0 144 -60q40 -50 53 -152 q8 -63 8 -197q0 -138 -15 -197q-25 -102 -105 -152q-97 -61 -290 -61h-614q-192 0 -288 60q-81 50 -107 152q-15 61 -15 198zM410 410h614v204h-614v-204z" />
<glyph unicode="9" horiz-adv-x="1638" d="M0 410h1024v204h-614q-192 0 -288 60q-81 50 -107 152q-15 61 -15 198h1024v205h-1024q0 139 14 197q25 101 107 152q97 61 289 60h614q192 0 288 -60q81 -50 106 -152q15 -61 16 -197v-819q0 -139 -15 -197q-25 -101 -106 -152q-97 -61 -289 -61h-614q-192 0 -288 60 q-81 50 -107 152q-15 61 -15 198z" />
<glyph unicode=":" horiz-adv-x="614" d="M1 512q0 85 60 145t145 60t144.5 -60t59.5 -145t-60 -145t-144 -60q-85 0 -145 60t-60 145zM1 1126q0 85 60 145t145 60t144.5 -60t59.5 -145t-60 -144.5t-144 -59.5q-85 0 -145 60t-60 144z" />
<glyph unicode=";" horiz-adv-x="614" d="M1 410q0 113 52 203q60 104 153 104q94 0 152 -103q52 -90 52 -204q0 -112 -52 -202q-59 -102 -152 -102t-152 101q-53 90 -53 203zM1 1126q0 85 60 145t145 60t144.5 -60t59.5 -145t-60 -144.5t-144 -59.5q-85 0 -145 60t-60 144z" />
<glyph unicode="&#x3c;" horiz-adv-x="1638" d="M0 820l1434 818v-409l-717 -409l717 -410v-410z" />
<glyph unicode="=" horiz-adv-x="1228" d="M0 307v410h1024v-410h-1024zM0 922v409h1024v-409h-1024z" />
<glyph unicode="&#x3e;" horiz-adv-x="1638" d="M0 0v410l717 410l-717 409v409l1434 -818z" />
<glyph unicode="?" horiz-adv-x="1638" d="M0 1229q0 139 14 197q25 101 107 152q97 61 289 60h614q192 0 288 -60q81 -50 106 -152q15 -61 16 -197v-205q0 -139 -15 -197q-25 -101 -106 -152q-97 -61 -289 -61h-512q0 137 11 197q19 102 79 152q73 61 217 61h205v205h-1024zM512 205q0 85 60 145t145 60t145 -60 t60 -145t-60 -145t-145 -60t-145 60t-60 145z" />
<glyph unicode="@" horiz-adv-x="1638" d="M0 410v614h410v-614h1024v-410h-1024q-192 0 -288 60q-81 50 -107 152q-15 61 -15 198zM0 1229q0 139 14 197q25 101 107 152q97 61 289 60h614q192 0 288 -60q81 -50 106 -152q15 -61 16 -197v-205q0 -139 -15 -197q-25 -101 -106 -152q-97 -61 -289 -61h-384v410h384 v205h-1024z" />
<glyph unicode="A" horiz-adv-x="1638" d="M0 0v1024h1024v205h-1024q0 139 14 197q25 101 107 152q95 60 283 60h6h614q192 0 288 -60q81 -50 106 -152q15 -61 16 -197v-1229h-410v614h-614v-614h-410z" />
<glyph unicode="B" horiz-adv-x="1638" d="M0 0v1024h1024v205h-1024v409h1024q192 0 288 -60q81 -50 106 -152q15 -61 16 -197q0 -137 -12 -197q-19 -102 -79 -152q-73 -61 -217 -61q144 0 216 -60q61 -50 80 -152q12 -59 12 -197q0 -139 -15 -197q-25 -101 -106 -152q-97 -61 -289 -61h-1024zM410 410h614v204 h-614v-204z" />
<glyph unicode="C" horiz-adv-x="1638" d="M0 410v614h410v-614h614v204h410v-204q0 -139 -15 -197q-25 -101 -106 -152q-97 -61 -289 -61h-614q-192 0 -288 60q-81 50 -107 152q-15 61 -15 198zM0 1229q0 139 14 197q25 101 107 152q95 60 283 60h6h614q192 0 288 -60q81 -50 106 -152q15 -61 16 -197v-205h-410 v205h-1024z" />
<glyph unicode="D" horiz-adv-x="1638" d="M0 0v1034h410v-624h614v819h-1024v409h1024q192 0 288 -60q81 -50 106 -152q15 -61 16 -197v-819q0 -139 -15 -197q-25 -101 -106 -152q-97 -61 -289 -61h-1024z" />
<glyph unicode="E" horiz-adv-x="1638" d="M0 0v1024h1024v-410h-614v-204h1024v-410h-1434zM0 1229v409h1434v-409h-1434z" />
<glyph unicode="F" horiz-adv-x="1638" d="M0 0v1024h1024v-410h-614v-614h-410zM0 1229v409h1434v-409h-1434z" />
<glyph unicode="G" horiz-adv-x="1638" d="M0 410v614h410v-614h614v204h-410v410h410q192 0 288 -60q81 -50 106 -152q15 -61 16 -198v-204q0 -139 -15 -197q-25 -101 -106 -152q-97 -61 -289 -61h-614q-192 0 -288 60q-81 50 -107 152q-15 61 -15 198zM0 1229q0 139 14 197q25 101 107 152q95 60 283 60h6h614 q192 0 288 -60q81 -50 106 -152q16 -60 16 -197h-1434z" />
<glyph unicode="H" horiz-adv-x="1638" d="M0 0v1024h1024v614h410v-1638h-410v614h-614v-614h-410zM0 1229v409h410v-409h-410z" />
<glyph unicode="I" horiz-adv-x="614" d="M0 0v1024h410v-1024h-410zM0 1229v409h410v-409h-410z" />
<glyph unicode="J" horiz-adv-x="1638" d="M0 410v204h410v-204h614v1228h410v-1228q0 -139 -15 -197q-25 -101 -106 -152q-97 -61 -289 -61h-614q-192 0 -288 60q-81 50 -107 152q-15 61 -15 198z" />
<glyph unicode="K" horiz-adv-x="1638" d="M0 0v1024h410l512 614h512l-666 -819l666 -819h-512l-512 666v-666h-410zM0 1229v409h410v-409h-410z" />
<glyph unicode="L" horiz-adv-x="1638" d="M0 0v1024h410v-614h1024v-410h-1434zM0 1229v409h410v-409h-410z" />
<glyph unicode="M" horiz-adv-x="1812" d="M0 0v1024h410v-1024h-410zM0 1229q0 139 14 197q25 101 107 152q95 60 283 60h6h819q192 0 288 -56q82 -48 106 -147q15 -61 15 -206v-1229h-409v1229h-205v-1024h-410v1024h-614z" />
<glyph unicode="N" horiz-adv-x="1638" d="M0 0v1024h410v-1024h-410zM0 1229v409h1024q192 0 288 -60q81 -50 106 -152q15 -61 16 -197v-1229h-410v1229h-1024z" />
<glyph unicode="O" horiz-adv-x="1638" d="M0 410v614h410v-614h614v819h-1024q0 139 14 197q25 101 107 152q95 60 283 60h6h614q192 0 288 -60q81 -50 106 -152q15 -61 16 -197v-819q0 -139 -15 -197q-25 -101 -106 -152q-97 -61 -289 -61h-614q-192 0 -288 60q-81 50 -107 152q-15 61 -15 198z" />
<glyph unicode="P" horiz-adv-x="1638" d="M0 0v1024h1024v205h-1024v409h1024q192 0 288 -60q81 -50 106 -152q15 -61 16 -197v-205q0 -155 -15 -213q-25 -98 -106 -144q-94 -53 -289 -53h-614v-614h-410z" />
<glyph unicode="Q" horiz-adv-x="1638" d="M0 410v614h410v-614h614v819h-1024q0 139 14 197q25 101 107 152q95 60 283 60h6h614q192 0 288 -60q81 -50 106 -152q15 -61 16 -197v-1440h-410v211h-614q-233 0 -321.5 87.5t-88.5 322.5z" />
<glyph unicode="R" horiz-adv-x="1638" d="M0 0v1024h1024v205h-1024v409h1024q208 0 317 -128q93 -110 93 -281v-205q0 -137 -15 -197q-26 -102 -106 -152q-98 -61 -289 -61v-204h410v-410h-410q-192 0 -288 60q-81 50 -106 152q-15 61 -16 198v204h-204v-614h-410z" />
<glyph unicode="S" horiz-adv-x="1638" d="M0 410h1024v204h-614q-192 0 -288 60q-81 50 -107 152q-15 61 -15 198h1024q192 0 288 -60q81 -50 106 -152q15 -61 16 -198v-204q0 -139 -15 -197q-25 -101 -106 -152q-97 -61 -289 -61h-614q-192 0 -288 60q-81 50 -107 152q-15 61 -15 198zM0 1229q0 176 86 281 q105 128 324 128h614q192 0 288 -60q81 -50 106 -152q16 -60 16 -197h-1434z" />
<glyph unicode="T" horiz-adv-x="1638" d="M0 1229v409h1434v-409h-512v-1229h-410l-2 1229h-510z" />
<glyph unicode="U" d="M0 410v614h410v-614h614v1228h410v-1228q0 -139 -15 -197q-25 -101 -106 -152q-97 -61 -289 -61h-614q-192 0 -288 60q-81 50 -107 152q-15 61 -15 198zM0 1229v409h410v-409h-410z" />
<glyph unicode="V" horiz-adv-x="1638" d="M0 614v410h410v-307l307 -307l307 307v921h410v-1024l-615 -614h-205zM0 1229v409h410v-409h-410z" />
<glyph unicode="W" horiz-adv-x="1812" d="M0 410v614h410v-614h204v1024h410v-1024h205v1228h409v-1228q0 -139 -14 -197q-25 -101 -106 -152q-97 -61 -289 -61h-819q-192 0 -288 60q-81 50 -107 152q-15 61 -15 198zM0 1229v409h410v-409h-410z" />
<glyph unicode="X" horiz-adv-x="1638" d="M0 0v410q7 53 14 105q30 122 107 198q106 106 289 106q-182 0 -288 53q-76 38 -107 98q-8 26 -15 54h410h307l307 205v409h410v-409q-7 -53 -15 -106q-30 -122 -106 -197q-106 -106 -289 -107q192 0 288 -56q82 -48 106 -147q15 -61 16 -206v-410h-410v410l-307 204 l-307 -204v-410h-410zM0 1229v409h410v-409h-410z" />
<glyph unicode="Y" horiz-adv-x="1638" d="M0 1024h1024v614h410v-614q0 -139 -15 -197q-25 -101 -106 -152q-97 -61 -289 -61h-102v-614h-409v614h-103q-192 0 -288 60q-81 50 -107 152q-15 61 -15 198zM0 1229v409h410v-409h-410z" />
<glyph unicode="Z" horiz-adv-x="1638" d="M0 0v410l922 819h-922v409h1434v-409l-921 -819h921v-410h-1434z" />
<glyph unicode="[" horiz-adv-x="819" d="M0 0v1638h614v-409h-204v-819h204v-410h-614z" />
<glyph unicode="\" horiz-adv-x="1638" d="M0 1434l205 204l1229 -1433l-205 -205z" />
<glyph unicode="]" horiz-adv-x="819" d="M0 0v410h206v819h-206v409h614v-1638h-614z" />
<glyph unicode="^" horiz-adv-x="1638" d="M0 1024l717 614l717 -614h-512l-205 205l-205 -205h-512z" />
<glyph unicode="_" horiz-adv-x="1638" d="M0 0h1638v-205h-1638v205z" />
<glyph unicode="`" horiz-adv-x="614" d="M-10 1419q0 91 36 151q40 68 114 68q93 0 174 -103q73 -92 96 -204q9 -44 8 -86q0 -92 -34 -151q-40 -67 -114 -67q-93 0 -174 102q-70 89 -96 202q-10 42 -10 88z" />
<glyph unicode="a" horiz-adv-x="1638" d="M0 0v1024h1024v205h-1024q0 139 14 197q25 101 107 152q95 60 283 60h6h614q192 0 288 -60q81 -50 106 -152q15 -61 16 -197v-1229h-410v614h-614v-614h-410z" />
<glyph unicode="b" horiz-adv-x="1638" d="M0 0v1024h1024v205h-1024v409h1024q192 0 288 -60q81 -50 106 -152q15 -61 16 -197q0 -137 -12 -197q-19 -102 -79 -152q-73 -61 -217 -61q144 0 216 -60q61 -50 80 -152q12 -59 12 -197q0 -139 -15 -197q-25 -101 -106 -152q-97 -61 -289 -61h-1024zM410 410h614v204 h-614v-204z" />
<glyph unicode="c" horiz-adv-x="1638" d="M0 410v614h410v-614h614v204h410v-204q0 -139 -15 -197q-25 -101 -106 -152q-97 -61 -289 -61h-614q-192 0 -288 60q-81 50 -107 152q-15 61 -15 198zM0 1229q0 139 14 197q25 101 107 152q95 60 283 60h6h614q192 0 288 -60q81 -50 106 -152q15 -61 16 -197v-205h-410 v205h-1024z" />
<glyph unicode="d" horiz-adv-x="1638" d="M0 0v1034h410v-624h614v819h-1024v409h1024q192 0 288 -60q81 -50 106 -152q15 -61 16 -197v-819q0 -139 -15 -197q-25 -101 -106 -152q-97 -61 -289 -61h-1024z" />
<glyph unicode="e" horiz-adv-x="1638" d="M0 0v1024h1024v-410h-614v-204h1024v-410h-1434zM0 1229v409h1434v-409h-1434z" />
<glyph unicode="f" horiz-adv-x="1638" d="M0 0v1024h1024v-410h-614v-614h-410zM0 1229v409h1434v-409h-1434z" />
<glyph unicode="g" horiz-adv-x="1638" d="M0 410v614h410v-614h614v204h-410v410h410q192 0 288 -60q81 -50 106 -152q15 -61 16 -198v-204q0 -139 -15 -197q-25 -101 -106 -152q-97 -61 -289 -61h-614q-192 0 -288 60q-81 50 -107 152q-15 61 -15 198zM0 1229q0 139 14 197q25 101 107 152q95 60 283 60h6h614 q192 0 288 -60q81 -50 106 -152q16 -60 16 -197h-1434z" />
<glyph unicode="h" horiz-adv-x="1638" d="M0 0v1024h1024v614h410v-1638h-410v614h-614v-614h-410zM0 1229v409h410v-409h-410z" />
<glyph unicode="i" horiz-adv-x="614" d="M0 0v1024h410v-1024h-410zM0 1229v409h410v-409h-410z" />
<glyph unicode="j" horiz-adv-x="1638" d="M0 410v204h410v-204h614v1228h410v-1228q0 -139 -15 -197q-25 -101 -106 -152q-97 -61 -289 -61h-614q-192 0 -288 60q-81 50 -107 152q-15 61 -15 198z" />
<glyph unicode="k" horiz-adv-x="1638" d="M0 0v1024h410l512 614h512l-666 -819l666 -819h-512l-512 666v-666h-410zM0 1229v409h410v-409h-410z" />
<glyph unicode="l" horiz-adv-x="1638" d="M0 0v1024h410v-614h1024v-410h-1434zM0 1229v409h410v-409h-410z" />
<glyph unicode="m" horiz-adv-x="1812" d="M0 0v1024h410v-1024h-410zM0 1229q0 139 14 197q25 101 107 152q95 60 283 60h6h819q192 0 288 -56q82 -48 106 -147q15 -61 15 -206v-1229h-409v1229h-205v-1024h-410v1024h-614z" />
<glyph unicode="n" horiz-adv-x="1638" d="M0 0v1024h410v-1024h-410zM0 1229v409h1024q192 0 288 -60q81 -50 106 -152q15 -61 16 -197v-1229h-410v1229h-1024z" />
<glyph unicode="o" horiz-adv-x="1638" d="M0 410v614h410v-614h614v819h-1024q0 139 14 197q25 101 107 152q95 60 283 60h6h614q192 0 288 -60q81 -50 106 -152q15 -61 16 -197v-819q0 -139 -15 -197q-25 -101 -106 -152q-97 -61 -289 -61h-614q-192 0 -288 60q-81 50 -107 152q-15 61 -15 198z" />
<glyph unicode="p" horiz-adv-x="1638" d="M0 0v1024h1024v205h-1024v409h1024q192 0 288 -60q81 -50 106 -152q15 -61 16 -197v-205q0 -155 -15 -213q-25 -98 -106 -144q-94 -53 -289 -53h-614v-614h-410z" />
<glyph unicode="q" horiz-adv-x="1638" d="M0 410v614h410v-512q0 -64 51 -90q17 -8 51 -12h410q34 5 51 12q51 26 51 90v608q0 68 -51 95q-17 9 -51 14h-922q0 139 14 197q25 101 107 152q95 60 283 60h6h614q192 0 288 -60q81 -50 106 -152q15 -61 16 -197v-1440h-410v211h-614q-233 0 -321.5 87.5t-88.5 322.5z " />
<glyph unicode="r" horiz-adv-x="1638" d="M0 0v1024h922q34 5 51 13q51 26 51 89q0 64 -51 90q-17 8 -51 13h-922v409h1024q208 0 317 -128q93 -110 93 -281v-205q0 -138 -11 -197q-19 -102 -80 -152q-73 -61 -217 -61q-34 -5 -51 -12q-51 -26 -51 -90t51 -90q17 -8 51 -12h308v-410h-410q-192 0 -288 60 q-81 50 -106 152q-15 61 -16 198v102q-5 34 -12 51q-26 51 -90 51t-90 -51q-8 -17 -12 -51v-512h-410z" />
<glyph unicode="s" horiz-adv-x="1638" d="M0 410h1024v204h-614q-192 0 -288 60q-81 50 -107 152q-15 61 -15 198h1024q192 0 288 -60q81 -50 106 -152q15 -61 16 -198v-204q0 -139 -15 -197q-25 -101 -106 -152q-97 -61 -289 -61h-614q-192 0 -288 60q-81 50 -107 152q-15 61 -15 198zM0 1229q0 176 86 281 q105 128 324 128h614q192 0 288 -60q81 -50 106 -152q16 -60 16 -197h-1434z" />
<glyph unicode="t" horiz-adv-x="1638" d="M0 1229v409h1434v-409h-512v-1229h-410l-2 1229h-510z" />
<glyph unicode="u" d="M0 410v614h410v-614h614v1228h410v-1228q0 -139 -15 -197q-25 -101 -106 -152q-97 -61 -289 -61h-614q-192 0 -288 60q-81 50 -107 152q-15 61 -15 198zM0 1229v409h410v-409h-410z" />
<glyph unicode="v" horiz-adv-x="1638" d="M0 614v410h410v-307l307 -307l307 307v921h410v-1024l-615 -614h-205zM0 1229v409h410v-409h-410z" />
<glyph unicode="w" horiz-adv-x="1812" d="M0 410v614h410v-614h204v1024h410v-1024h205v1228h409v-1228q0 -139 -14 -197q-25 -101 -106 -152q-97 -61 -289 -61h-819q-192 0 -288 60q-81 50 -107 152q-15 61 -15 198zM0 1229v409h410v-409h-410z" />
<glyph unicode="x" horiz-adv-x="1638" d="M0 0v410q7 53 14 105q30 122 107 198q106 106 289 106q-182 0 -288 53q-76 38 -107 98q-8 26 -15 54h410h307l307 205v409h410v-409q-7 -53 -15 -106q-30 -122 -106 -197q-106 -106 -289 -107q192 0 288 -56q82 -48 106 -147q15 -61 16 -206v-410h-410v410l-307 204 l-307 -204v-410h-410zM0 1229v409h410v-409h-410z" />
<glyph unicode="y" horiz-adv-x="1638" d="M0 1024h1024v614h410v-614q0 -139 -15 -197q-25 -101 -106 -152q-97 -61 -289 -61h-102v-614h-409v614h-103q-192 0 -288 60q-81 50 -107 152q-15 61 -15 198zM0 1229v409h410v-409h-410z" />
<glyph unicode="z" horiz-adv-x="1638" d="M0 0v410l922 819h-922v409h1434v-409l-921 -819h921v-410h-1434z" />
<glyph unicode="{" horiz-adv-x="1024" d="M0 819l205 205v205q0 139 14 197q25 101 107 152q97 61 288 60h205v-409h-205v-819h205v-410h-205q-191 0 -288 60q-81 50 -106 152q-15 61 -15 198v204z" />
<glyph unicode="|" horiz-adv-x="614" d="M0 -205v2048h410v-2048h-410z" />
<glyph unicode="}" horiz-adv-x="1024" d="M0 0v410h205v819h-205v409h205q192 0 288 -60q81 -50 106 -152q15 -61 15 -197v-205l205 -205l-205 -205v-204q0 -139 -14 -197q-26 -102 -106 -152q-97 -61 -288 -61h-206z" />
<glyph unicode="~" horiz-adv-x="1433" d="M0 1229q0 139 14 197q25 101 107 152q97 61 289 60q193 0 288 -60q81 -50 107 -152q15 -61 15 -197h409q0 -139 -15 -197q-25 -101 -106 -152q-97 -61 -289 -61t-288 60q-81 50 -106 152q-15 61 -15 198h-410z" />
<glyph unicode="&#xa1;" horiz-adv-x="684" d="M0 -203v613q0 153 25.5 178.5t180.5 25.5q150 0 177 -26q26 -26 27 -178v-613q0 -148 -27 -179q-28 -26 -184 -25q-150 0 -175 25q-24 30 -24 179zM0 1024q0 84 59 144t147 60q84 0 144 -61t60 -143q0 -84 -60 -144t-144 -60q-86 0 -146 60t-60 144z" />
<glyph unicode="&#xa2;" d="M0 410v614h410v-410q0 -155 24.5 -179.5t179.5 -24.5h206q150 0 178 24q26 26 26 180h410v-204q0 -231 -91 -320.5t-319 -89.5h-98v-203h-413v203h-103q-231 0 -320 90q-90 86 -90 320zM0 1229q0 225 90.5 317t319.5 92h103v206h413v-206h98q229 0 319.5 -88.5 t90.5 -320.5v-205h-410q0 146 -26 178q-26 26 -178 27h-820z" />
<glyph unicode="&#xa3;" d="M0 0q154 0 282 128t128 282v204h-204v410h204v205q0 230 90 319.5t320 89.5h204q230 0 320 -89t90 -320h-410q-153 0 -178.5 -25.5t-25.5 -179.5h204v-410h-204v-204h614v-410h-614h-820z" />
<glyph unicode="&#xa4;" d="M0 307l256 256q-18 17 -35.5 46t-31.5 62q-28 70 -28 149q0 77 28.5 146.5t66.5 108.5l-256 256l206 205l255 -255q38 35 108.5 64.5t147.5 29.5q74 0 144 -28.5t113 -65.5l255 255l205 -205l-256 -256q21 -22 36.5 -47t31.5 -63q31 -69 31 -145q0 -79 -30 -148.5 t-69 -108.5l256 -256l-205 -205l-255 257q-93 -93 -257 -93q-163 0 -256 93l-255 -257zM461 820q0 -107 75 -182t181 -75t181.5 75.5t75.5 181.5q0 104 -76 179.5t-181 75.5q-104 0 -180 -76t-76 -179z" />
<glyph unicode="&#xa5;" d="M0 1229v409h410v-409h-410zM102 410v204h411l-411 410h512l103 -102l307 307v409h410v-511l-512 -513h409v-204h-409v-103h205v-205h-205v-202h-409v202h-206v205h206v103h-411z" />
<glyph unicode="&#xa6;" horiz-adv-x="1272" d="M513 0v614h409v-614h-409zM513 1024v614h409v-614h-409z" />
<glyph unicode="&#xa7;" d="M0 -204v410h410q77 0 76 101q0 102 -76 103q-231 0 -320.5 90t-89.5 320v204q0 231 89.5 320.5t320.5 89.5h410v-410h-410q-77 0 -77 -102t77 -102q230 0 320 -90.5t90 -319.5v-410q0 -74 -90.5 -139t-319.5 -65h-410zM820 0v410h409q76 0 76 101q0 103 -76 103 q-231 0 -320 90t-89 320v410q0 75 89.5 139.5t319.5 64.5h409v-409h-409q-77 0 -77 -103q0 -102 77 -102q229 0 319 -89t90 -321v-204q0 -230 -89.5 -320t-319.5 -90h-409z" />
<glyph unicode="&#xa8;" horiz-adv-x="1338" d="M307 1894q0 62 45 108.5t109 46.5q62 0 108 -46q45 -51 45 -109q0 -62 -45 -108q-49 -45 -108 -44q-66 0 -110 45t-44 107zM820 1894q0 59 44 109q46 46 108 46q58 0 110 -46q45 -52 45 -109q0 -62 -45 -108q-25 -22 -52.5 -33t-57.5 -11q-62 0 -107 45t-45 107z" />
<glyph unicode="&#xa9;" horiz-adv-x="1812" d="M0 820q0 338 241 578t579 240t578 -240q120 -121 180 -264.5t60 -313.5q0 -340 -240 -580q-121 -120 -264.5 -180t-313.5 -60q-340 0 -580 241t-240 579zM206 820q0 -253 180 -433.5t434 -180.5q251 0 432.5 180.5t181.5 433.5q0 252 -181.5 433t-432.5 181 q-254 0 -434 -180.5t-180 -433.5zM410 614v308h233v-204q0 -78 15 -92q14 -12 103 -12h117q86 0 101 12q16 16 16 92h234v-104q0 -116 -51 -160t-183 -44h-352q-131 0 -182 44.5t-51 159.5zM410 1024q0 112 51 161q50 44 182 44h352q129 0 183 -44q51 -46 51 -161v-102h-234 q0 74 -16 88q-12 14 -101 14h-468z" />
<glyph unicode="&#xaa;" horiz-adv-x="1236" d="M307 820v511h513v102h-513q0 115 45 160t161 45h307q115 0 159.5 -44.5t44.5 -160.5v-613h-204v307h-307v-307h-206z" />
<glyph unicode="&#xab;" horiz-adv-x="1812" d="M0 820l922 716v-307l-512 -409l512 -410v-308zM717 820l921 716v-307l-511 -409l511 -410v-308z" />
<glyph unicode="&#xac;" d="M0 614v410h1434v-1024h-410v614h-1024z" />
<glyph unicode="&#xad;" d="M0 614v410h1434v-410h-1434z" />
<glyph unicode="&#xae;" horiz-adv-x="1812" d="M0 820q0 338 241 578t579 240t578 -240q120 -121 180 -264.5t60 -313.5q0 -340 -240 -580q-121 -120 -264.5 -180t-313.5 -60q-340 0 -580 241t-240 579zM206 820q0 -253 180 -433.5t434 -180.5q251 0 432.5 180.5t181.5 433.5q0 252 -181.5 433t-432.5 181 q-254 0 -434 -180.5t-180 -433.5zM410 410v512h526q43 0 50.5 6.5t7.5 45.5q0 35 -6 42.5t-52 7.5h-526v205h584q132 0 183.5 -45.5t51.5 -159.5v-102q0 -116 -51.5 -160t-183.5 -44l235 -308h-293l-234 308h-59v-308h-233z" />
<glyph unicode="&#xaf;" horiz-adv-x="1812" d="M0 1229v409h1638v-409h-1638z" />
<glyph unicode="&#xb0;" horiz-adv-x="1272" d="M410 2044q0 123 90 216t217 93q123 0 215 -92t92 -217q0 -127 -91.5 -216.5t-215.5 -89.5q-127 0 -216 89q-91 91 -91 217zM586 2046q0 -58 38 -94q38 -38 93 -38q26 0 47.5 8.5t44.5 29.5q40 36 40 94q0 50 -40 92q-40 38 -92 38q-54 0 -92.5 -38.5t-38.5 -91.5z" />
<glyph unicode="&#xb1;" horiz-adv-x="1428" d="M206 0v410h307v307h-307v410l307 1v306h409v-307h307v-410h-307v-307h307v-410h-1023z" />
<glyph unicode="&#xb2;" horiz-adv-x="1236" d="M307 820v204l511 358q0 38 -5 45q-7 6 -45 6h-461q0 115 45.5 160t160.5 45h305q114 0 160 -44.5t46 -160.5v-102l-410 -307h410v-204h-717z" />
<glyph unicode="&#xb3;" horiz-adv-x="1236" d="M307 1024v103h206q0 -78 12.5 -90.5t88.5 -12.5h103q42 0 61.5 3t27.5 10q13 11 12 90h-204v204h204q0 42 -2.5 62t-9.5 27q-11 13 -89 13h-410q0 115 45.5 160t160.5 45h305q114 0 160 -44.5t46 -160.5v-409q0 -118 -44.5 -161t-161.5 -43h-305q-114 0 -160 43.5 t-46 160.5z" />
<glyph unicode="&#xb4;" horiz-adv-x="1236" d="M521 1234q0 30 12 71q29 94 123 187.5t190 125.5q40 12 72 12q44 0 71 -25q26 -26 25 -75q0 -32 -11 -69q-34 -102 -122.5 -190t-191.5 -124q-40 -12 -71 -12q-44 0 -72 27q-26 28 -25 72z" />
<glyph unicode="&#xb5;" d="M0 -408v1432h410v-410q0 -155 24.5 -179.5t179.5 -24.5h206q150 0 178 24q26 26 26 180v1026l410 -2v-1228q0 -230 -90.5 -320t-319.5 -90h-614v-408h-410zM0 1229v409h410v-409h-410z" />
<glyph unicode="&#xb6;" horiz-adv-x="1812" d="M0 1024h614v205h-614q0 230 89.5 319.5t320.5 89.5h1228v-1638h-409v1229h-205v-1229h-410v614h-204q-232 0 -321 90t-89 320z" />
<glyph unicode="&#xb7;" horiz-adv-x="1152" d="M513 820q0 83 60 143.5t144 60.5t144.5 -60t60.5 -144q0 -85 -61.5 -145.5t-143.5 -60.5q-86 0 -145 60.5t-59 145.5z" />
<glyph unicode="&#xb8;" horiz-adv-x="1896" d="M0 614v206h2049v-206h-205v-101h102v-206h-102v-101h205v-206h-411v614h-1228v-614h-204v614h-206zM410 1844v205h1228v-205h-716v-922h-205v922h-307zM513 614h204l48 -153l55 153h204l-154 -307v-307h-208v307zM1024 0v614h512v-408h-307v-206h-205zM1127 922v820h204 v-615h307v-205h-511zM1229 410h102v204h-102v-204z" />
<glyph unicode="&#xb9;" horiz-adv-x="1146" d="M513 1433q0 115 44 160t160 45h205v-205h-205h-204zM717 820v511h205v-511h-205z" />
<glyph unicode="&#xba;" horiz-adv-x="1236" d="M307 1024v307h206v-204l204 307h-410q0 75 64.5 139.5t141.5 64.5h307q74 0 139 -64t65 -140v-410q0 -76 -65 -140t-139 -64h-307q-78 0 -142 63.5t-64 140.5zM614 1024l105 1q75 0 88 15t13 90v201z" />
<glyph unicode="&#xbb;" horiz-adv-x="1812" d="M0 102v308l513 410l-513 409v307l922 -716zM718 102v308l511 410l-511 409v307l922 -716z" />
<glyph unicode="&#xbc;" horiz-adv-x="1812" d="M0 206l1229 1432l205 -204l-1228 -1434zM0 1433q0 115 45 160t159 45h206v-205h-206h-204zM204 820v511h206v-511h-206zM922 307l102 204h307v103h-256l103 204h358v-307h102v-204h-102v-307h-205v307h-409z" />
<glyph unicode="&#xbd;" horiz-adv-x="1812" d="M0 206l1229 1432l205 -204l-1228 -1434zM0 1433q0 115 45 160t159 45h206v-204l-206 -1h-204zM204 820v511h206v-511h-206zM922 0v204l511 359v9q0 30 -6.5 36t-44.5 6h-460q0 115 44 159.5t161 44.5h306q114 0 161 -43q45 -49 44 -161v-103l-409 -307h409v-204h-716z " />
<glyph unicode="&#xbe;" horiz-adv-x="1812" d="M0 1024v103h206q0 -81 12 -90q11 -13 89 -13h103q42 0 61.5 3t26.5 10q13 11 13 90h-204v204h204q0 42 -2.5 62t-10.5 27q-14 13 -88 13h-410q0 115 45 160t161 45h305q111 0 161 -44q45 -49 45 -161v-409q0 -118 -46.5 -161t-159.5 -43h-305q-114 0 -160 42.5t-46 161.5 zM206 206l1228 1432l204 -204l-1228 -1434zM922 307l102 204h307v103h-256l103 204h358v-307h102v-204h-102v-307h-205v307h-409z" />
<glyph unicode="&#xbf;" d="M0 0v206q0 230 90.5 319t319.5 89h103h409q0 -228 -89 -316q-45 -42 -124.5 -66t-190.5 -24l-108 -2q0 -154 27 -180q22 -26 177 -26h820q0 -226 -88 -316.5t-321 -90.5h-615q-231 0 -320.5 89t-89.5 318zM513 1024q0 84 60 144t145 60q86 0 145 -59t59 -145t-59.5 -145 t-144.5 -59q-87 0 -144 60q-61 58 -61 144z" />
<glyph unicode="&#xc0;" d="M0 0v1024h1026v205h-1026q0 229 88.5 319t321.5 90h616q230 0 319 -92t89 -317v-1229h-408v614h-616v-614h-410zM419 2065q0 37 33.5 58t86.5 21q37 0 89 -11t109 -35t114 -62q111 -77 149 -153q15 -34 15 -57q0 -34 -31.5 -56t-87.5 -22q-33 0 -85 10q-122 26 -226 100 q-108 69 -151 150q-15 31 -15 57z" />
<glyph unicode="&#xc1;" d="M0 0v1024h1026v205h-1026q0 229 88.5 319t321.5 90h616q230 0 319 -92t89 -317v-1229h-408v614h-616v-614h-410zM419 1826q0 26 15 57q35 74 148 153q116 74 229 98q45 10 83 11q54 0 87 -21.5t33 -57.5q-1 -24 -16 -58q-43 -81 -149 -151t-227 -99q-45 -10 -84 -10 q-52 0 -88 22q-31 22 -31 56z" />
<glyph unicode="&#xc2;" d="M0 0v1024h1026v205h-1026q0 229 88.5 319t321.5 90h616q230 0 319 -92t89 -317v-1229h-408v614h-616v-614h-410zM307 1742l410 408l410 -408h-205l-205 204l-204 -204h-206z" />
<glyph unicode="&#xc3;" d="M0 0v1024h1026v205h-1026q0 229 88.5 319t321.5 90h616q230 0 319 -92t89 -317v-1229h-408v614h-616v-614h-410zM410 1946q0 112 45 160q43 43 161 44q111 0 158 -44q46 -46 46 -160h204q0 -111 -43 -161q-46 -43 -161 -43q-114 0 -159 42t-45 162h-206z" />
<glyph unicode="&#xc4;" d="M0 0v1024h1026v205h-1026q0 229 88.5 319t321.5 90h616q230 0 319 -92t89 -317v-1229h-408v614h-616v-614h-410zM307 1894q0 62 45 108.5t109 46.5q62 0 108 -46q45 -51 45 -109q0 -62 -45 -108q-49 -45 -108 -44q-66 0 -110 45t-44 107zM820 1894q0 59 44 109 q46 46 108 46q58 0 110 -46q45 -52 45 -109q0 -62 -45 -108q-25 -22 -52.5 -33t-57.5 -11q-62 0 -107 45t-45 107z" />
<glyph unicode="&#xc5;" d="M0 0v1024h1026v205h-1026q0 229 88.5 319t321.5 90h616q230 0 319 -92t89 -317v-1229h-408v614h-616v-614h-410zM410 2044q0 123 90 216t217 93q123 0 215 -92t92 -217q0 -130 -91.5 -218t-215.5 -88q-127 0 -217 89t-90 217zM586 2046q0 -58 38 -94q36 -38 93 -38 q26 0 47.5 8.5t44.5 29.5q40 36 40 94q0 50 -40 92q-43 38 -92 38q-54 0 -92.5 -37.5t-38.5 -92.5z" />
<glyph unicode="&#xc6;" horiz-adv-x="1812" d="M0 0v1024h717v205h-717q0 230 89.5 319.5t320.5 89.5h1228v-409h-511v-205h307v-410h-307v-204h511v-410h-921v614h-307v-614h-410z" />
<glyph unicode="&#xc7;" d="M0 410v614h410v-410q0 -150 28 -178q14 -13 59 -19.5t117 -6.5h206q150 0 178 24q26 26 26 180h410v-204q0 -230 -90.5 -320t-319.5 -90h-102v-204q0 -229 -89.5 -319.5t-319.5 -90.5h-206v410h206v204h-103q-230 0 -320 89.5t-90 320.5zM0 1229q0 230 89.5 319.5 t320.5 89.5h614q230 0 320 -90t90 -319v-205h-410q0 152 -26.5 178.5t-177.5 26.5h-820z" />
<glyph unicode="&#xc8;" d="M0 0v1034h1024v-420h-614v-204h1020v-410h-1430zM0 1229v409h1430v-409h-1430zM419 2065q0 37 33.5 58t86.5 21q37 0 89 -11t109 -35t114 -62q111 -77 149 -153q15 -34 15 -57q0 -34 -31.5 -56t-87.5 -22q-33 0 -85 10q-122 26 -226 100q-108 69 -151 150q-15 31 -15 57z " />
<glyph unicode="&#xc9;" d="M0 0v1034h1024v-420h-614v-204h1020v-410h-1430zM0 1229v409h1430v-409h-1430zM419 1826q0 26 15 57q35 74 148 153q116 74 229 98q45 10 83 11q54 0 87 -21.5t33 -57.5q-1 -24 -16 -58q-43 -81 -149 -151t-227 -99q-45 -10 -84 -10q-52 0 -88 22q-31 22 -31 56z" />
<glyph unicode="&#xca;" d="M0 0v1034h1024v-420h-614v-204h1020v-410h-1430zM0 1229v409h1430v-409h-1430zM307 1742l410 408l410 -408h-205l-205 204l-204 -204h-206z" />
<glyph unicode="&#xcb;" d="M0 0v1024h1024v-410h-614v-204h1020v-410h-1430zM0 1229v409h1430v-409h-1430zM307 1894q0 62 45 108.5t109 46.5q62 0 108 -46q45 -51 45 -109q0 -62 -45 -108q-49 -45 -108 -44q-66 0 -110 45t-44 107zM820 1894q0 59 44 109q46 46 108 46q58 0 110 -46q45 -52 45 -109 q0 -62 -45 -108q-25 -22 -52.5 -33t-57.5 -11q-62 0 -107 45t-45 107z" />
<glyph unicode="&#xcc;" horiz-adv-x="684" d="M-194 2064q0 38 33.5 59.5t86.5 21.5q33 0 86.5 -11.5t110 -35.5t114.5 -62q111 -77 149 -153q15 -34 15 -57q0 -34 -31.5 -56t-87.5 -22q-33 0 -85 10q-120 25 -226 100q-108 69 -150 150q-14 31 -15 56zM0 0v1034h410v-1034h-410zM0 1229v409h410v-409h-410z" />
<glyph unicode="&#xcd;" horiz-adv-x="780" d="M0 0v1034h410v-1034h-410zM0 1229v409h410v-409h-410zM10 1826q0 12 4 26t12 31q32 74 147 153q112 74 228 98q45 10 84 11q54 0 86.5 -21.5t32.5 -60.5q0 -24 -14 -55q-42 -78 -150 -149.5t-227 -100.5q-46 -10 -86 -10q-53 0 -86 22q-30 22 -31 56z" />
<glyph unicode="&#xce;" horiz-adv-x="780" d="M-204 1742l408 408l410 -408h-204l-206 204l-204 -204h-204zM0 0v1034h410v-1034h-410zM0 1229v409h410v-409h-410z" />
<glyph unicode="&#xcf;" horiz-adv-x="780" d="M-204 1894q0 58 44 109q46 46 110 46q62 0 107 -46q45 -52 45 -109q0 -62 -45 -107t-107 -45q-66 0 -110 44.5t-44 107.5zM0 0v1024h410v-1024h-410zM0 1229v409h410v-409h-410zM307 1894q0 59 45 109q45 46 108 46q62 0 109 -46q45 -51 45 -109q0 -62 -45 -108 q-49 -45 -109 -44q-64 0 -108.5 44.5t-44.5 107.5z" />
<glyph unicode="&#xd0;" d="M-203 614v410h817v-410l-204 5v-209h416q148 0 173 25t25 179v420q0 137 -26 171q-29 24 -178 24h-820v409h1024q229 0 317.5 -91t88.5 -318v-819q0 -230 -88.5 -320t-317.5 -90h-1024v614h-203z" />
<glyph unicode="&#xd1;" d="M0 0v1024h410v-1024h-410zM0 1229v409h614l410 -818v818h410v-1638h-410l-614 1229h-410zM410 1946q0 112 45 160q43 43 161 44q111 0 158 -44q46 -46 46 -160h204q0 -111 -43 -161q-46 -43 -161 -43q-114 0 -159 42t-45 162h-206z" />
<glyph unicode="&#xd2;" d="M0 410v614h410v-410q0 -155 24 -180q22 -25 180 -24h206q150 0 178 24q26 26 26 180v410q0 146 -26 178q-26 26 -178 27h-820q0 229 88.5 319t321.5 90h614q226 0 318 -89.5t92 -319.5v-819q0 -231 -90 -320.5t-320 -89.5h-614q-231 0 -320 90q-90 86 -90 320zM419 2065 q0 37 33.5 58t86.5 21q37 0 89 -11t109 -35t114 -62q111 -77 149 -153q15 -34 15 -57q0 -34 -31.5 -56t-87.5 -22q-33 0 -85 10q-122 26 -226 100q-108 69 -151 150q-15 31 -15 57z" />
<glyph unicode="&#xd3;" d="M0 410v614h410v-410q0 -155 24 -180q22 -25 180 -24h206q150 0 178 24q26 26 26 180v410q0 146 -26 178q-26 26 -178 27h-820q0 229 88.5 319t321.5 90h614q226 0 318 -89.5t92 -319.5v-819q0 -231 -90 -320.5t-320 -89.5h-614q-231 0 -320 90q-90 86 -90 320zM419 1826 q0 26 15 57q35 74 148 153q116 74 229 98q45 10 83 11q54 0 87 -21.5t33 -57.5q-1 -24 -16 -58q-43 -81 -149 -151t-227 -99q-45 -10 -84 -10q-52 0 -88 22q-31 22 -31 56z" />
<glyph unicode="&#xd4;" d="M0 410v614h410v-410q0 -155 24 -180q22 -25 180 -24h206q150 0 178 24q26 26 26 180v410q0 146 -26 178q-26 26 -178 27h-820q0 229 88.5 319t321.5 90h614q226 0 318 -89.5t92 -319.5v-819q0 -231 -90 -320.5t-320 -89.5h-614q-231 0 -320 90q-90 86 -90 320zM307 1742 l410 408l410 -408h-205l-205 204l-204 -204h-206z" />
<glyph unicode="&#xd5;" d="M0 410v614h410v-410q0 -153 24 -180q22 -25 180 -24h206q150 0 178 24q26 26 26 180v410q0 146 -26 178q-26 26 -178 27h-820q0 229 88.5 319t321.5 90h614q226 0 318 -89.5t92 -319.5v-819q0 -231 -90 -320.5t-320 -89.5h-614q-231 0 -320 90q-90 86 -90 320zM410 1946 q0 112 45 160q43 43 161 44q111 0 158 -44q46 -46 46 -160h204q0 -111 -43 -161q-46 -43 -161 -43q-114 0 -159 42t-45 162h-206z" />
<glyph unicode="&#xd6;" d="M0 410v614h410v-410q0 -155 24 -180q22 -25 180 -24h206q150 0 178 24q26 26 26 180v410q0 146 -26 178q-26 26 -178 27h-820q0 229 88.5 319t321.5 90h614q226 0 318 -89.5t92 -319.5v-819q0 -231 -90 -320.5t-320 -89.5h-614q-231 0 -320 90q-90 86 -90 320zM307 1894 q0 62 45 108.5t109 46.5q62 0 108 -46q45 -51 45 -109q0 -62 -45 -108q-49 -45 -108 -44q-66 0 -110 45t-44 107zM820 1894q0 59 44 109q46 46 108 46q58 0 110 -46q45 -52 45 -109q0 -62 -45 -108q-25 -22 -52.5 -33t-57.5 -11q-62 0 -107 45t-45 107z" />
<glyph unicode="&#xd7;" horiz-adv-x="1428" d="M210 602l217 218l-217 217l289 289l218 -217l217 217l290 -289l-218 -217l218 -218l-290 -290l-217 218l-218 -218z" />
<glyph unicode="&#xd8;" d="M0 410v614h410v-410l410 615h-820q0 229 88.5 319t321.5 90h614q114 0 193.5 -22t126.5 -66q90 -90 90 -321v-819q0 -231 -90 -320.5t-320 -89.5h-614q-231 0 -320 90q-90 86 -90 320zM614 410h206q150 0 178 24q26 26 26 180v410z" />
<glyph unicode="&#xd9;" d="M0 410v614h410v-410q0 -153 24 -180q22 -25 180 -24h206q150 0 178 24q26 26 26 180v1024h410v-1228q0 -231 -90 -320.5t-320 -89.5h-614q-231 0 -320 90q-90 86 -90 320zM0 1229v409h410v-409h-410zM419 2065q0 37 33.5 58t86.5 21q37 0 89 -11t109 -35t114 -62 q111 -77 149 -153q15 -34 15 -57q0 -34 -31.5 -56t-87.5 -22q-33 0 -85 10q-122 26 -226 100q-108 69 -151 150q-15 31 -15 57z" />
<glyph unicode="&#xda;" d="M0 410v614h410v-410q0 -153 24 -180q22 -25 180 -24h206q150 0 178 24q26 26 26 180v1024h410v-1228q0 -231 -90 -320.5t-320 -89.5h-614q-231 0 -320 90q-90 86 -90 320zM0 1229v409h410v-409h-410zM419 1826q0 26 15 57q35 74 148 153q116 74 229 98q45 10 83 11 q54 0 87 -21.5t33 -57.5q-1 -24 -16 -58q-43 -81 -149 -151t-227 -99q-45 -10 -84 -10q-52 0 -88 22q-31 22 -31 56z" />
<glyph unicode="&#xdb;" d="M0 410v614h410v-410q0 -155 24 -180q22 -25 180 -24h206q150 0 178 24q26 26 26 180v1024h410v-1228q0 -231 -90 -320.5t-320 -89.5h-614q-231 0 -320 90q-90 86 -90 320zM0 1229v409h410v-409h-410zM307 1742l410 408l410 -408h-205l-205 204l-204 -204h-206z" />
<glyph unicode="&#xdc;" d="M0 410v614h410v-410q0 -155 24 -180q22 -25 180 -24h206q150 0 178 24q26 26 26 180v1024h410v-1228q0 -231 -90 -320.5t-320 -89.5h-614q-231 0 -320 90q-90 86 -90 320zM0 1229v409h410v-409h-410zM307 1894q0 62 45 108.5t109 46.5q62 0 108 -46q45 -51 45 -109 q0 -62 -45 -108q-49 -45 -108 -44q-66 0 -110 45t-44 107zM820 1894q0 59 44 109q46 46 108 46q58 0 110 -46q45 -52 45 -109q0 -62 -45 -108q-25 -22 -52.5 -33t-57.5 -11q-62 0 -107 45t-45 107z" />
<glyph unicode="&#xdd;" d="M0 1229v409h410v-409h-410zM102 1024h512l103 -102l307 307v409h410v-511l-512 -513v-614h-409v614zM419 1826q0 26 15 57q35 74 148 153q116 74 229 98q45 10 83 11q54 0 87 -21.5t33 -57.5q-1 -24 -16 -58q-43 -81 -149 -151t-227 -99q-45 -10 -84 -10q-52 0 -88 22 q-31 22 -31 56z" />
<glyph unicode="&#xde;" d="M0 0v1638h410v-307h614q230 0 320 -89t90 -320v-205q0 -230 -90.5 -320t-319.5 -90h-614v-307h-410zM410 717h512q76 0 89 12t13 91q0 75 -13 88.5t-89 13.5h-512v-205z" />
<glyph unicode="&#xdf;" d="M0 0v1024h410v-1024h-410zM0 1229q0 230 89.5 319.5t320.5 89.5h612q230 0 317 -90q44 -45 67.5 -125t23.5 -194q0 -118 -20 -196.5t-64 -123.5q-84 -89 -322 -89q230 0 317 -90q44 -46 66.5 -126t22.5 -194q0 -154 -88 -282t-318 -128h-102q-231 0 -320 89.5t-89 320.5 h409q76 0 89 12t13 91q0 75 -13 88t-89 13h-308v410h308q80 0 91 15t11 100q0 64 -13 77t-89 13h-922z" />
<glyph unicode="&#xe0;" d="M0 0v1024h1026v205h-1026q0 229 88.5 319t321.5 90h616q230 0 319 -92t89 -317v-1229h-408v614h-616v-614h-410zM419 2065q0 37 33.5 58t86.5 21q37 0 89 -11t109 -35t114 -62q111 -77 149 -153q15 -34 15 -57q0 -34 -31.5 -56t-87.5 -22q-33 0 -85 10q-122 26 -226 100 q-108 69 -151 150q-15 31 -15 57z" />
<glyph unicode="&#xe1;" d="M0 0v1024h1026v205h-1026q0 229 88.5 319t321.5 90h616q230 0 319 -92t89 -317v-1229h-408v614h-616v-614h-410zM419 1826q0 26 15 57q35 74 148 153q116 74 229 98q45 10 83 11q54 0 87 -21.5t33 -57.5q-1 -24 -16 -58q-43 -81 -149 -151t-227 -99q-45 -10 -84 -10 q-52 0 -88 22q-31 22 -31 56z" />
<glyph unicode="&#xe2;" d="M0 0v1024h1026v205h-1026q0 229 88.5 319t321.5 90h616q230 0 319 -92t89 -317v-1229h-408v614h-616v-614h-410zM307 1742l410 408l410 -408h-205l-205 204l-204 -204h-206z" />
<glyph unicode="&#xe3;" d="M0 0v1024h1026v205h-1026q0 229 88.5 319t321.5 90h616q230 0 319 -92t89 -317v-1229h-408v614h-616v-614h-410zM410 1946q0 112 45 160q43 43 161 44q111 0 158 -44q46 -46 46 -160h204q0 -111 -43 -161q-46 -43 -161 -43q-114 0 -159 42t-45 162h-206z" />
<glyph unicode="&#xe4;" d="M0 0v1024h1026v205h-1026q0 229 88.5 319t321.5 90h616q230 0 319 -92t89 -317v-1229h-408v614h-616v-614h-410zM307 1894q0 62 45 108.5t109 46.5q62 0 108 -46q45 -51 45 -109q0 -62 -45 -108q-49 -45 -108 -44q-66 0 -110 45t-44 107zM820 1894q0 59 44 109 q46 46 108 46q58 0 110 -46q45 -52 45 -109q0 -62 -45 -108q-25 -22 -52.5 -33t-57.5 -11q-62 0 -107 45t-45 107z" />
<glyph unicode="&#xe5;" d="M0 0v1024h1026v205h-1026q0 229 88.5 319t321.5 90h616q230 0 319 -92t89 -317v-1229h-408v614h-616v-614h-410zM410 2044q0 123 90 216t217 93q123 0 215 -92t92 -217q0 -130 -91.5 -218t-215.5 -88q-127 0 -217 89t-90 217zM586 2046q0 -58 38 -94q36 -38 93 -38 q26 0 47.5 8.5t44.5 29.5q40 36 40 94q0 50 -40 92q-43 38 -92 38q-54 0 -92.5 -37.5t-38.5 -92.5z" />
<glyph unicode="&#xe6;" horiz-adv-x="1812" d="M0 0v1024h717v205h-717q0 230 89.5 319.5t320.5 89.5h1228v-409h-511v-205h307v-410h-307v-204h511v-410h-921v614h-307v-614h-410z" />
<glyph unicode="&#xe7;" d="M0 410v614h410v-410q0 -150 28 -178q14 -13 59 -19.5t117 -6.5h206q150 0 178 24q26 26 26 180h410v-204q0 -230 -90.5 -320t-319.5 -90h-102v-204q0 -229 -89.5 -319.5t-319.5 -90.5h-206v410h206v204h-103q-230 0 -320 89.5t-90 320.5zM0 1229q0 230 89.5 319.5 t320.5 89.5h614q230 0 320 -90t90 -319v-205h-410q0 152 -26.5 178.5t-177.5 26.5h-820z" />
<glyph unicode="&#xe8;" d="M0 0v1034h1024v-420h-614v-204h1020v-410h-1430zM0 1229v409h1430v-409h-1430zM419 2065q0 37 33.5 58t86.5 21q37 0 89 -11t109 -35t114 -62q111 -77 149 -153q15 -34 15 -57q0 -34 -31.5 -56t-87.5 -22q-33 0 -85 10q-122 26 -226 100q-108 69 -151 150q-15 31 -15 57z " />
<glyph unicode="&#xe9;" d="M0 0v1034h1024v-420h-614v-204h1020v-410h-1430zM0 1229v409h1430v-409h-1430zM419 1826q0 26 15 57q35 74 148 153q116 74 229 98q45 10 83 11q54 0 87 -21.5t33 -57.5q-1 -24 -16 -58q-43 -81 -149 -151t-227 -99q-45 -10 -84 -10q-52 0 -88 22q-31 22 -31 56z" />
<glyph unicode="&#xea;" d="M0 0v1034h1024v-420h-614v-204h1020v-410h-1430zM0 1229v409h1430v-409h-1430zM307 1742l410 408l410 -408h-205l-205 204l-204 -204h-206z" />
<glyph unicode="&#xeb;" d="M0 0v1024h1024v-410h-614v-204h1020v-410h-1430zM0 1229v409h1430v-409h-1430zM307 1894q0 62 45 108.5t109 46.5q62 0 108 -46q45 -51 45 -109q0 -62 -45 -108q-49 -45 -108 -44q-66 0 -110 45t-44 107zM820 1894q0 59 44 109q46 46 108 46q58 0 110 -46q45 -52 45 -109 q0 -62 -45 -108q-25 -22 -52.5 -33t-57.5 -11q-62 0 -107 45t-45 107z" />
<glyph unicode="&#xec;" horiz-adv-x="684" d="M-194 2064q0 38 33.5 59.5t86.5 21.5q33 0 86.5 -11.5t110 -35.5t114.5 -62q111 -77 149 -153q15 -34 15 -57q0 -34 -31.5 -56t-87.5 -22q-33 0 -85 10q-120 25 -226 100q-108 69 -150 150q-14 31 -15 56zM0 0v1034h410v-1034h-410zM0 1229v409h410v-409h-410z" />
<glyph unicode="&#xed;" horiz-adv-x="780" d="M0 0v1034h410v-1034h-410zM0 1229v409h410v-409h-410zM10 1826q0 12 4 26t12 31q32 74 147 153q112 74 228 98q45 10 84 11q54 0 86.5 -21.5t32.5 -60.5q0 -24 -14 -55q-42 -78 -150 -149.5t-227 -100.5q-46 -10 -86 -10q-53 0 -86 22q-30 22 -31 56z" />
<glyph unicode="&#xee;" horiz-adv-x="780" d="M-204 1742l408 408l410 -408h-204l-206 204l-204 -204h-204zM0 0v1034h410v-1034h-410zM0 1229v409h410v-409h-410z" />
<glyph unicode="&#xef;" horiz-adv-x="780" d="M-204 1894q0 58 44 109q46 46 110 46q62 0 107 -46q45 -52 45 -109q0 -62 -45 -107t-107 -45q-66 0 -110 44.5t-44 107.5zM0 0v1024h410v-1024h-410zM0 1229v409h410v-409h-410zM307 1894q0 59 45 109q45 46 108 46q62 0 109 -46q45 -51 45 -109q0 -62 -45 -108 q-49 -45 -109 -44q-64 0 -108.5 44.5t-44.5 107.5z" />
<glyph unicode="&#xf0;" d="M-204 614v410h818v-410l-204 5v-209h416q148 0 173 25t25 179v420q0 138 -26 171q-29 24 -178 24h-820v409h1024q229 0 317.5 -91t88.5 -318v-819q0 -230 -88.5 -320t-317.5 -90h-1024v614h-204z" />
<glyph unicode="&#xf1;" d="M0 0v1024h410v-1024h-410zM0 1229v409h614l410 -818v818h410v-1638h-410l-614 1229h-410zM410 1946q0 112 45 160q43 43 161 44q111 0 158 -44q46 -46 46 -160h204q0 -111 -43 -161q-46 -43 -161 -43q-114 0 -159 42t-45 162h-206z" />
<glyph unicode="&#xf2;" d="M0 410v614h410v-410q0 -155 24 -180q22 -25 180 -24h206q150 0 178 24q26 26 26 180v410q0 146 -26 178q-26 26 -178 27h-820q0 229 88.5 319t321.5 90h614q226 0 318 -89.5t92 -319.5v-819q0 -231 -90 -320.5t-320 -89.5h-614q-231 0 -320 90q-90 86 -90 320zM419 2065 q0 37 33.5 58t86.5 21q37 0 89 -11t109 -35t114 -62q111 -77 149 -153q15 -34 15 -57q0 -34 -31.5 -56t-87.5 -22q-33 0 -85 10q-122 26 -226 100q-108 69 -151 150q-15 31 -15 57z" />
<glyph unicode="&#xf3;" d="M0 410v614h410v-410q0 -155 24 -180q22 -25 180 -24h206q150 0 178 24q26 26 26 180v410q0 146 -26 178q-26 26 -178 27h-820q0 229 88.5 319t321.5 90h614q226 0 318 -89.5t92 -319.5v-819q0 -231 -90 -320.5t-320 -89.5h-614q-231 0 -320 90q-90 86 -90 320zM419 1826 q0 26 15 57q35 74 148 153q116 74 229 98q45 10 83 11q54 0 87 -21.5t33 -57.5q-1 -24 -16 -58q-43 -81 -149 -151t-227 -99q-45 -10 -84 -10q-52 0 -88 22q-31 22 -31 56z" />
<glyph unicode="&#xf4;" d="M0 410v614h410v-410q0 -155 24 -180q22 -25 180 -24h206q150 0 178 24q26 26 26 180v410q0 146 -26 178q-26 26 -178 27h-820q0 229 88.5 319t321.5 90h614q226 0 318 -89.5t92 -319.5v-819q0 -231 -90 -320.5t-320 -89.5h-614q-231 0 -320 90q-90 86 -90 320zM307 1742 l410 408l410 -408h-205l-205 204l-204 -204h-206z" />
<glyph unicode="&#xf5;" d="M0 410v614h410v-410q0 -153 24 -180q22 -25 180 -24h206q150 0 178 24q26 26 26 180v410q0 146 -26 178q-26 26 -178 27h-820q0 229 88.5 319t321.5 90h614q226 0 318 -89.5t92 -319.5v-819q0 -231 -90 -320.5t-320 -89.5h-614q-231 0 -320 90q-90 86 -90 320zM410 1946 q0 112 45 160q43 43 161 44q111 0 158 -44q46 -46 46 -160h204q0 -111 -43 -161q-46 -43 -161 -43q-114 0 -159 42t-45 162h-206z" />
<glyph unicode="&#xf6;" d="M0 410v614h410v-410q0 -155 24 -180q22 -25 180 -24h206q150 0 178 24q26 26 26 180v410q0 146 -26 178q-26 26 -178 27h-820q0 229 88.5 319t321.5 90h614q226 0 318 -89.5t92 -319.5v-819q0 -231 -90 -320.5t-320 -89.5h-614q-231 0 -320 90q-90 86 -90 320zM307 1894 q0 62 45 108.5t109 46.5q62 0 108 -46q45 -51 45 -109q0 -62 -45 -108q-49 -45 -108 -44q-66 0 -110 45t-44 107zM820 1894q0 59 44 109q46 46 108 46q58 0 110 -46q45 -52 45 -109q0 -62 -45 -108q-25 -22 -52.5 -33t-57.5 -11q-62 0 -107 45t-45 107z" />
<glyph unicode="&#xf7;" horiz-adv-x="1428" d="M206 614v411h1023v-411h-1023zM513 307q0 83 59 144.5t145 61.5q82 0 143.5 -60t61.5 -146q0 -84 -60.5 -144.5t-144.5 -60.5q-86 0 -145 60t-59 145zM513 1331q0 83 59 144t145 61q83 0 144 -60.5t61 -144.5q0 -85 -61 -144.5t-144 -59.5q-85 0 -146 59q-58 61 -58 145z " />
<glyph unicode="&#xf8;" d="M0 410v614h410v-410l410 615h-820q0 229 88.5 319t321.5 90h614q114 0 193.5 -22t126.5 -66q90 -90 90 -321v-819q0 -231 -90 -320.5t-320 -89.5h-614q-231 0 -320 90q-90 86 -90 320zM614 410h206q150 0 178 24q26 26 26 180v410z" />
<glyph unicode="&#xf9;" d="M0 410v614h410v-410q0 -155 24 -180q22 -25 180 -24h206q150 0 178 24q26 26 26 180v1024h410v-1228q0 -231 -90 -320.5t-320 -89.5h-614q-231 0 -320 90q-90 86 -90 320zM0 1229v409h410v-409h-410zM419 2065q0 37 33.5 58t86.5 21q37 0 89 -11t109 -35t114 -62 q111 -77 149 -153q15 -34 15 -57q0 -34 -31.5 -56t-87.5 -22q-33 0 -85 10q-122 26 -226 100q-108 69 -151 150q-15 31 -15 57z" />
<glyph unicode="&#xfa;" d="M0 410v614h410v-410q0 -153 24 -180q22 -25 180 -24h206q150 0 178 24q26 26 26 180v1024h410v-1228q0 -231 -90 -320.5t-320 -89.5h-614q-231 0 -320 90q-90 86 -90 320zM0 1229v409h410v-409h-410zM419 2065q0 37 33.5 58t86.5 21q37 0 89 -11t109 -35t114 -62 q111 -77 149 -153q15 -34 15 -57q0 -34 -31.5 -56t-87.5 -22q-33 0 -85 10q-122 26 -226 100q-108 69 -151 150q-15 31 -15 57z" />
<glyph unicode="&#xfb;" d="M0 410v614h410v-410q0 -155 24 -180q22 -25 180 -24h206q150 0 178 24q26 26 26 180v1024h410v-1228q0 -231 -90 -320.5t-320 -89.5h-614q-231 0 -320 90q-90 86 -90 320zM0 1229v409h410v-409h-410zM307 1742l410 408l410 -408h-205l-205 204l-204 -204h-206z" />
<glyph unicode="&#xfc;" d="M0 410v614h410v-410q0 -155 24 -180q22 -25 180 -24h206q150 0 178 24q26 26 26 180v1024h410v-1228q0 -231 -90 -320.5t-320 -89.5h-614q-231 0 -320 90q-90 86 -90 320zM0 1229v409h410v-409h-410zM307 1894q0 62 45 108.5t109 46.5q62 0 108 -46q45 -51 45 -109 q0 -62 -45 -108q-49 -45 -108 -44q-66 0 -110 45t-44 107zM820 1894q0 59 44 109q46 46 108 46q58 0 110 -46q45 -52 45 -109q0 -62 -45 -108q-25 -22 -52.5 -33t-57.5 -11q-62 0 -107 45t-45 107z" />
<glyph unicode="&#xfd;" d="M0 1229v409h410v-409h-410zM102 1024h512l103 -102l307 307v409h410v-511l-512 -513v-614h-409v614zM419 1826q0 26 15 57q35 74 148 153q116 74 229 98q45 10 83 11q54 0 87 -21.5t33 -57.5q-1 -24 -16 -58q-43 -81 -149 -151t-227 -99q-45 -10 -84 -10q-52 0 -88 22 q-31 22 -31 56z" />
<glyph unicode="&#xfe;" d="M0 0v1638h410v-307h614q230 0 320 -89t90 -320v-205q0 -230 -90.5 -320t-319.5 -90h-614v-307h-410zM410 717h512q76 0 89 12t13 91q0 75 -13 88.5t-89 13.5h-512v-205z" />
<glyph unicode="&#xff;" d="M0 1229v409h410v-409h-410zM102 1024h512l103 -102l307 307v409h410v-511l-512 -513v-614h-409v614zM307 1894q0 62 45 108.5t109 46.5q62 0 108 -46q45 -51 45 -109q0 -62 -45 -108q-49 -45 -108 -44q-66 0 -110 45t-44 107zM820 1894q0 59 44 109q46 46 108 46 q58 0 110 -46q45 -52 45 -109q0 -62 -45 -108q-25 -22 -52.5 -33t-57.5 -11q-62 0 -107 45t-45 107z" />
<glyph unicode="&#x152;" horiz-adv-x="1812" d="M0 410v819q0 230 89.5 319.5t320.5 89.5h1228v-409h-614v-205h410v-410h-410v-204h614v-410h-614h-614q-232 0 -321 90t-89 320zM410 614q0 -155 24.5 -179.5t179.5 -24.5v819q-156 0 -180 -27q-25 -25 -24 -178v-410z" />
<glyph unicode="&#x153;" horiz-adv-x="1812" d="M0 410v819q0 230 89.5 319.5t320.5 89.5h1228v-409h-614v-205h410v-410h-410v-204h614v-410h-614h-614q-232 0 -321 90t-89 320zM410 614q0 -155 24.5 -179.5t179.5 -24.5v819q-156 0 -180 -27q-25 -25 -24 -178v-410z" />
<glyph unicode="&#x178;" d="M0 1229v409h410v-409h-410zM102 1024h512l103 -102l307 307v409h410v-511l-512 -513v-614h-409v614zM307 1894q0 62 45 108.5t109 46.5q62 0 108 -46q45 -51 45 -109q0 -62 -45 -108q-49 -45 -108 -44q-66 0 -110 45t-44 107zM820 1894q0 59 44 109q46 46 108 46 q58 0 110 -46q45 -52 45 -109q0 -62 -45 -108q-25 -22 -52.5 -33t-57.5 -11q-62 0 -107 45t-45 107z" />
<glyph unicode="&#x2c6;" horiz-adv-x="1464" d="M307 1229l410 409l410 -409h-205l-205 205l-204 -205h-206z" />
<glyph unicode="&#x2dc;" horiz-adv-x="1272" d="M410 1433q0 115 45 160t159 45q112 0 159 -45t47 -160h204q0 -114 -45 -159t-159 -45q-115 0 -159.5 42.5t-44.5 161.5h-206z" />
<glyph unicode="&#x2000;" horiz-adv-x="1176" />
<glyph unicode="&#x2001;" horiz-adv-x="2353" />
<glyph unicode="&#x2002;" horiz-adv-x="1176" />
<glyph unicode="&#x2003;" horiz-adv-x="2353" />
<glyph unicode="&#x2004;" horiz-adv-x="784" />
<glyph unicode="&#x2005;" horiz-adv-x="588" />
<glyph unicode="&#x2006;" horiz-adv-x="392" />
<glyph unicode="&#x2007;" horiz-adv-x="392" />
<glyph unicode="&#x2008;" horiz-adv-x="294" />
<glyph unicode="&#x2009;" horiz-adv-x="470" />
<glyph unicode="&#x200a;" horiz-adv-x="130" />
<glyph unicode="&#x2010;" horiz-adv-x="1228" d="M0 614v410h1024v-410h-1024z" />
<glyph unicode="&#x2011;" horiz-adv-x="1228" d="M0 614v410h1024v-410h-1024z" />
<glyph unicode="&#x2012;" horiz-adv-x="1228" d="M0 614v410h1024v-410h-1024z" />
<glyph unicode="&#x2013;" d="M0 614v411h1434v-411h-1434z" />
<glyph unicode="&#x2014;" horiz-adv-x="1908" d="M0 614v411h2049v-411h-2049z" />
<glyph unicode="&#x2018;" horiz-adv-x="618" d="M6 1477q0 30 1 41t5 30q14 90 71 90q51 0 113 -90q28 -44 50 -98t39 -124t17 -135q0 -41 -7 -77q-18 -90 -72 -90q-53 0 -112 89.5t-88 217.5q-18 78 -17 146z" />
<glyph unicode="&#x2019;" horiz-adv-x="618" d="M6 1188q0 66 17 143q14 64 36 117.5t53 99.5q58 90 113 90q52 0 70 -90q7 -35 7 -76q0 -66 -17 -141q-29 -126 -88 -216.5t-113 -90.5t-72 90q-3 14 -4.5 34t-1.5 40z" />
<glyph unicode="&#x201a;" horiz-adv-x="606" d="M0 0q0 124 44.5 215.5t109.5 91.5q62 0 107.5 -91.5t45.5 -215.5t-44.5 -214.5t-108.5 -90.5q-65 0 -108 90q-46 93 -46 215z" />
<glyph unicode="&#x201c;" horiz-adv-x="1080" d="M6 1475q0 40 8 73q22 90 91 90q63 0 141 -90q68 -84 111 -217q21 -78 21 -141q0 -42 -8 -76q-22 -90 -90 -90q-69 0 -141 89t-110 218q-22 78 -23 144zM442 1475q0 40 8 73q22 90 90 90q66 0 139.5 -90t111.5 -217q22 -78 23 -144q0 -40 -8 -73q-22 -90 -91 -90 q-68 0 -140.5 89t-109.5 218q-22 78 -23 144z" />
<glyph unicode="&#x201d;" horiz-adv-x="1080" d="M6 1186q0 66 23 145q18 65 45 118t65 99q72 90 141 90q68 0 90 -90q8 -32 8 -73q0 -66 -23 -144q-36 -129 -109.5 -218t-140.5 -89q-69 0 -91 90q-8 32 -8 72zM442 1191q0 63 23 140q18 66 45 119.5t65 97.5q72 90 140 90q69 0 91 -90q8 -32 8 -73q0 -66 -23 -144 q-18 -64 -45 -117t-65 -100q-72 -90 -141 -90q-65 0 -89 90q-9 33 -9 77z" />
<glyph unicode="&#x201e;" horiz-adv-x="990" d="M0 -101q0 121 45 214t109 93q61 0 107 -91t46 -216q0 -127 -44.5 -217t-108.5 -90q-65 0 -108 90q-46 93 -46 217zM410 -101q0 126 45 216.5t108 90.5q62 0 108 -92.5t46 -214.5q0 -123 -44.5 -215t-109.5 -92q-64 0 -108.5 90t-44.5 217z" />
<glyph unicode="&#x2022;" horiz-adv-x="1080" d="M513 820q0 83 60 143.5t144 60.5t144.5 -60t60.5 -144q0 -85 -61.5 -145.5t-143.5 -60.5q-86 0 -145 60.5t-59 145.5z" />
<glyph unicode="&#x2026;" d="M0 154q0 62 45 107.5t109 45.5q62 0 107.5 -45t45.5 -108q0 -66 -45.5 -110t-107.5 -44q-63 0 -108.5 45t-45.5 109zM513 154q0 64 44.5 108.5t107.5 44.5q62 0 108.5 -45.5t46.5 -107.5q0 -66 -46 -108q-48 -46 -109 -46q-62 0 -107 44.5t-45 109.5zM1024 154 q0 62 45 107.5t109 45.5q62 0 107.5 -44.5t45.5 -108.5q0 -66 -46.5 -110t-106.5 -44q-62 0 -108 45t-46 109z" />
<glyph unicode="&#x202f;" horiz-adv-x="470" />
<glyph unicode="&#x2039;" horiz-adv-x="1182" d="M0 820l922 716v-307l-512 -409l512 -410v-308z" />
<glyph unicode="&#x203a;" horiz-adv-x="1182" d="M0 102v308l513 410l-513 409v307l922 -716z" />
<glyph unicode="&#x205f;" horiz-adv-x="588" />
<glyph unicode="&#x2122;" d="M0 1433v205h654v-205h-234v-613h-186v613h-234zM686 820v511h188v-511h-188zM686 1433v205h235l140 -205l139 205h234v-818h-187v613l-93 -154v-459h-188v459l-92 154h-188z" />
<glyph unicode="&#x25fc;" horiz-adv-x="1640" d="M0 0v1640h1640v-1640h-1640z" />
</font>
</defs>
</svg>
