<?xml version="1.0" standalone="no"?>
<!DOCTYPE svg PUBLIC "-//W3C//DTD SVG 1.1//EN" "http://www.w3.org/Graphics/SVG/1.1/DTD/svg11.dtd" >
<svg xmlns="http://www.w3.org/2000/svg">
<metadata></metadata>
<defs>
<font id="esp_italicregular" horiz-adv-x="1620" >
<font-face units-per-em="2048" ascent="1638" descent="-410" />
<missing-glyph horiz-adv-x="1228" />
<glyph horiz-adv-x="0" />
<glyph unicode="&#xd;" horiz-adv-x="1228" />
<glyph unicode=" "  horiz-adv-x="1228" />
<glyph unicode="&#x09;" horiz-adv-x="1228" />
<glyph unicode="&#xa0;" horiz-adv-x="1228" />
<glyph unicode="!" horiz-adv-x="614" d="M39 162q0 21 5 43q18 84 91 144.5t158 60.5q73 0 119 -46t46 -117q1 -20 -4 -42q-18 -85 -91 -145t-157 -60q-73 0 -120 46t-47 116zM190 806q0 52 9 118q6 46 41 208t53 222q39 131 93 200q68 85 168 84q79 0 115 -54q30 -46 30 -136q0 -65 -17 -159q-4 -28 -33 -163 q-35 -167 -54 -228q-39 -133 -92 -199q-67 -85 -167 -85q-81 0 -116 55q-30 46 -30 137z" />
<glyph unicode="&#x22;" horiz-adv-x="1126" d="M274 1245q0 19 2.5 42t6.5 44q23 112 95 203q82 104 175 104q74 0 114 -68q35 -59 35 -151q1 -46 -9 -88q-25 -112 -96 -201q-81 -102 -174 -103q-74 0 -113 67q-35 59 -36 151zM786 1245q0 19 2.5 42t6.5 44q23 112 95 203q82 104 175 104q74 0 114 -68q35 -59 35 -151 q1 -46 -9 -88q-25 -112 -96 -201q-81 -102 -174 -103q-74 0 -113 67q-35 59 -36 151z" />
<glyph unicode="#" horiz-adv-x="1638" d="M43 205l87 409h205l87 410h-204l87 410l204 -2l44 206h409l-44 -206h205l44 206h410l-43 -204l204 -2l-87 -408h-205l-87 -410h205l-87 -409h-205l-43 -205h-410l43 205h-204l-44 -205h-409l43 205h-205zM745 614h205l87 410h-205z" />
<glyph unicode="$" horiz-adv-x="1638" d="M60 229q0 40 8 88q3 20 19 93h1024l22 102l21 96h-615q-198 0 -281 67q-68 55 -68 166q0 32 4 61t24 122h1024q198 0 281 -66q68 -54 68 -163q0 -40 -8 -88q-3 -20 -19 -93l-43 -204q-30 -138 -57 -197q-47 -102 -138 -152q-110 -61 -302 -61h-102l-44 -202h-408l43 202 h-103q-198 0 -282 66q-68 54 -68 163zM261 1229q30 138 57 197q47 102 138 152q110 61 302 60h103l44 206h409l-44 -206h102q198 0 282 -65q68 -54 68 -163q0 -40 -8 -88q-4 -20 -20 -93h-1433z" />
<glyph unicode="%" horiz-adv-x="1843" d="M146 206l1533 1432l162 -204l-1534 -1434zM252 1146q0 18 2.5 39.5t6.5 43.5q36 170 181.5 289.5t315.5 119.5q146 0 238.5 -92t92.5 -232q0 -25 -1.5 -42.5t-7.5 -42.5q-35 -169 -180.5 -289t-315.5 -120q-146 0 -239 92t-93 234zM491 1193q0 -61 40 -100t103 -39 q73 0 135 51.5t77 123.5q4 22 4 37q0 60 -40 99t-102 39q-73 0 -135 -51t-78 -124q-4 -22 -4 -36zM896 325q0 25 1.5 42.5t7.5 42.5q36 170 181.5 290t315.5 120q146 0 239 -92t93 -234q0 -25 -1 -42t-7 -42q-36 -170 -182 -290t-316 -120q-146 0 -239 92t-93 233zM1136 372 q0 -60 39.5 -99t102.5 -39q73 0 134.5 51.5t77.5 124.5q4 22 4 36q0 61 -39.5 100t-102.5 39q-73 0 -134.5 -51.5t-77.5 -123.5q-4 -22 -4 -38z" />
<glyph unicode="&#x26;" horiz-adv-x="1638" d="M66 238q0 71 21 172l131 614h409h205h206l-88 -410h-410l-43 -204h614l43 204h410l-43 -204q-30 -138 -57 -197q-47 -102 -138 -152q-110 -61 -302 -61h-102l-44 -202h-408l43 202h-103q-186 0 -264 52q-81 54 -80 186zM261 1229q30 138 57 197q47 102 138 152 q110 61 302 60h103l44 206h409l-44 -206h102q198 0 282 -65q68 -54 68 -163q0 -40 -8 -88q-3 -20 -20 -93l-43 -205h-409l43 205h-1024z" />
<glyph unicode="'" horiz-adv-x="614" d="M274 1245q0 19 2.5 42t6.5 44q23 112 95 203q82 104 175 104q74 0 114 -68q35 -59 35 -151q1 -46 -9 -88q-25 -112 -96 -201q-81 -102 -174 -103q-74 0 -113 67q-35 59 -36 151z" />
<glyph unicode="(" horiz-adv-x="819" d="M60 229q0 40 8 88q3 20 19 93l174 819q30 138 57 197q47 102 138 152q110 61 302 60h204l-87 -409h-205l-173 -819h205l-88 -410h-204q-198 0 -282 66q-68 54 -68 163z" />
<glyph unicode=")" horiz-adv-x="819" d="M0 0l87 410h205l174 819h-205l87 409h205q198 0 281 -65q68 -54 68 -163q0 -40 -8 -88q-3 -20 -19 -93l-173 -819q-30 -138 -57 -197q-47 -102 -139 -152q-110 -61 -301 -61h-205z" />
<glyph unicode="*" horiz-adv-x="1024" d="M239 1126l44 205h154l-80 102l186 154l80 -102l32 153h206l-32 -153l123 102l121 -154l-123 -102h152l-44 -205h-152l80 -102l-187 -154l-80 102l-33 -154h-205l32 151l-123 -99l-120 154l123 102h-154z" />
<glyph unicode="+" horiz-adv-x="1228" d="M130 614l88 410h307l65 307l409 -3l-65 -304h308l-88 -410h-307l-65 -305l-409 -2l65 307h-308z" />
<glyph unicode="," horiz-adv-x="614" d="M-9 -86q0 43 9 86q22 111 95 203q82 104 175 104q74 0 114 -67q35 -59 35 -151q1 -46 -9 -89q-24 -112 -96 -202q-82 -102 -174 -102q-74 0 -114 67q-35 60 -35 151z" />
<glyph unicode="-" horiz-adv-x="1228" d="M130 614l88 410h1024l-88 -410h-1024z" />
<glyph unicode="." horiz-adv-x="614" d="M38 162q0 21 5 43q18 84 91 144.5t158 60.5q73 0 119.5 -46t46.5 -117q0 -20 -5 -42q-18 -85 -90.5 -145t-157.5 -60q-73 0 -120 46t-47 116z" />
<glyph unicode="/" horiz-adv-x="1638" d="M43 205l1534 1433l161 -204l-1533 -1434z" />
<glyph unicode="0" horiz-adv-x="1638" d="M66 239q0 70 21 171l131 614h409l-87 -410l541 615h-820q49 230 154 318q109 91 343 91h614q183 0 263.5 -55t80.5 -189q0 -68 -21 -165l-173 -819q-50 -231 -158.5 -320.5t-339.5 -89.5h-614q-183 0 -262 52q-82 54 -82 187zM702 410h205q151 0 181 23q33 26 66 181 l88 410z" />
<glyph unicode="1" horiz-adv-x="1024" d="M261 1229q33 154 188 281.5t309 127.5h409l-87 -409h-410h-409zM410 0l217 1024h410l-218 -1024h-409z" />
<glyph unicode="2" horiz-adv-x="1638" d="M0 0l87 410l1198 819h-1024q30 138 57 197q47 102 138 152q110 61 302 60h614q198 0 282 -65q68 -54 68 -163q0 -40 -8 -88q-3 -20 -20 -93l-24 -118l-968 -701h819l-87 -410h-1434z" />
<glyph unicode="3" horiz-adv-x="1638" d="M60 229q0 40 8 88q3 20 19 93l43 204h410l-42 -204h613l43 204h-409l87 410h410l43 205h-1024q30 138 57 197q47 102 138 152q110 61 302 60h614q198 0 282 -65q68 -54 68 -163q0 -40 -8 -88q-3 -20 -20 -93l-173 -819q-30 -138 -57 -197q-46 -102 -138 -152 q-110 -61 -302 -61h-614q-198 0 -282 66q-68 54 -68 163z" />
<glyph unicode="4" horiz-adv-x="1638" d="M130 614l88 410h819l130 614h410l-131 -614h199l-87 -410h-199l-130 -614h-410l131 614h-820zM261 1229l87 409h410l-88 -409h-409z" />
<glyph unicode="5" horiz-adv-x="1638" d="M0 0l87 410h1024l43 204h-1024l88 410h1024q198 0 281 -66q68 -54 68 -163q0 -40 -8 -88q-3 -20 -19 -93l-43 -204q-30 -138 -57 -197q-47 -102 -138 -152q-110 -61 -302 -61h-1024zM261 1229l87 409h1434l-88 -409h-1433z" />
<glyph unicode="6" horiz-adv-x="1638" d="M60 229q0 40 8 88q3 20 19 93l43 204l88 410h1024q198 0 281 -66q68 -54 68 -162q0 -41 -8 -89q-3 -20 -19 -93l-43 -204q-30 -138 -57 -197q-47 -102 -138 -152q-110 -61 -302 -61h-614q-198 0 -282 66q-68 54 -68 163zM261 1229q30 138 57 197q47 102 138 152 q110 61 302 60h614q198 0 282 -65q68 -54 68 -163q0 -40 -8 -88q-4 -20 -20 -93h-1433zM497 410h614l43 204h-614z" />
<glyph unicode="7" horiz-adv-x="1638" d="M261 1229l87 409h1434l-87 -409l-773 -1229h-512l774 1229h-923z" />
<glyph unicode="8" horiz-adv-x="1638" d="M60 229q0 40 8 88q3 20 19 93q48 227 69 288q29 86 75 106q34 15 148 15q-100 0 -141 31q-34 26 -35 79q0 16 2 31t13 64h1017l43 205h-1017q30 138 57 197q47 102 138 152q110 61 302 60h614q198 0 282 -65q68 -54 68 -163q0 -40 -8 -88q-3 -20 -20 -93 q-29 -138 -48 -197q-34 -102 -85 -152q-62 -61 -158 -61q85 0 122 -47q32 -41 32 -122q0 -59 -15 -134t-21 -106q-30 -138 -57 -197q-46 -102 -138 -152q-110 -61 -302 -61h-614q-198 0 -282 66q-68 54 -68 163zM497 410h614l43 204h-614z" />
<glyph unicode="9" horiz-adv-x="1638" d="M60 229q0 40 8 88q3 20 19 93h1024l43 204h-614q-198 0 -282 66q-68 54 -68 163q0 37 9 88q3 19 19 93h1024l43 205h-1024q30 138 57 197q47 102 138 152q110 61 302 60h614q198 0 282 -65q68 -54 68 -163q0 -40 -8 -88q-3 -20 -20 -93l-173 -819q-30 -138 -57 -197 q-47 -102 -138 -152q-110 -61 -302 -61h-614q-198 0 -282 66q-68 54 -68 163z" />
<glyph unicode=":" horiz-adv-x="614" d="M105 470q0 21 5 42q18 85 90.5 145t157.5 60q73 0 119.5 -46t46.5 -117q0 -20 -5 -42q-18 -85 -90.5 -145t-157.5 -60q-73 0 -119.5 46t-46.5 117zM235 1084q0 21 5 42q18 84 91 144.5t158 60.5q73 0 119 -45.5t46 -116.5q1 -21 -4 -43q-18 -85 -91 -144.5t-157 -59.5 q-73 0 -120 46t-47 116z" />
<glyph unicode=";" horiz-adv-x="614" d="M79 324q0 43 9 86q23 112 94 203q82 104 176 104q74 0 114 -68q35 -59 35 -151q1 -46 -9 -88q-24 -112 -96 -202q-82 -102 -174 -102q-74 0 -114 67q-35 60 -35 151zM235 1084q0 21 5 42q18 84 91 144.5t158 60.5q73 0 119 -45.5t46 -116.5q1 -21 -4 -43 q-18 -85 -91 -144.5t-157 -59.5q-73 0 -120 46t-47 116z" />
<glyph unicode="&#x3c;" horiz-adv-x="1638" d="M174 820l1608 818l-87 -409l-804 -409l631 -410l-88 -410z" />
<glyph unicode="=" horiz-adv-x="1228" d="M66 307l86 410h1024l-86 -410h-1024zM196 922l87 409h1024l-87 -409h-1024z" />
<glyph unicode="&#x3e;" horiz-adv-x="1638" d="M0 0l87 410l804 410l-630 409l87 409l1261 -818z" />
<glyph unicode="?" horiz-adv-x="1638" d="M261 1229q30 138 57 197q47 102 138 152q110 61 302 60h614q198 0 282 -65q68 -54 68 -163q0 -40 -8 -88q-3 -20 -20 -93l-43 -205q-29 -136 -57 -197q-47 -102 -138 -152q-110 -61 -302 -61h-512q30 140 53 197q41 102 112 152q86 61 230 61h205l43 205h-1024zM550 162 q0 21 5 43q18 84 91 144.5t158 60.5q73 0 119.5 -46t46.5 -117q0 -20 -5 -42q-18 -85 -90.5 -145t-157.5 -60q-73 0 -120 46t-47 116z" />
<glyph unicode="@" horiz-adv-x="1638" d="M60 229q0 40 8 88q3 20 19 93l131 614h409l-130 -614h1024l-87 -410h-1024q-198 0 -282 66q-68 54 -68 163zM261 1229q30 138 57 197q47 102 138 152q110 61 302 60h614q198 0 282 -65q68 -54 68 -163q0 -40 -8 -88q-3 -20 -20 -93l-43 -205q-29 -136 -57 -197 q-47 -102 -138 -152q-110 -61 -302 -61h-384l88 410h384l43 205h-1024z" />
<glyph unicode="A" horiz-adv-x="1638" d="M0 0l218 1024h1024l43 205h-1024q30 138 57 197q47 102 138 152q108 60 296 60h6h614q198 0 282 -65q68 -54 68 -163q0 -40 -8 -88q-3 -20 -20 -93l-260 -1229h-410l130 614h-614l-130 -614h-410z" />
<glyph unicode="B" horiz-adv-x="1638" d="M0 0l218 1024h1024l43 205h-1024l87 409h1024q198 0 282 -65q68 -54 68 -163q0 -40 -8 -88q-3 -20 -20 -93q-29 -137 -52 -197q-41 -102 -112 -152q-86 -61 -229 -61q141 0 200 -57q50 -49 50 -147q0 -42 -9 -99q-7 -40 -21 -106q-30 -138 -57 -197q-47 -102 -138 -152 q-110 -61 -302 -61h-1024zM497 410h614l43 204h-614z" />
<glyph unicode="C" horiz-adv-x="1638" d="M60 229q0 40 8 88q3 20 19 93l131 614h409l-130 -614h614l43 204h410l-43 -204q-30 -138 -57 -197q-47 -102 -138 -152q-110 -61 -302 -61h-614q-198 0 -282 66q-68 54 -68 163zM261 1229q30 138 57 197q47 102 138 152q108 60 296 60h6h614q198 0 282 -65 q68 -54 68 -163q0 -40 -8 -88q-3 -20 -20 -93l-43 -205h-409l43 205h-1024z" />
<glyph unicode="D" horiz-adv-x="1638" d="M0 0l220 1034h410l-133 -624h614l174 819h-1024l87 409h1024q198 0 282 -65q68 -54 68 -163q0 -40 -8 -88q-3 -20 -20 -93l-173 -819q-30 -138 -57 -197q-47 -102 -138 -152q-110 -61 -302 -61h-1024z" />
<glyph unicode="E" horiz-adv-x="1638" d="M0 0l218 1024h1024l-88 -410h-614l-43 -204h1024l-87 -410h-1434zM261 1229l87 409h1434l-88 -409h-1433z" />
<glyph unicode="F" horiz-adv-x="1638" d="M0 0l218 1024h1024l-88 -410h-614l-130 -614h-410zM261 1229l87 409h1434l-88 -409h-1433z" />
<glyph unicode="G" horiz-adv-x="1638" d="M60 229q0 40 8 88q3 20 19 93l131 614h409l-130 -614h614l43 204h-409l87 410h410q198 0 281 -66q68 -54 68 -163q0 -40 -8 -88q-3 -20 -19 -93l-43 -204q-30 -138 -57 -197q-47 -102 -138 -152q-110 -61 -302 -61h-614q-198 0 -282 66q-68 54 -68 163zM261 1229 q30 138 57 197q47 102 138 152q108 60 296 60h6h614q198 0 282 -65q68 -54 68 -163q0 -40 -8 -88q-4 -20 -20 -93h-1433z" />
<glyph unicode="H" horiz-adv-x="1638" d="M0 0l218 1024h1024l130 614h410l-348 -1638h-410l130 614h-614l-130 -614h-410zM261 1229l87 409h410l-88 -409h-409z" />
<glyph unicode="I" horiz-adv-x="614" d="M0 0l218 1024h409l-217 -1024h-410zM261 1229l87 409h410l-88 -409h-409z" />
<glyph unicode="J" horiz-adv-x="1638" d="M60 229q0 40 8 88q3 20 19 93l43 204h410l-43 -204h614l261 1228h410l-261 -1228q-30 -138 -57 -197q-47 -102 -138 -152q-110 -61 -302 -61h-614q-198 0 -282 66q-68 54 -68 163z" />
<glyph unicode="K" horiz-adv-x="1638" d="M0 0l218 1024h409l643 614h512l-840 -819l492 -819h-512l-371 666l-141 -666h-410zM261 1229l87 409h410l-88 -409h-409z" />
<glyph unicode="L" horiz-adv-x="1638" d="M0 0l218 1024h409l-130 -614h1024l-87 -410h-1434zM261 1229l87 409h410l-88 -409h-409z" />
<glyph unicode="M" horiz-adv-x="1812" d="M0 0l218 1024h409l-217 -1024h-410zM261 1229q30 138 57 197q47 102 138 152q108 60 296 60h6h819q200 0 282 -60q69 -50 69 -159q0 -46 -12 -105.5t-17 -84.5l-261 -1229h-409l261 1229h-205l-218 -1024h-409l217 1024h-614z" />
<glyph unicode="N" horiz-adv-x="1638" d="M0 0l218 1024h409l-217 -1024h-410zM261 1229l87 409h1024q198 0 282 -65q68 -54 68 -163q0 -40 -8 -88q-3 -20 -20 -93l-260 -1229h-410l261 1229h-1024z" />
<glyph unicode="O" horiz-adv-x="1638" d="M60 229q0 40 8 88q3 20 19 93l131 614h409l-130 -614h614l174 819h-1024q30 138 57 197q47 102 138 152q108 60 296 60h6h614q198 0 282 -65q68 -54 68 -163q0 -40 -8 -88q-3 -20 -20 -93l-173 -819q-30 -138 -57 -197q-47 -102 -138 -152q-110 -61 -302 -61h-614 q-198 0 -282 66q-68 54 -68 163z" />
<glyph unicode="P" horiz-adv-x="1638" d="M0 0l218 1024h1024l43 205h-1024l87 409h1024q198 0 282 -65q68 -54 68 -163q0 -40 -8 -88q-3 -20 -20 -93l-43 -205q-33 -154 -60 -213q-46 -98 -137 -144q-106 -53 -300 -53h-614l-130 -614h-410z" />
<glyph unicode="Q" horiz-adv-x="1638" d="M87 410l131 614h409l-130 -614h614l174 819h-1024q30 138 57 197q47 102 138 152q108 60 296 60h6h614q198 0 282 -65q68 -54 68 -163q0 -41 -8 -88q-3 -20 -20 -93l-305 -1440h-410l45 211h-614q-186 0 -264 52q-80 53 -80 183q0 74 21 175z" />
<glyph unicode="R" horiz-adv-x="1638" d="M0 0l218 1024h1024l43 205h-1024l87 409h1024q173 0 259 -89q75 -78 75 -211q0 -54 -12 -109l-42 -205q-28 -134 -57 -197q-47 -102 -138 -152q-110 -61 -303 -61l-43 -204h410l-87 -410h-410q-198 0 -282 66q-68 54 -68 163q0 40 8 88q3 20 20 93l43 204h-205l-130 -614 h-410z" />
<glyph unicode="S" horiz-adv-x="1638" d="M60 229q0 40 8 88q3 20 19 93h1024l43 204h-614q-198 0 -282 66q-68 54 -68 163q0 37 9 88q3 19 19 93h1024q198 0 281 -66q68 -54 68 -163q0 -40 -8 -88q-3 -20 -19 -93l-43 -204q-30 -138 -57 -197q-47 -102 -138 -152q-110 -61 -302 -61h-614q-198 0 -282 66 q-68 54 -68 163zM261 1229q38 176 146 281q132 128 351 128h614q198 0 282 -65q68 -54 68 -163q0 -40 -8 -88q-4 -20 -20 -93h-1433z" />
<glyph unicode="T" horiz-adv-x="1638" d="M261 1229l87 409h1434l-88 -409h-512l-260 -1229h-410l259 1229h-510z" />
<glyph unicode="U" d="M60 229q0 40 8 88q3 20 19 93l131 614h409l-130 -614h614l261 1228h410l-261 -1228q-30 -138 -57 -197q-47 -102 -138 -152q-110 -61 -302 -61h-614q-198 0 -282 66q-68 54 -68 163zM261 1229l87 409h410l-88 -409h-409z" />
<glyph unicode="V" horiz-adv-x="1638" d="M130 614l88 410h409l-65 -307l242 -307l372 307l196 921h410l-218 -1024l-745 -614h-205zM261 1229l87 409h410l-88 -409h-409z" />
<glyph unicode="W" horiz-adv-x="1812" d="M60 229q0 40 8 88q3 20 19 93l131 614h409l-130 -614h205l217 1024h410l-218 -1024h205l261 1228h409l-260 -1228q-30 -138 -57 -197q-47 -102 -139 -152q-110 -61 -301 -61h-819q-198 0 -282 66q-68 54 -68 163zM261 1229l87 409h410l-88 -409h-409z" />
<glyph unicode="X" horiz-adv-x="1638" d="M0 0l87 410q18 53 38 105q57 122 148 198q129 106 311 106q-158 0 -249 39q-70 30 -100 83q-19 34 -19 70q0 5 0.5 8t1.5 5h409h307l351 205l87 409h410l-88 -409l-36 -106q-56 -122 -148 -197q-129 -106 -312 -107q200 0 283 -61q69 -50 69 -158q0 -46 -12 -105.5 t-17 -84.5l-87 -410h-410l87 410l-264 204l-350 -204l-87 -410h-410zM261 1229l87 409h410l-88 -409h-409z" />
<glyph unicode="Y" horiz-adv-x="1638" d="M190 843q0 37 9 88q3 19 19 93h1024l130 614h410l-131 -614q-29 -136 -57 -197q-47 -102 -138 -152q-110 -61 -302 -61h-102l-130 -614h-409l130 614h-103q-198 0 -282 66q-68 54 -68 163zM261 1229l87 409h410l-88 -409h-409z" />
<glyph unicode="Z" horiz-adv-x="1638" d="M0 0l87 410l1095 819h-921l87 409h1434l-88 -409l-1094 -819h921l-87 -410h-1434z" />
<glyph unicode="[" horiz-adv-x="819" d="M0 0l348 1638h614l-87 -409h-205l-173 -819h205l-88 -410h-614z" />
<glyph unicode="\" horiz-adv-x="1638" d="M305 1434l248 204l924 -1433l-248 -205z" />
<glyph unicode="]" horiz-adv-x="819" d="M0 0l87 410h206l173 819h-205l87 409h614l-348 -1638h-614z" />
<glyph unicode="^" horiz-adv-x="1638" d="M218 1024l847 614l586 -614h-512l-161 205l-248 -205h-512z" />
<glyph unicode="_" horiz-adv-x="1638" d="M-43 -205l43 205h1638l-43 -205h-1638z" />
<glyph unicode="`" horiz-adv-x="614" d="M283 1331q0 113 52 203q60 104 153 104q94 0 153 -103q52 -90 52 -204q0 -112 -52 -201q-59 -102 -153 -103q-93 0 -152 102q-53 90 -53 202z" />
<glyph unicode="a" horiz-adv-x="1638" d="M0 0l218 1024h1024l43 205h-1024q30 138 57 197q47 102 138 152q108 60 296 60h6h614q198 0 282 -65q68 -54 68 -163q0 -40 -8 -88q-3 -20 -20 -93l-260 -1229h-410l130 614h-614l-130 -614h-410z" />
<glyph unicode="b" horiz-adv-x="1638" d="M0 0l218 1024h1024l43 205h-1024l87 409h1024q198 0 282 -65q68 -54 68 -163q0 -40 -8 -88q-3 -20 -20 -93q-29 -137 -52 -197q-41 -102 -112 -152q-86 -61 -229 -61q141 0 200 -57q50 -49 50 -147q0 -42 -9 -99q-7 -40 -21 -106q-30 -138 -57 -197q-47 -102 -138 -152 q-110 -61 -302 -61h-1024zM497 410h614l43 204h-614z" />
<glyph unicode="c" horiz-adv-x="1638" d="M60 229q0 40 8 88q3 20 19 93l131 614h409l-130 -614h614l43 204h410l-43 -204q-30 -138 -57 -197q-47 -102 -138 -152q-110 -61 -302 -61h-614q-198 0 -282 66q-68 54 -68 163zM261 1229q30 138 57 197q47 102 138 152q108 60 296 60h6h614q198 0 282 -65 q68 -54 68 -163q0 -40 -8 -88q-3 -20 -20 -93l-43 -205h-409l43 205h-1024z" />
<glyph unicode="d" horiz-adv-x="1638" d="M0 0l220 1034h410l-133 -624h614l174 819h-1024l87 409h1024q198 0 282 -65q68 -54 68 -163q0 -40 -8 -88q-3 -20 -20 -93l-173 -819q-30 -138 -57 -197q-47 -102 -138 -152q-110 -61 -302 -61h-1024z" />
<glyph unicode="e" horiz-adv-x="1638" d="M0 0l218 1024h1024l-88 -410h-614l-43 -204h1024l-87 -410h-1434zM261 1229l87 409h1434l-88 -409h-1433z" />
<glyph unicode="f" horiz-adv-x="1638" d="M0 0l218 1024h1024l-88 -410h-614l-130 -614h-410zM261 1229l87 409h1434l-88 -409h-1433z" />
<glyph unicode="g" horiz-adv-x="1638" d="M60 229q0 40 8 88q3 20 19 93l131 614h409l-130 -614h614l43 204h-409l87 410h410q198 0 281 -66q68 -54 68 -163q0 -40 -8 -88q-3 -20 -19 -93l-43 -204q-30 -138 -57 -197q-47 -102 -138 -152q-110 -61 -302 -61h-614q-198 0 -282 66q-68 54 -68 163zM261 1229 q30 138 57 197q47 102 138 152q108 60 296 60h6h614q198 0 282 -65q68 -54 68 -163q0 -40 -8 -88q-4 -20 -20 -93h-1433z" />
<glyph unicode="h" horiz-adv-x="1638" d="M0 0l218 1024h1024l130 614h410l-348 -1638h-410l130 614h-614l-130 -614h-410zM261 1229l87 409h410l-88 -409h-409z" />
<glyph unicode="i" horiz-adv-x="614" d="M0 0l218 1024h409l-217 -1024h-410zM261 1229l87 409h410l-88 -409h-409z" />
<glyph unicode="j" horiz-adv-x="1638" d="M60 229q0 40 8 88q3 20 19 93l43 204h410l-43 -204h614l261 1228h410l-261 -1228q-30 -138 -57 -197q-47 -102 -138 -152q-110 -61 -302 -61h-614q-198 0 -282 66q-68 54 -68 163z" />
<glyph unicode="k" horiz-adv-x="1638" d="M0 0l218 1024h409l643 614h512l-840 -819l492 -819h-512l-371 666l-141 -666h-410zM261 1229l87 409h410l-88 -409h-409z" />
<glyph unicode="l" horiz-adv-x="1638" d="M0 0l218 1024h409l-130 -614h1024l-87 -410h-1434zM261 1229l87 409h410l-88 -409h-409z" />
<glyph unicode="m" horiz-adv-x="1812" d="M0 0l218 1024h409l-217 -1024h-410zM261 1229q30 138 57 197q47 102 138 152q108 60 296 60h6h819q200 0 282 -60q69 -50 69 -159q0 -46 -12 -105.5t-17 -84.5l-261 -1229h-409l261 1229h-205l-218 -1024h-409l217 1024h-614z" />
<glyph unicode="n" horiz-adv-x="1638" d="M0 0l218 1024h409l-217 -1024h-410zM261 1229l87 409h1024q198 0 282 -65q68 -54 68 -163q0 -40 -8 -88q-3 -20 -20 -93l-260 -1229h-410l261 1229h-1024z" />
<glyph unicode="o" horiz-adv-x="1638" d="M60 229q0 40 8 88q3 20 19 93l131 614h409l-130 -614h614l174 819h-1024q30 138 57 197q47 102 138 152q108 60 296 60h6h614q198 0 282 -65q68 -54 68 -163q0 -40 -8 -88q-3 -20 -20 -93l-173 -819q-30 -138 -57 -197q-47 -102 -138 -152q-110 -61 -302 -61h-614 q-198 0 -282 66q-68 54 -68 163z" />
<glyph unicode="p" horiz-adv-x="1638" d="M0 0l218 1024h1024l43 205h-1024l87 409h1024q198 0 282 -65q68 -54 68 -163q0 -40 -8 -88q-3 -20 -20 -93l-43 -205q-33 -154 -60 -213q-46 -98 -137 -144q-106 -53 -300 -53h-614l-130 -614h-410z" />
<glyph unicode="q" horiz-adv-x="1638" d="M87 410l131 614h409l-109 -512q-3 -14 -3 -27q0 -46 42 -66q14 -6 42 -9h410q35 5 53 12q57 26 71 90l129 608q3 15 4 30q0 49 -42 68q-14 6 -42 11h-921q30 138 57 197q47 102 138 152q108 60 296 60h6h614q198 0 282 -65q68 -54 68 -163q0 -41 -8 -88q-3 -20 -20 -93 l-305 -1440h-410l45 211h-614q-186 0 -264 52q-80 53 -80 183q0 74 21 175z" />
<glyph unicode="r" horiz-adv-x="1638" d="M0 0l218 1024h921q35 5 54 13q57 26 70 89q3 14 3 28q0 46 -41 65q-14 6 -43 10h-921l87 409h1024q173 0 259 -89q75 -78 75 -211q0 -54 -12 -109l-42 -205q-28 -134 -53 -197q-41 -102 -112 -152q-86 -61 -230 -61q-35 -5 -54 -12q-57 -26 -70 -90q-3 -14 -3 -27 q0 -46 41 -66q14 -6 43 -9h307l-87 -410h-410q-198 0 -282 66q-68 54 -68 163q0 40 8 88q3 20 20 93l21 102q1 5 1.5 11t0.5 9q0 32 -14 52q-21 30 -69 30q-63 0 -100 -51q-12 -17 -24 -51l-108 -512h-410z" />
<glyph unicode="s" horiz-adv-x="1638" d="M60 229q0 40 8 88q3 20 19 93h1024l43 204h-614q-198 0 -282 66q-68 54 -68 163q0 37 9 88q3 19 19 93h1024q198 0 281 -66q68 -54 68 -163q0 -40 -8 -88q-3 -20 -19 -93l-43 -204q-30 -138 -57 -197q-47 -102 -138 -152q-110 -61 -302 -61h-614q-198 0 -282 66 q-68 54 -68 163zM261 1229q38 176 146 281q132 128 351 128h614q198 0 282 -65q68 -54 68 -163q0 -40 -8 -88q-4 -20 -20 -93h-1433z" />
<glyph unicode="t" horiz-adv-x="1638" d="M261 1229l87 409h1434l-88 -409h-512l-260 -1229h-410l259 1229h-510z" />
<glyph unicode="u" d="M60 229q0 40 8 88q3 20 19 93l131 614h409l-130 -614h614l261 1228h410l-261 -1228q-30 -138 -57 -197q-47 -102 -138 -152q-110 -61 -302 -61h-614q-198 0 -282 66q-68 54 -68 163zM261 1229l87 409h410l-88 -409h-409z" />
<glyph unicode="v" horiz-adv-x="1638" d="M130 614l88 410h409l-65 -307l242 -307l372 307l196 921h410l-218 -1024l-745 -614h-205zM261 1229l87 409h410l-88 -409h-409z" />
<glyph unicode="w" horiz-adv-x="1812" d="M60 229q0 40 8 88q3 20 19 93l131 614h409l-130 -614h205l217 1024h410l-218 -1024h205l261 1228h409l-260 -1228q-30 -138 -57 -197q-47 -102 -139 -152q-110 -61 -301 -61h-819q-198 0 -282 66q-68 54 -68 163zM261 1229l87 409h410l-88 -409h-409z" />
<glyph unicode="x" horiz-adv-x="1638" d="M0 0l87 410q18 53 38 105q57 122 148 198q129 106 311 106q-158 0 -249 39q-70 30 -100 83q-19 34 -19 70q0 5 0.5 8t1.5 5h409h307l351 205l87 409h410l-88 -409l-36 -106q-56 -122 -148 -197q-129 -106 -312 -107q200 0 283 -61q69 -50 69 -158q0 -46 -12 -105.5 t-17 -84.5l-87 -410h-410l87 410l-264 204l-350 -204l-87 -410h-410zM261 1229l87 409h410l-88 -409h-409z" />
<glyph unicode="y" horiz-adv-x="1638" d="M190 843q0 37 9 88q3 19 19 93h1024l130 614h410l-131 -614q-29 -136 -57 -197q-47 -102 -138 -152q-110 -61 -302 -61h-102l-130 -614h-409l130 614h-103q-198 0 -282 66q-68 54 -68 163zM261 1229l87 409h410l-88 -409h-409z" />
<glyph unicode="z" horiz-adv-x="1638" d="M0 0l87 410l1095 819h-921l87 409h1434l-88 -409l-1094 -819h921l-87 -410h-1434z" />
<glyph unicode="{" horiz-adv-x="1024" d="M174 819l248 205l44 205q30 138 56 197q47 102 139 152q110 61 301 60h205l-87 -409h-205l-173 -819h204l-87 -410h-205q-198 0 -281 66q-68 54 -68 163q0 40 8 88q3 20 19 93l43 204z" />
<glyph unicode="|" horiz-adv-x="614" d="M-43 -205l435 2048h410l-436 -2048h-409z" />
<glyph unicode="}" horiz-adv-x="1024" d="M0 0l87 410h205l174 819h-205l87 409h205q198 0 281 -65q68 -54 68 -163q0 -40 -8 -88q-3 -20 -19 -93l-43 -205l162 -205l-249 -205l-43 -204q-30 -138 -57 -197q-46 -101 -139 -152q-110 -61 -300 -61h-206z" />
<glyph unicode="~" horiz-adv-x="1433" d="M261 1229q30 138 57 197q47 102 138 152q110 61 302 60q199 0 282 -65q68 -54 68 -163q0 -40 -8 -88q-3 -20 -19 -93h409q-30 -138 -56 -197q-46 -101 -139 -152q-110 -61 -301 -61q-199 0 -282 66q-68 54 -68 164q0 39 8 88q2 16 18 92h-409z" />
<glyph unicode="&#xa1;" horiz-adv-x="684" d="M-62 -346q0 45 19 143l130 613q32 152 63 178q16 13 61.5 19.5t124.5 6.5q150 0 172 -26q3 -4 5.5 -15t2.5 -23q0 -38 -19 -140l-131 -613q-31 -148 -64 -179q-34 -26 -189 -25q-150 0 -170 25q-6 10 -5 36zM214 981q0 18 4 43q10 44 31 78t59 66q72 60 158 60 q84 0 132 -60q34 -43 33 -102q0 -18 -4 -42q-10 -44 -31 -78t-59 -66q-74 -60 -157 -60q-87 0 -133 60q-34 42 -33 101z" />
<glyph unicode="&#xa2;" d="M66 245q0 68 21 165l131 614h409l-87 -410q-21 -102 -21 -144q0 -26 7 -36q20 -25 176 -24h205q150 0 181 24t66 180h411l-43 -204q-49 -231 -159.5 -320.5t-338.5 -89.5h-98l-44 -203h-412l43 203h-103q-231 0 -300 90q-43 52 -44 155zM261 1229q49 226 158.5 317.5 t338.5 91.5h103l44 206h413l-44 -206h98q229 0 302 -88q42 -54 42 -156q0 -68 -21 -165l-43 -205h-410q19 91 19 138q0 30 -8 40q-20 26 -172 27h-820z" />
<glyph unicode="&#xa3;" d="M0 0q153 0 308 127q77 63 123.5 134t65.5 149l43 204h-204l87 410h204l43 205q49 230 158.5 319.5t339.5 89.5h204q230 0 301 -90q43 -52 43 -155q0 -69 -21 -164h-410q-153 0 -184 -26t-63 -179h204l-88 -410h-204l-43 -204h615l-88 -410h-614h-820z" />
<glyph unicode="&#xa4;" d="M66 307l310 256q-15 18 -26 44.5t-19 63.5q-5 29 -5 60q0 19 2.5 42.5t6.5 46.5q16 76 59 145q23 37 44.5 63t46.5 47l-202 256l249 205l201 -255q47 36 123 65t153 29q74 0 138.5 -28.5t98.5 -65.5l309 255l163 -205l-312 -256q15 -21 26 -47t18 -63q8 -33 8 -71 q0 -36 -7 -74q-17 -80 -62 -149t-91 -108l202 -256l-250 -205l-200 257q-112 -93 -276 -93q-163 0 -237 93l-310 -257zM629 761q0 -69 41 -123q60 -74 167 -75q105 0 197 75.5t114 181.5q6 26 6 54q0 71 -44 126q-60 75 -164 75q-105 0 -196 -74.5t-115 -180.5 q-3 -15 -4.5 -29.5t-1.5 -29.5z" />
<glyph unicode="&#xa5;" d="M190 410l43 204h410l-323 410h512l81 -102l372 307l87 409h410l-108 -511l-622 -513h410l-44 -204h-409l-22 -103h206l-44 -205h-206l-43 -202h-409l43 202h-205l44 205h205l22 103h-410zM261 1229l87 409h410l-88 -409h-409z" />
<glyph unicode="&#xa6;" horiz-adv-x="1272" d="M513 0l130 614h409l-130 -614h-409zM730 1024l131 614h409l-131 -614h-409z" />
<glyph unicode="&#xa7;" d="M-43 -204l87 410h410q74 0 98 101q2 10 3 24t1 15q0 64 -59 64q-231 0 -302 89q-40 52 -40 155q0 70 19 166l44 204q50 231 158 320.5t338 89.5h411l-87 -410h-411q-76 0 -98 -102q-5 -23 -5 -40q0 -62 60 -62q230 0 301 -90q42 -54 42 -158q0 -66 -20 -162l-87 -410 q-15 -74 -119 -139t-335 -65h-409zM820 0l87 410h409q76 0 98 101q5 23 4 41q0 62 -59 62q-231 0 -301 89q-41 53 -40 155q0 68 20 166l87 410q17 75 120 139.5t332 64.5h409l-87 -409h-409q-74 0 -99 -103q-5 -23 -5 -40q0 -62 60 -62q229 0 300 -90q42 -50 43 -154 q0 -73 -20 -166l-43 -204q-50 -231 -158.5 -320.5t-338.5 -89.5h-409z" />
<glyph unicode="&#xa8;" horiz-adv-x="1338" d="M707 1864q0 14 3 30q13 61 67.5 108t118.5 47q63 0 98 -46q26 -38 26 -79v-18q-2 -9 -3 -12q-14 -63 -70.5 -107.5t-115.5 -44.5q-66 0 -98 44q-26 33 -26 78zM1219 1861v20q2 10 3 13q7 30 23 57t45 52q55 46 117 46q59 0 100 -46q25 -38 25 -80q0 -15 -2 -29 q-14 -63 -68 -108q-30 -22 -60 -33t-60 -11q-62 0 -98 44q-25 32 -25 75z" />
<glyph unicode="&#xa9;" horiz-adv-x="1812" d="M155 642q0 85 19 178q72 338 364 578t630 240t528 -240q136 -174 136 -400q0 -85 -19 -178q-72 -339 -363 -580q-147 -121 -303.5 -180.5t-326.5 -59.5q-340 0 -529 240q-136 174 -136 402zM365 685q0 -168 102 -299q143 -180 397 -180q252 0 470.5 180t274.5 434 q7 35 11 68.5t4 64.5q0 167 -105 300q-143 182 -394 181q-254 0 -472.5 -180.5t-272.5 -433.5q-7 -36 -11 -69t-4 -66zM532 540q0 34 8 74l66 308h233l-43 -204q-10 -47 -10 -71q0 -17 4 -21q14 -12 101 -12h117q86 0 104 12q17 14 36 92h234l-23 -104q-24 -116 -84.5 -160 t-192.5 -44h-352q-130 0 -172 45q-26 26 -26 85zM627 1024q24 112 86 161q58 44 191 44h352q130 0 174 -44q13 -14 19 -34.5t6 -50.5q0 -14 -2.5 -34.5t-6.5 -41.5l-21 -102h-234q9 42 9 64q0 17 -6 24q-9 14 -99 14h-468z" />
<glyph unicode="&#xaa;" horiz-adv-x="1236" d="M482 820l108 511h513l22 102h-513q24 115 79 160q26 22 69 33.5t101 11.5h307q115 0 150 -44q21 -26 20 -78q0 -35 -9 -83l-131 -613h-204l65 307h-307l-65 -307h-205z" />
<glyph unicode="&#xab;" horiz-adv-x="1812" d="M174 820l1074 716l-66 -307l-598 -409l425 -410l-66 -308zM891 820l1074 716l-66 -307l-597 -409l424 -410l-66 -308z" />
<glyph unicode="&#xac;" d="M130 614l88 410h1434l-218 -1024h-410l130 614h-1024z" />
<glyph unicode="&#xad;" d="M130 614l88 410h1434l-87 -410h-1435z" />
<glyph unicode="&#xae;" horiz-adv-x="1812" d="M155 642q0 85 19 178q72 338 364 578t630 240t528 -240q136 -174 136 -400q0 -85 -19 -178q-72 -339 -363 -580q-147 -121 -303.5 -180.5t-326.5 -59.5q-340 0 -529 240q-136 174 -136 402zM365 685q0 -168 102 -299q143 -180 397 -180q252 0 470.5 180t274.5 434 q7 35 11 68.5t4 64.5q0 167 -105 300q-143 182 -394 181q-254 0 -472.5 -180.5t-272.5 -433.5q-7 -36 -11 -69t-4 -66zM497 410l109 512h526q42 0 51.5 6.5t17.5 45.5q4 18 4 32q0 7 -3.5 12.5t-47.5 5.5h-527l43 205h584q132 0 176 -44q13 -14 19 -34.5t6 -50.5 q0 -14 -2.5 -34.5t-6.5 -41.5l-21 -102q-25 -116 -86 -160t-193 -44l170 -308h-293l-168 308h-59l-66 -308h-233z" />
<glyph unicode="&#xaf;" horiz-adv-x="1812" d="M261 1229l87 409h1638l-87 -409h-1638z" />
<glyph unicode="&#xb0;" horiz-adv-x="1272" d="M838 1979q0 25 1 35.5t5 29.5q26 123 136 216t237 93q123 0 196 -93q52 -65 52 -152q-1 -28 -7 -64q-26 -126 -137 -216t-235 -90q-126 0 -197 89q-51 66 -51 152zM1017 2013q0 -36 22 -61q30 -38 84 -38q50 0 99 37t62 95q2 14 2 24q0 37 -23 68q-31 38 -84 38 q-54 0 -99.5 -37t-58.5 -93q-2 -14 -3 -18.5t-1 -14.5z" />
<glyph unicode="&#xb1;" horiz-adv-x="1428" d="M206 0l87 410h307l65 307h-307l87 410l308 1l65 306h408l-65 -307h307l-87 -410h-307l-65 -307h307l-87 -410h-1023z" />
<glyph unicode="&#xb2;" horiz-adv-x="1236" d="M482 820l43 204l587 358q6 22 6 36q0 4 -2 9q-6 6 -43 6h-461q24 115 79 160t170 45h305q114 0 152 -44q21 -26 20 -78q0 -35 -9 -83l-22 -102l-475 -307h410l-44 -204h-716z" />
<glyph unicode="&#xb3;" horiz-adv-x="1236" d="M515 941q0 35 10 83l21 103h206q-10 -50 -10 -74q0 -12 3 -16q10 -13 87 -13h102q76 0 90.5 11.5t33.5 91.5h-204l44 204h204q0 1 5 30t5 40q0 13 -5 19q-9 13 -85 13h-410q24 115 79 160t170 45h305q114 0 152 -44q21 -26 20 -78q0 -35 -9 -83l-87 -409 q-25 -118 -78.5 -161t-170.5 -43h-306q-114 0 -151 44q-21 26 -21 77z" />
<glyph unicode="&#xb4;" horiz-adv-x="1236" d="M780 1206q0 38 30 99q47 94 164 189q113 91 216 124q42 12 74 12q43 0 66 -25q14 -20 13 -47q1 -40 -29 -97q-28 -52 -68 -97.5t-97 -91.5q-106 -89 -216 -125q-42 -12 -73 -12q-45 0 -66 27q-14 18 -14 44z" />
<glyph unicode="&#xb5;" d="M-86 -408l304 1432h409l-87 -410q-21 -102 -21 -144q0 -26 7 -36q20 -25 176 -24h205q150 0 181 24t66 180l219 1026l409 -2l-260 -1228q-50 -231 -159.5 -320.5t-338.5 -89.5h-614l-87 -408h-409zM261 1229l87 409h410l-88 -409h-409z" />
<glyph unicode="&#xb6;" horiz-adv-x="1812" d="M198 858q0 70 20 166h614l43 205h-614q50 230 158 319.5t339 89.5h1228l-348 -1638h-409l261 1229h-205l-261 -1229h-410l131 614h-205q-232 0 -302 89q-40 52 -40 155z" />
<glyph unicode="&#xb7;" horiz-adv-x="1152" d="M682 774q0 22 5 46q18 84 90.5 144t156.5 60t132 -60q35 -42 35 -100q0 -21 -5 -44q-18 -85 -92 -145.5t-157 -60.5q-86 0 -133 60q-32 42 -32 100z" />
<glyph unicode="&#xb8;" horiz-adv-x="1896" d="M130 614l44 206h2049l-44 -206h-205l-21 -101h101l-43 -206h-101l-22 -101h205l-44 -206h-411l131 614h-1229l-130 -614h-204l130 614h-206zM643 614h204l15 -153l88 153h204l-218 -307l-66 -307h-208l66 307zM802 1844l43 205h1229l-44 -205h-716l-196 -922h-205 l196 922h-307zM1024 0l130 614h512l-86 -408h-307l-44 -206h-205zM1316 410h102l44 204h-103zM1323 922l175 820h204l-132 -615h308l-44 -205h-511z" />
<glyph unicode="&#xb9;" horiz-adv-x="1146" d="M818 1433q24 114 77 160q26 22 69 33.5t101 11.5h205l-44 -205h-204h-204zM891 820l109 511h205l-109 -511h-205z" />
<glyph unicode="&#xba;" horiz-adv-x="1236" d="M522 989v14.5t3 20.5l65 307h206l-44 -204l270 307h-410q17 75 95 139.5t154 64.5h307q75 0 126 -64q39 -47 39 -104q0 -16 -4 -36l-87 -410q-15 -75 -93.5 -139.5t-154.5 -64.5h-307q-78 0 -128 63q-38 48 -37 106zM832 1024l105 1q76 0 90 14q8 6 15.5 28t17.5 63 l43 201z" />
<glyph unicode="&#xbb;" horiz-adv-x="1812" d="M22 102l65 308l600 410l-426 409l65 307l770 -716zM739 102l66 308l598 410l-425 409l66 307l770 -716z" />
<glyph unicode="&#xbc;" horiz-adv-x="1812" d="M44 206l1533 1432l162 -204l-1533 -1434zM305 1433q24 115 78.5 160t168.5 45h206l-44 -205h-205h-204zM378 820l109 511h206l-109 -511h-206zM987 307l146 204h307l22 103h-256l145 204h359l-65 -307h102l-43 -204h-102l-66 -307h-205l66 307h-410z" />
<glyph unicode="&#xbd;" horiz-adv-x="1812" d="M44 206l1533 1432l162 -204l-1533 -1434zM305 1433q24 115 78.5 160t168.5 45h206l-44 -204l-205 -1h-204zM378 820l109 511h206l-109 -511h-206zM922 0l43 204l588 359q2 13 3.5 22t1.5 14q0 6 -2 8q-5 7 -43 7h-461q26 115 79 159.5t170 44.5h305q114 0 152 -43 q20 -27 20 -78q0 -35 -9 -83l-22 -103l-475 -307h410l-44 -204h-716z" />
<glyph unicode="&#xbe;" horiz-adv-x="1812" d="M208 940q0 34 10 84l21 103h206q-11 -54 -11 -74q0 -12 4 -16q9 -13 87 -13h102q76 0 90.5 11.5t32.5 91.5h-204l44 204h204q0 1 5.5 30t5.5 40q0 13 -5 19q-11 13 -86 13h-409q24 115 78.5 160t170.5 45h305q111 0 151 -44q20 -27 20 -80q0 -15 -2 -37t-6 -44l-88 -409 q-25 -118 -80.5 -161t-167.5 -43h-306q-114 0 -151 44q-21 25 -21 76zM250 206l1532 1432l161 -204l-1533 -1434zM987 307l146 204h307l22 103h-256l145 204h359l-65 -307h102l-43 -204h-102l-66 -307h-205l66 307h-410z" />
<glyph unicode="&#xbf;" d="M-20 -162q0 66 20 162l44 206q48 230 157.5 319t339.5 89h102h409q-25 -117 -63 -194.5t-92.5 -121t-138.5 -67t-196 -23.5l-108 -2q-21 -97 -20 -140q0 -29 8 -40q18 -26 172 -26h820q-48 -226 -156 -316.5t-340 -90.5h-614q-231 0 -302 88q-42 54 -42 157zM726 979 q0 21 4 45q10 44 31 78t60 66q74 60 157 60q86 0 133 -60q33 -42 33 -98q0 -22 -5 -46q-18 -85 -90 -144.5t-157 -59.5q-88 0 -131 60q-35 41 -35 99z" />
<glyph unicode="&#xc0;" d="M0 0l218 1024h1026l43 205h-1026q49 229 157 319t340 90h616q231 0 301 -88q39 -54 39 -156q0 -71 -19 -165l-261 -1229h-408l131 614h-616l-131 -614h-410zM857 2045q0 51 47 78q37 21 90 21q37 0 87.5 -11t101.5 -35t101 -62q94 -78 116 -153q6 -24 6 -37 q0 -50 -46 -76q-37 -22 -92 -22q-34 0 -83 10q-60 13 -109.5 37t-95.5 63q-46 34 -76 71.5t-42 78.5q-5 19 -5 37z" />
<glyph unicode="&#xc1;" d="M0 0l218 1024h1026l43 205h-1026q49 229 157 319t340 90h616q231 0 301 -88q39 -54 39 -156q0 -71 -19 -165l-261 -1229h-408l131 614h-616l-131 -614h-410zM806 1812q0 29 28 71q52 74 182 150.5t249 100.5q47 10 85 11q52 0 83 -22q22 -17 21 -42q1 -30 -28 -73 q-31 -41 -75.5 -77.5t-105.5 -72.5q-122 -71 -250 -100q-47 -10 -85 -10q-52 0 -84 22q-21 17 -20 42z" />
<glyph unicode="&#xc2;" d="M0 0l218 1024h1026l43 205h-1026q49 229 157 319t340 90h616q231 0 301 -88q39 -54 39 -156q0 -71 -19 -165l-261 -1229h-408l131 614h-616l-131 -614h-410zM678 1742l496 408l324 -408h-206l-162 204l-247 -204h-205z" />
<glyph unicode="&#xc3;" d="M0 0l218 1024h1026l43 205h-1026q49 229 157 319t340 90h616q231 0 301 -88q39 -54 39 -156q0 -71 -19 -165l-261 -1229h-408l131 614h-616l-131 -614h-410zM823 1946q12 57 31.5 96t48.5 64q52 43 170 44q111 0 149 -44q21 -27 21 -78q0 -35 -9 -82h204 q-24 -112 -78 -161q-54 -43 -170 -43q-114 0 -152 43q-21 26 -20 73q0 37 12 88h-207z" />
<glyph unicode="&#xc4;" d="M0 0l218 1024h1026l43 205h-1026q49 229 157 319t340 90h616q231 0 301 -88q39 -54 39 -156q0 -71 -19 -165l-261 -1229h-408l131 614h-616l-131 -614h-410zM707 1864q0 14 3 30q13 61 67.5 108t118.5 47q63 0 98 -46q26 -38 26 -79v-18q-2 -9 -3 -12 q-14 -63 -70.5 -107.5t-115.5 -44.5q-66 0 -98 44q-26 33 -26 78zM1219 1861v20q2 10 3 13q7 30 23 57t45 52q55 46 117 46q59 0 100 -46q25 -38 25 -80q0 -15 -2 -29q-14 -63 -68 -108q-30 -22 -60 -33t-60 -11q-62 0 -98 44q-25 32 -25 75z" />
<glyph unicode="&#xc5;" d="M0 0l218 1024h1026l43 205h-1026q49 229 157 319t340 90h616q231 0 301 -88q39 -54 39 -156q0 -71 -19 -165l-261 -1229h-408l131 614h-616l-131 -614h-410zM837 1978q0 30 7 66q26 123 136 216t237 93q123 0 196 -93q52 -65 52 -152q-1 -28 -7 -64q-27 -130 -137.5 -218 t-234.5 -88q-126 0 -197 89q-52 66 -52 151zM1017 2013q0 -36 22 -61q28 -38 84 -38q50 0 99 37t62 95q2 14 2 24q0 37 -23 68q-35 38 -84 38q-54 0 -101 -38q-43 -35 -57 -92q-2 -14 -3 -18.5t-1 -14.5z" />
<glyph unicode="&#xc6;" horiz-adv-x="1812" d="M0 0l218 1024h716l44 205h-717q50 230 158 319.5t339 89.5h1228l-87 -409h-511l-43 -205h307l-87 -410h-307l-44 -204h512l-88 -410h-921l130 614h-307l-130 -614h-410z" />
<glyph unicode="&#xc7;" d="M67 247q0 66 20 163l131 614h409l-87 -410q-18 -84 -18 -132q0 -34 9 -46q24 -26 171 -26h205q150 0 181 24t66 180h411l-43 -204q-50 -231 -159.5 -320.5t-338.5 -89.5h-102l-44 -204q-49 -229 -157.5 -319.5t-338.5 -90.5h-205l87 410h206l43 204h-103q-229 0 -300 89 q-42 54 -43 158zM261 1229q50 230 158 319.5t339 89.5h614q230 0 301 -90q42 -54 42 -157q0 -66 -20 -162l-43 -205h-410q20 98 20 139q0 28 -9 39q-20 26 -172 27h-820z" />
<glyph unicode="&#xc8;" d="M0 0l220 1034h1024l-90 -420h-614l-43 -204h1021l-88 -410h-1430zM261 1229l87 409h1430l-87 -409h-1430zM857 2045q0 51 47 78q37 21 90 21q37 0 87.5 -11t101.5 -35t101 -62q94 -78 116 -153q6 -24 6 -37q0 -50 -46 -76q-37 -22 -92 -22q-34 0 -83 10q-60 13 -109.5 37 t-95.5 63q-46 34 -76 71.5t-42 78.5q-5 19 -5 37z" />
<glyph unicode="&#xc9;" d="M0 0l220 1034h1024l-90 -420h-614l-43 -204h1021l-88 -410h-1430zM261 1229l87 409h1430l-87 -409h-1430zM806 1812q0 29 28 71q52 74 182 150.5t249 100.5q47 10 85 11q52 0 83 -22q22 -17 21 -42q1 -30 -28 -73q-31 -41 -75.5 -77.5t-105.5 -72.5q-122 -71 -250 -100 q-47 -10 -85 -10q-52 0 -84 22q-21 17 -20 42z" />
<glyph unicode="&#xca;" d="M0 0l220 1034h1024l-90 -420h-614l-43 -204h1021l-88 -410h-1430zM261 1229l87 409h1430l-87 -409h-1430zM678 1742l496 408l324 -408h-206l-162 204l-247 -204h-205z" />
<glyph unicode="&#xcb;" d="M0 0l218 1024h1024l-88 -410h-614l-43 -204h1021l-88 -410h-1430zM261 1229l87 409h1430l-87 -409h-1430zM707 1864q0 14 3 30q13 61 67.5 108t118.5 47q63 0 98 -46q26 -38 26 -79v-18q-2 -9 -3 -12q-14 -63 -70.5 -107.5t-115.5 -44.5q-66 0 -98 44q-26 33 -26 78z M1219 1861v20q2 10 3 13q7 30 23 57t45 52q55 46 117 46q59 0 100 -46q25 -38 25 -80q0 -15 -2 -29q-14 -63 -68 -108q-30 -22 -60 -33t-60 -11q-62 0 -98 44q-25 32 -25 75z" />
<glyph unicode="&#xcc;" horiz-adv-x="684" d="M0 0l220 1034h410l-220 -1034h-410zM243 2043q0 52 47 80q38 22 92 22q33 0 84.5 -11.5t102 -35.5t101.5 -62q94 -78 116 -153q6 -24 5 -37q0 -50 -45 -76q-37 -22 -92 -22q-34 0 -84 10q-115 26 -204 100q-46 34 -76 71.5t-42 78.5q-5 19 -5 35zM261 1229l87 409h410 l-88 -409h-409z" />
<glyph unicode="&#xcd;" horiz-adv-x="780" d="M0 0l220 1034h410l-220 -1034h-410zM261 1229l87 409h410l-88 -409h-409zM398 1811q0 30 28 72q49 74 180 153q127 73 248 98q47 10 87 11q53 0 81 -22q22 -17 23 -44q0 -29 -28 -71q-30 -41 -74.5 -77t-106.5 -73q-125 -71 -250 -100q-49 -10 -87 -10q-54 0 -82 22 q-19 17 -19 41z" />
<glyph unicode="&#xce;" horiz-adv-x="780" d="M0 0l220 1034h410l-220 -1034h-410zM166 1742l495 408l324 -408h-205l-162 204l-248 -204h-204zM261 1229l87 409h410l-88 -409h-409z" />
<glyph unicode="&#xcf;" horiz-adv-x="780" d="M0 0l218 1024h409l-217 -1024h-410zM195 1862q0 18 3 32q14 58 68 109q55 46 119 46q62 0 97 -46q25 -38 25 -80q0 -15 -2 -29q-14 -63 -68.5 -107.5t-116.5 -44.5q-66 0 -98 44q-26 31 -27 76zM261 1229l87 409h410l-88 -409h-409zM707 1863q0 14 3 31q14 60 68 107.5 t117 47.5t99 -46q26 -38 26 -79v-18q-2 -9 -3 -12q-14 -63 -70.5 -107.5t-116.5 -44.5q-64 0 -98 44q-25 30 -25 77z" />
<glyph unicode="&#xd0;" d="M-73 614l87 410h818l-87 -410l-203 5l-45 -209h416q148 0 178.5 25t62.5 179l90 420q18 86 18 128q0 29 -8 43q-24 24 -173 24h-820l87 409h1024q230 0 299 -88q40 -56 40 -156q0 -73 -20 -165l-173 -819q-49 -230 -157 -320t-337 -90h-1024l130 614h-203z" />
<glyph unicode="&#xd1;" d="M0 0l218 1024h409l-217 -1024h-410zM261 1229l87 409h614l236 -818l174 818h410l-348 -1638h-410l-354 1229h-409zM823 1946q12 57 31.5 96t48.5 64q52 43 170 44q111 0 149 -44q21 -27 21 -78q0 -35 -9 -82h204q-24 -112 -78 -161q-54 -43 -170 -43q-114 0 -152 43 q-21 26 -20 73q0 37 12 88h-207z" />
<glyph unicode="&#xd2;" d="M66 245q0 68 21 165l131 614h409l-87 -410q-21 -102 -21 -144q0 -26 7 -36q17 -25 176 -24h205q150 0 181 24t66 180l88 410q19 91 19 138q0 30 -8 40q-20 26 -172 27h-820q49 229 157 319t340 90h614q227 0 302 -88q42 -52 41 -156q0 -73 -20 -165l-173 -819 q-49 -231 -158.5 -320.5t-339.5 -89.5h-614q-231 0 -300 90q-43 52 -44 155zM857 2045q0 51 47 78q37 21 90 21q37 0 87.5 -11t101.5 -35t101 -62q94 -78 116 -153q6 -24 6 -37q0 -50 -46 -76q-37 -22 -92 -22q-34 0 -83 10q-60 13 -109.5 37t-95.5 63q-46 34 -76 71.5 t-42 78.5q-5 19 -5 37z" />
<glyph unicode="&#xd3;" d="M66 245q0 68 21 165l131 614h409l-87 -410q-21 -102 -21 -144q0 -26 7 -36q17 -25 176 -24h205q150 0 181 24t66 180l88 410q19 91 19 138q0 30 -8 40q-20 26 -172 27h-820q49 229 157 319t340 90h614q227 0 302 -88q42 -52 41 -156q0 -73 -20 -165l-173 -819 q-49 -231 -158.5 -320.5t-339.5 -89.5h-614q-231 0 -300 90q-43 52 -44 155zM806 1812q0 29 28 71q52 74 182 150.5t249 100.5q47 10 85 11q52 0 83 -22q22 -17 21 -42q1 -30 -28 -73q-31 -41 -75.5 -77.5t-105.5 -72.5q-122 -71 -250 -100q-47 -10 -85 -10q-52 0 -84 22 q-21 17 -20 42z" />
<glyph unicode="&#xd4;" d="M66 245q0 68 21 165l131 614h409l-87 -410q-21 -102 -21 -144q0 -26 7 -36q17 -25 176 -24h205q150 0 181 24t66 180l88 410q19 91 19 138q0 30 -8 40q-20 26 -172 27h-820q49 229 157 319t340 90h614q227 0 302 -88q42 -52 41 -156q0 -73 -20 -165l-173 -819 q-49 -231 -158.5 -320.5t-339.5 -89.5h-614q-231 0 -300 90q-43 52 -44 155zM678 1742l496 408l324 -408h-206l-162 204l-247 -204h-205z" />
<glyph unicode="&#xd5;" d="M66 245q0 68 21 165l131 614h409l-87 -410q-21 -99 -21 -144q0 -26 7 -36q17 -25 176 -24h205q150 0 181 24t66 180l88 410q19 91 19 138q0 30 -8 40q-20 26 -172 27h-820q49 229 157 319t340 90h614q227 0 302 -88q42 -52 41 -156q0 -73 -20 -165l-173 -819 q-49 -231 -158.5 -320.5t-339.5 -89.5h-614q-231 0 -300 90q-43 52 -44 155zM823 1946q12 57 31.5 96t48.5 64q52 43 170 44q111 0 149 -44q21 -27 21 -78q0 -35 -9 -82h204q-24 -112 -78 -161q-54 -43 -170 -43q-114 0 -152 43q-21 26 -20 73q0 37 12 88h-207z" />
<glyph unicode="&#xd6;" d="M66 245q0 68 21 165l131 614h409l-87 -410q-21 -102 -21 -144q0 -26 7 -36q17 -25 176 -24h205q150 0 181 24t66 180l88 410q19 91 19 138q0 30 -8 40q-20 26 -172 27h-820q49 229 157 319t340 90h614q227 0 302 -88q42 -52 41 -156q0 -73 -20 -165l-173 -819 q-49 -231 -158.5 -320.5t-339.5 -89.5h-614q-231 0 -300 90q-43 52 -44 155zM707 1864q0 14 3 30q13 61 67.5 108t118.5 47q63 0 98 -46q26 -38 26 -79v-18q-2 -9 -3 -12q-14 -63 -70.5 -107.5t-115.5 -44.5q-66 0 -98 44q-26 33 -26 78zM1219 1861v20q2 10 3 13q7 30 23 57 t45 52q55 46 117 46q59 0 100 -46q25 -38 25 -80q0 -15 -2 -29q-14 -63 -68 -108q-30 -22 -60 -33t-60 -11q-62 0 -98 44q-25 32 -25 75z" />
<glyph unicode="&#xd7;" horiz-adv-x="1428" d="M338 602l264 218l-172 217l351 289l172 -217l262 217l229 -289l-264 -217l172 -218l-352 -290l-170 218l-264 -218z" />
<glyph unicode="&#xd8;" d="M66 245q0 68 21 165l131 614h409l-87 -410l541 615h-820q49 229 157 319t340 90h614q228 0 302 -88q42 -52 41 -156q0 -73 -20 -165l-173 -819q-49 -231 -158.5 -320.5t-339.5 -89.5h-614q-231 0 -300 90q-43 52 -44 155zM702 410h205q150 0 181 24t66 180l88 410z" />
<glyph unicode="&#xd9;" d="M66 245q0 68 21 165l131 614h409l-87 -410q-21 -99 -21 -144q0 -26 7 -36q17 -25 176 -24h205q150 0 181 24t66 180l218 1024h410l-260 -1228q-49 -231 -158.5 -320.5t-339.5 -89.5h-614q-231 0 -300 90q-43 52 -44 155zM261 1229l87 409h410l-88 -409h-409zM857 2045 q0 51 47 78q37 21 90 21q37 0 87.5 -11t101.5 -35t101 -62q94 -78 116 -153q6 -24 6 -37q0 -50 -46 -76q-37 -22 -92 -22q-34 0 -83 10q-60 13 -109.5 37t-95.5 63q-46 34 -76 71.5t-42 78.5q-5 19 -5 37z" />
<glyph unicode="&#xda;" d="M66 245q0 68 21 165l131 614h409l-87 -410q-21 -99 -21 -144q0 -26 7 -36q17 -25 176 -24h205q150 0 181 24t66 180l218 1024h410l-260 -1228q-49 -231 -158.5 -320.5t-339.5 -89.5h-614q-231 0 -300 90q-43 52 -44 155zM261 1229l87 409h410l-88 -409h-409zM806 1812 q0 29 28 71q52 74 182 150.5t249 100.5q47 10 85 11q52 0 83 -22q22 -17 21 -42q1 -30 -28 -73q-31 -41 -75.5 -77.5t-105.5 -72.5q-122 -71 -250 -100q-47 -10 -85 -10q-52 0 -84 22q-21 17 -20 42z" />
<glyph unicode="&#xdb;" d="M66 245q0 68 21 165l131 614h409l-87 -410q-21 -102 -21 -144q0 -26 7 -36q17 -25 176 -24h205q150 0 181 24t66 180l218 1024h410l-260 -1228q-49 -231 -158.5 -320.5t-339.5 -89.5h-614q-231 0 -300 90q-43 52 -44 155zM261 1229l87 409h410l-88 -409h-409zM678 1742 l496 408l324 -408h-206l-162 204l-247 -204h-205z" />
<glyph unicode="&#xdc;" d="M66 245q0 68 21 165l131 614h409l-87 -410q-21 -102 -21 -144q0 -26 7 -36q17 -25 176 -24h205q150 0 181 24t66 180l218 1024h410l-260 -1228q-49 -231 -158.5 -320.5t-339.5 -89.5h-614q-231 0 -300 90q-43 52 -44 155zM261 1229l87 409h410l-88 -409h-409zM707 1864 q0 14 3 30q13 61 67.5 108t118.5 47q63 0 98 -46q26 -38 26 -79v-18q-2 -9 -3 -12q-14 -63 -70.5 -107.5t-115.5 -44.5q-66 0 -98 44q-26 33 -26 78zM1219 1861v20q2 10 3 13q7 30 23 57t45 52q55 46 117 46q59 0 100 -46q25 -38 25 -80q0 -15 -2 -29q-14 -63 -68 -108 q-30 -22 -60 -33t-60 -11q-62 0 -98 44q-25 32 -25 75z" />
<glyph unicode="&#xdd;" d="M261 1229l87 409h410l-88 -409h-409zM320 1024h512l81 -102l372 307l87 409h410l-108 -511l-622 -513l-130 -614h-409l130 614zM806 1812q0 29 28 71q52 74 182 150.5t249 100.5q47 10 85 11q52 0 83 -22q22 -17 21 -42q1 -30 -28 -73q-31 -41 -75.5 -77.5t-105.5 -72.5 q-122 -71 -250 -100q-47 -10 -85 -10q-52 0 -84 22q-21 17 -20 42z" />
<glyph unicode="&#xde;" d="M0 0l348 1638h410l-65 -307h614q230 0 301 -90q42 -54 42 -156q0 -66 -20 -163l-44 -205q-48 -230 -158 -320t-338 -90h-615l-65 -307h-410zM562 717h512q76 0 90 11t34 92q10 46 10 69q0 14 -5 20q-9 13 -85 13h-512z" />
<glyph unicode="&#xdf;" d="M0 0l218 1024h409l-217 -1024h-410zM261 1229q50 230 158 319.5t339 89.5h612q230 0 298 -90q42 -52 42 -159q0 -33 -5 -74t-14 -86q-46 -229 -152 -320q-102 -89 -341 -89q230 0 298 -90q40 -54 40 -157q0 -69 -18 -163q-32 -153 -148 -283q-118 -127 -346 -127h-102 q-231 0 -301 89q-41 53 -41 154q0 68 20 167h409q76 0 90 11t34 92q10 46 9 68q0 16 -4 21q-10 13 -86 12h-307l87 410h307q80 0 94 15t33 100q7 38 8 57q0 14 -5 20q-10 13 -87 13h-921z" />
<glyph unicode="&#xe0;" d="M0 0l218 1024h1026l43 205h-1026q49 229 157 319t340 90h616q231 0 301 -88q39 -54 39 -156q0 -71 -19 -165l-261 -1229h-408l131 614h-616l-131 -614h-410zM857 2045q0 51 47 78q37 21 90 21q37 0 87.5 -11t101.5 -35t101 -62q94 -78 116 -153q6 -24 6 -37 q0 -50 -46 -76q-37 -22 -92 -22q-34 0 -83 10q-60 13 -109.5 37t-95.5 63q-46 34 -76 71.5t-42 78.5q-5 19 -5 37z" />
<glyph unicode="&#xe1;" d="M0 0l218 1024h1026l43 205h-1026q49 229 157 319t340 90h616q231 0 301 -88q39 -54 39 -156q0 -71 -19 -165l-261 -1229h-408l131 614h-616l-131 -614h-410zM806 1812q0 29 28 71q52 74 182 150.5t249 100.5q47 10 85 11q52 0 83 -22q22 -17 21 -42q1 -30 -28 -73 q-31 -41 -75.5 -77.5t-105.5 -72.5q-122 -71 -250 -100q-47 -10 -85 -10q-52 0 -84 22q-21 17 -20 42z" />
<glyph unicode="&#xe2;" d="M0 0l218 1024h1026l43 205h-1026q49 229 157 319t340 90h616q231 0 301 -88q39 -54 39 -156q0 -71 -19 -165l-261 -1229h-408l131 614h-616l-131 -614h-410zM678 1742l496 408l324 -408h-206l-162 204l-247 -204h-205z" />
<glyph unicode="&#xe3;" d="M0 0l218 1024h1026l43 205h-1026q49 229 157 319t340 90h616q231 0 301 -88q39 -54 39 -156q0 -71 -19 -165l-261 -1229h-408l131 614h-616l-131 -614h-410zM823 1946q12 57 31.5 96t48.5 64q52 43 170 44q111 0 149 -44q21 -27 21 -78q0 -35 -9 -82h204 q-24 -112 -78 -161q-54 -43 -170 -43q-114 0 -152 43q-21 26 -20 73q0 37 12 88h-207z" />
<glyph unicode="&#xe4;" d="M0 0l218 1024h1026l43 205h-1026q49 229 157 319t340 90h616q231 0 301 -88q39 -54 39 -156q0 -71 -19 -165l-261 -1229h-408l131 614h-616l-131 -614h-410zM707 1864q0 14 3 30q13 61 67.5 108t118.5 47q63 0 98 -46q26 -38 26 -79v-18q-2 -9 -3 -12 q-14 -63 -70.5 -107.5t-115.5 -44.5q-66 0 -98 44q-26 33 -26 78zM1219 1861v20q2 10 3 13q7 30 23 57t45 52q55 46 117 46q59 0 100 -46q25 -38 25 -80q0 -15 -2 -29q-14 -63 -68 -108q-30 -22 -60 -33t-60 -11q-62 0 -98 44q-25 32 -25 75z" />
<glyph unicode="&#xe5;" d="M0 0l218 1024h1026l43 205h-1026q49 229 157 319t340 90h616q231 0 301 -88q39 -54 39 -156q0 -71 -19 -165l-261 -1229h-408l131 614h-616l-131 -614h-410zM837 1978q0 30 7 66q26 123 136 216t237 93q123 0 196 -93q52 -65 52 -152q-1 -28 -7 -64q-27 -130 -137.5 -218 t-234.5 -88q-126 0 -197 89q-52 66 -52 151zM1017 2013q0 -36 22 -61q28 -38 84 -38q50 0 99 37t62 95q2 14 2 24q0 37 -23 68q-35 38 -84 38q-54 0 -101 -38q-43 -35 -57 -92q-2 -14 -3 -18.5t-1 -14.5z" />
<glyph unicode="&#xe6;" horiz-adv-x="1812" d="M0 0l218 1024h716l44 205h-717q50 230 158 319.5t339 89.5h1228l-87 -409h-511l-43 -205h307l-87 -410h-307l-44 -204h512l-88 -410h-921l130 614h-307l-130 -614h-410z" />
<glyph unicode="&#xe7;" d="M67 247q0 66 20 163l131 614h409l-87 -410q-18 -84 -18 -132q0 -34 9 -46q24 -26 171 -26h205q150 0 181 24t66 180h411l-43 -204q-50 -231 -159.5 -320.5t-338.5 -89.5h-102l-44 -204q-49 -229 -157.5 -319.5t-338.5 -90.5h-205l87 410h206l43 204h-103q-229 0 -300 89 q-42 54 -43 158zM261 1229q50 230 158 319.5t339 89.5h614q230 0 301 -90q42 -54 42 -157q0 -66 -20 -162l-43 -205h-410q20 98 20 139q0 28 -9 39q-20 26 -172 27h-820z" />
<glyph unicode="&#xe8;" d="M0 0l220 1034h1024l-90 -420h-614l-43 -204h1021l-88 -410h-1430zM261 1229l87 409h1430l-87 -409h-1430zM857 2045q0 51 47 78q37 21 90 21q37 0 87.5 -11t101.5 -35t101 -62q94 -78 116 -153q6 -24 6 -37q0 -50 -46 -76q-37 -22 -92 -22q-34 0 -83 10q-60 13 -109.5 37 t-95.5 63q-46 34 -76 71.5t-42 78.5q-5 19 -5 37z" />
<glyph unicode="&#xe9;" d="M0 0l220 1034h1024l-90 -420h-614l-43 -204h1021l-88 -410h-1430zM261 1229l87 409h1430l-87 -409h-1430zM806 1812q0 29 28 71q52 74 182 150.5t249 100.5q47 10 85 11q52 0 83 -22q22 -17 21 -42q1 -30 -28 -73q-31 -41 -75.5 -77.5t-105.5 -72.5q-122 -71 -250 -100 q-47 -10 -85 -10q-52 0 -84 22q-21 17 -20 42z" />
<glyph unicode="&#xea;" d="M0 0l220 1034h1024l-90 -420h-614l-43 -204h1021l-88 -410h-1430zM261 1229l87 409h1430l-87 -409h-1430zM678 1742l496 408l324 -408h-206l-162 204l-247 -204h-205z" />
<glyph unicode="&#xeb;" d="M0 0l218 1024h1024l-88 -410h-614l-43 -204h1021l-88 -410h-1430zM261 1229l87 409h1430l-87 -409h-1430zM707 1864q0 14 3 30q13 61 67.5 108t118.5 47q63 0 98 -46q26 -38 26 -79v-18q-2 -9 -3 -12q-14 -63 -70.5 -107.5t-115.5 -44.5q-66 0 -98 44q-26 33 -26 78z M1219 1861v20q2 10 3 13q7 30 23 57t45 52q55 46 117 46q59 0 100 -46q25 -38 25 -80q0 -15 -2 -29q-14 -63 -68 -108q-30 -22 -60 -33t-60 -11q-62 0 -98 44q-25 32 -25 75z" />
<glyph unicode="&#xec;" horiz-adv-x="684" d="M0 0l220 1034h410l-220 -1034h-410zM243 2043q0 52 47 80q38 22 92 22q33 0 84.5 -11.5t102 -35.5t101.5 -62q94 -78 116 -153q6 -24 5 -37q0 -50 -45 -76q-37 -22 -92 -22q-34 0 -84 10q-115 26 -204 100q-46 34 -76 71.5t-42 78.5q-5 19 -5 35zM261 1229l87 409h410 l-88 -409h-409z" />
<glyph unicode="&#xed;" horiz-adv-x="780" d="M0 0l220 1034h410l-220 -1034h-410zM261 1229l87 409h410l-88 -409h-409zM398 1811q0 30 28 72q49 74 180 153q127 73 248 98q47 10 87 11q53 0 81 -22q22 -17 23 -44q0 -29 -28 -71q-30 -41 -74.5 -77t-106.5 -73q-125 -71 -250 -100q-49 -10 -87 -10q-54 0 -82 22 q-19 17 -19 41z" />
<glyph unicode="&#xee;" horiz-adv-x="780" d="M0 0l220 1034h410l-220 -1034h-410zM166 1742l495 408l324 -408h-205l-162 204l-248 -204h-204zM261 1229l87 409h410l-88 -409h-409z" />
<glyph unicode="&#xef;" horiz-adv-x="780" d="M0 0l218 1024h409l-217 -1024h-410zM195 1862q0 18 3 32q14 58 68 109q55 46 119 46q62 0 97 -46q25 -38 25 -80q0 -15 -2 -29q-14 -63 -68.5 -107.5t-116.5 -44.5q-66 0 -98 44q-26 31 -27 76zM261 1229l87 409h410l-88 -409h-409zM707 1863q0 14 3 31q14 60 68 107.5 t117 47.5t99 -46q26 -38 26 -79v-18q-2 -9 -3 -12q-14 -63 -70.5 -107.5t-116.5 -44.5q-64 0 -98 44q-25 30 -25 77z" />
<glyph unicode="&#xf0;" d="M-74 614l88 410h818l-87 -410l-203 5l-45 -209h416q148 0 178.5 25t62.5 179l90 420q8 39 13 73.5t5 54.5q0 28 -8 43q-24 24 -173 24h-820l87 409h1024q230 0 299 -88q40 -56 40 -156q0 -73 -20 -165l-173 -819q-49 -230 -157 -320t-337 -90h-1024l130 614h-204z" />
<glyph unicode="&#xf1;" d="M0 0l218 1024h409l-217 -1024h-410zM261 1229l87 409h614l236 -818l174 818h410l-348 -1638h-410l-354 1229h-409zM823 1946q12 57 31.5 96t48.5 64q52 43 170 44q111 0 149 -44q21 -27 21 -78q0 -35 -9 -82h204q-24 -112 -78 -161q-54 -43 -170 -43q-114 0 -152 43 q-21 26 -20 73q0 37 12 88h-207z" />
<glyph unicode="&#xf2;" d="M66 245q0 68 21 165l131 614h409l-87 -410q-21 -102 -21 -144q0 -26 7 -36q17 -25 176 -24h205q150 0 181 24t66 180l88 410q19 91 19 138q0 30 -8 40q-20 26 -172 27h-820q49 229 157 319t340 90h614q227 0 302 -88q42 -52 41 -156q0 -73 -20 -165l-173 -819 q-49 -231 -158.5 -320.5t-339.5 -89.5h-614q-231 0 -300 90q-43 52 -44 155zM857 2045q0 51 47 78q37 21 90 21q37 0 87.5 -11t101.5 -35t101 -62q94 -78 116 -153q6 -24 6 -37q0 -50 -46 -76q-37 -22 -92 -22q-34 0 -83 10q-60 13 -109.5 37t-95.5 63q-46 34 -76 71.5 t-42 78.5q-5 19 -5 37z" />
<glyph unicode="&#xf3;" d="M66 245q0 68 21 165l131 614h409l-87 -410q-21 -102 -21 -144q0 -26 7 -36q17 -25 176 -24h205q150 0 181 24t66 180l88 410q19 91 19 138q0 30 -8 40q-20 26 -172 27h-820q49 229 157 319t340 90h614q227 0 302 -88q42 -52 41 -156q0 -73 -20 -165l-173 -819 q-49 -231 -158.5 -320.5t-339.5 -89.5h-614q-231 0 -300 90q-43 52 -44 155zM806 1812q0 29 28 71q52 74 182 150.5t249 100.5q47 10 85 11q52 0 83 -22q22 -17 21 -42q1 -30 -28 -73q-31 -41 -75.5 -77.5t-105.5 -72.5q-122 -71 -250 -100q-47 -10 -85 -10q-52 0 -84 22 q-21 17 -20 42z" />
<glyph unicode="&#xf4;" d="M66 245q0 68 21 165l131 614h409l-87 -410q-21 -102 -21 -144q0 -26 7 -36q17 -25 176 -24h205q150 0 181 24t66 180l88 410q19 91 19 138q0 30 -8 40q-20 26 -172 27h-820q49 229 157 319t340 90h614q227 0 302 -88q42 -52 41 -156q0 -73 -20 -165l-173 -819 q-49 -231 -158.5 -320.5t-339.5 -89.5h-614q-231 0 -300 90q-43 52 -44 155zM678 1742l496 408l324 -408h-206l-162 204l-247 -204h-205z" />
<glyph unicode="&#xf5;" d="M66 245q0 68 21 165l131 614h409l-87 -410q-21 -99 -21 -144q0 -26 7 -36q17 -25 176 -24h205q150 0 181 24t66 180l88 410q19 91 19 138q0 30 -8 40q-20 26 -172 27h-820q49 229 157 319t340 90h614q227 0 302 -88q42 -52 41 -156q0 -73 -20 -165l-173 -819 q-49 -231 -158.5 -320.5t-339.5 -89.5h-614q-231 0 -300 90q-43 52 -44 155zM823 1946q12 57 31.5 96t48.5 64q52 43 170 44q111 0 149 -44q21 -27 21 -78q0 -35 -9 -82h204q-24 -112 -78 -161q-54 -43 -170 -43q-114 0 -152 43q-21 26 -20 73q0 37 12 88h-207z" />
<glyph unicode="&#xf6;" d="M66 245q0 68 21 165l131 614h409l-87 -410q-21 -102 -21 -144q0 -26 7 -36q17 -25 176 -24h205q150 0 181 24t66 180l88 410q19 91 19 138q0 30 -8 40q-20 26 -172 27h-820q49 229 157 319t340 90h614q227 0 302 -88q42 -52 41 -156q0 -73 -20 -165l-173 -819 q-49 -231 -158.5 -320.5t-339.5 -89.5h-614q-231 0 -300 90q-43 52 -44 155zM707 1864q0 14 3 30q13 61 67.5 108t118.5 47q63 0 98 -46q26 -38 26 -79v-18q-2 -9 -3 -12q-14 -63 -70.5 -107.5t-115.5 -44.5q-66 0 -98 44q-26 33 -26 78zM1219 1861v20q2 10 3 13q7 30 23 57 t45 52q55 46 117 46q59 0 100 -46q25 -38 25 -80q0 -15 -2 -29q-14 -63 -68 -108q-30 -22 -60 -33t-60 -11q-62 0 -98 44q-25 32 -25 75z" />
<glyph unicode="&#xf7;" horiz-adv-x="1428" d="M336 614l87 411h1023l-87 -411h-1023zM574 262q0 22 4 45q17 83 90 144.5t158 61.5q83 0 131 -62q35 -44 35 -100q0 -21 -5 -44q-18 -84 -91 -144.5t-158 -60.5q-86 0 -132 60q-32 42 -32 100zM791 1286q0 22 5 45q17 83 89.5 144t157.5 61q83 0 131 -61q35 -45 36 -101 q0 -20 -5 -43q-18 -85 -91.5 -144.5t-157.5 -59.5t-133 59q-32 42 -32 100z" />
<glyph unicode="&#xf8;" d="M66 245q0 68 21 165l131 614h409l-87 -410l541 615h-820q49 229 157 319t340 90h614q228 0 302 -88q42 -52 41 -156q0 -73 -20 -165l-173 -819q-49 -231 -158.5 -320.5t-339.5 -89.5h-614q-231 0 -300 90q-43 52 -44 155zM702 410h205q150 0 181 24t66 180l88 410z" />
<glyph unicode="&#xf9;" d="M66 245q0 68 21 165l131 614h409l-87 -410q-21 -102 -21 -144q0 -26 7 -36q17 -25 176 -24h205q150 0 181 24t66 180l218 1024h410l-260 -1228q-49 -231 -158.5 -320.5t-339.5 -89.5h-614q-231 0 -300 90q-43 52 -44 155zM261 1229l87 409h410l-88 -409h-409zM857 2045 q0 51 47 78q37 21 90 21q37 0 87.5 -11t101.5 -35t101 -62q94 -78 116 -153q6 -24 6 -37q0 -50 -46 -76q-37 -22 -92 -22q-34 0 -83 10q-60 13 -109.5 37t-95.5 63q-46 34 -76 71.5t-42 78.5q-5 19 -5 37z" />
<glyph unicode="&#xfa;" d="M66 245q0 68 21 165l131 614h409l-87 -410q-21 -99 -21 -144q0 -26 7 -36q17 -25 176 -24h205q150 0 181 24t66 180l218 1024h410l-260 -1228q-49 -231 -158.5 -320.5t-339.5 -89.5h-614q-231 0 -300 90q-43 52 -44 155zM261 1229l87 409h410l-88 -409h-409zM857 2045 q0 51 47 78q37 21 90 21q37 0 87.5 -11t101.5 -35t101 -62q94 -78 116 -153q6 -24 6 -37q0 -50 -46 -76q-37 -22 -92 -22q-34 0 -83 10q-60 13 -109.5 37t-95.5 63q-46 34 -76 71.5t-42 78.5q-5 19 -5 37z" />
<glyph unicode="&#xfb;" d="M66 245q0 68 21 165l131 614h409l-87 -410q-21 -102 -21 -144q0 -26 7 -36q17 -25 176 -24h205q150 0 181 24t66 180l218 1024h410l-260 -1228q-49 -231 -158.5 -320.5t-339.5 -89.5h-614q-231 0 -300 90q-43 52 -44 155zM261 1229l87 409h410l-88 -409h-409zM678 1742 l496 408l324 -408h-206l-162 204l-247 -204h-205z" />
<glyph unicode="&#xfc;" d="M66 245q0 68 21 165l131 614h409l-87 -410q-21 -102 -21 -144q0 -26 7 -36q17 -25 176 -24h205q150 0 181 24t66 180l218 1024h410l-260 -1228q-49 -231 -158.5 -320.5t-339.5 -89.5h-614q-231 0 -300 90q-43 52 -44 155zM261 1229l87 409h410l-88 -409h-409zM707 1864 q0 14 3 30q13 61 67.5 108t118.5 47q63 0 98 -46q26 -38 26 -79v-18q-2 -9 -3 -12q-14 -63 -70.5 -107.5t-115.5 -44.5q-66 0 -98 44q-26 33 -26 78zM1219 1861v20q2 10 3 13q7 30 23 57t45 52q55 46 117 46q59 0 100 -46q25 -38 25 -80q0 -15 -2 -29q-14 -63 -68 -108 q-30 -22 -60 -33t-60 -11q-62 0 -98 44q-25 32 -25 75z" />
<glyph unicode="&#xfd;" d="M261 1229l87 409h410l-88 -409h-409zM320 1024h512l81 -102l372 307l87 409h410l-108 -511l-622 -513l-130 -614h-409l130 614zM806 1812q0 29 28 71q52 74 182 150.5t249 100.5q47 10 85 11q52 0 83 -22q22 -17 21 -42q1 -30 -28 -73q-31 -41 -75.5 -77.5t-105.5 -72.5 q-122 -71 -250 -100q-47 -10 -85 -10q-52 0 -84 22q-21 17 -20 42z" />
<glyph unicode="&#xfe;" d="M0 0l348 1638h410l-65 -307h614q230 0 301 -90q42 -54 42 -156q0 -66 -20 -163l-44 -205q-48 -230 -158 -320t-338 -90h-615l-65 -307h-410zM562 717h512q76 0 90 11t34 92q10 46 10 69q0 14 -5 20q-9 13 -85 13h-512z" />
<glyph unicode="&#xff;" d="M261 1229l87 409h410l-88 -409h-409zM320 1024h512l81 -102l372 307l87 409h410l-108 -511l-622 -513l-130 -614h-409l130 614zM707 1864q0 14 3 30q13 61 67.5 108t118.5 47q63 0 98 -46q26 -38 26 -79v-18q-2 -9 -3 -12q-14 -63 -70.5 -107.5t-115.5 -44.5 q-66 0 -98 44q-26 33 -26 78zM1219 1861v20q2 10 3 13q7 30 23 57t45 52q55 46 117 46q59 0 100 -46q25 -38 25 -80q0 -15 -2 -29q-14 -63 -68 -108q-30 -22 -60 -33t-60 -11q-62 0 -98 44q-25 32 -25 75z" />
<glyph unicode="&#x152;" horiz-adv-x="1812" d="M68 244q0 70 19 166l174 819q50 230 158 319.5t339 89.5h1228l-87 -409h-614l-43 -205h410l-87 -410h-411l-43 -204h615l-88 -410h-614h-614q-232 0 -302 89q-40 52 -40 155zM519 470q0 -26 7 -36q21 -24 176 -24l173 819q-156 0 -186 -26t-62 -179l-87 -410 q-21 -102 -21 -144z" />
<glyph unicode="&#x153;" horiz-adv-x="1812" d="M68 244q0 70 19 166l174 819q50 230 158 319.5t339 89.5h1228l-87 -409h-614l-43 -205h410l-87 -410h-411l-43 -204h615l-88 -410h-614h-614q-232 0 -302 89q-40 52 -40 155zM519 470q0 -26 7 -36q21 -24 176 -24l173 819q-156 0 -186 -26t-62 -179l-87 -410 q-21 -102 -21 -144z" />
<glyph unicode="&#x178;" d="M261 1229l87 409h410l-88 -409h-409zM320 1024h512l81 -102l372 307l87 409h410l-108 -511l-622 -513l-130 -614h-409l130 614zM707 1864q0 14 3 30q13 61 67.5 108t118.5 47q63 0 98 -46q26 -38 26 -79v-18q-2 -9 -3 -12q-14 -63 -70.5 -107.5t-115.5 -44.5 q-66 0 -98 44q-26 33 -26 78zM1219 1861v20q2 10 3 13q7 30 23 57t45 52q55 46 117 46q59 0 100 -46q25 -38 25 -80q0 -15 -2 -29q-14 -63 -68 -108q-30 -22 -60 -33t-60 -11q-62 0 -98 44q-25 32 -25 75z" />
<glyph unicode="&#x2c6;" horiz-adv-x="1464" d="M568 1229l497 409l323 -409h-206l-160 205l-248 -205h-206z" />
<glyph unicode="&#x2dc;" horiz-adv-x="1272" d="M714 1433q24 115 79 160t169 45q111 0 151 -44q22 -26 21 -79q0 -35 -9 -82h204q-24 -114 -79 -159q-26 -22 -69 -33.5t-100 -11.5q-114 0 -151 45q-21 26 -21 73q0 36 12 86h-207z" />
<glyph unicode="&#x2000;" horiz-adv-x="1176" />
<glyph unicode="&#x2001;" horiz-adv-x="2353" />
<glyph unicode="&#x2002;" horiz-adv-x="1176" />
<glyph unicode="&#x2003;" horiz-adv-x="2353" />
<glyph unicode="&#x2004;" horiz-adv-x="784" />
<glyph unicode="&#x2005;" horiz-adv-x="588" />
<glyph unicode="&#x2006;" horiz-adv-x="392" />
<glyph unicode="&#x2007;" horiz-adv-x="392" />
<glyph unicode="&#x2008;" horiz-adv-x="294" />
<glyph unicode="&#x2009;" horiz-adv-x="470" />
<glyph unicode="&#x200a;" horiz-adv-x="130" />
<glyph unicode="&#x2010;" horiz-adv-x="1228" d="M130 614l88 410h1024l-88 -410h-1024z" />
<glyph unicode="&#x2011;" horiz-adv-x="1228" d="M130 614l88 410h1024l-88 -410h-1024z" />
<glyph unicode="&#x2012;" horiz-adv-x="1228" d="M130 614l88 410h1024l-88 -410h-1024z" />
<glyph unicode="&#x2013;" d="M130 614l88 411h1434l-87 -411h-1435z" />
<glyph unicode="&#x2014;" horiz-adv-x="1908" d="M130 614l88 411h2048l-87 -411h-2049z" />
<glyph unicode="&#x2018;" horiz-adv-x="618" d="M306 1331q0 70 8 120t27 97q34 90 90 90q51 0 94 -90q21 -48 32 -101.5t11 -115.5q0 -127 -36 -217q-37 -90 -91 -90q-53 0 -94 90q-20 46 -30.5 99.5t-10.5 117.5z" />
<glyph unicode="&#x2019;" horiz-adv-x="618" d="M249 1114q0 86 57 217q27 62 61 117t74 100q77 90 132 90q51 0 51 -90q0 -88 -56.5 -216t-134 -218t-131.5 -90q-53 0 -53 90z" />
<glyph unicode="&#x201a;" horiz-adv-x="606" d="M-12 -118q0 54 12 118q26 124 90 215.5t129 91.5q62 0 89 -89q12 -46 12 -100q0 -56 -13 -118q-14 -63 -35.5 -115t-55.5 -100q-63 -90 -127 -90q-65 0 -89 90q-12 45 -12 97z" />
<glyph unicode="&#x201c;" horiz-adv-x="1080" d="M312 1331q0 78 6 125.5t25 91.5q41 90 110 90q63 0 122 -90q50 -84 65 -217q0 -71 -7.5 -121t-26.5 -96q-42 -90 -108 -90q-69 0 -122 89t-64 218zM748 1331q0 78 6 125.5t25 91.5q41 90 109 90q66 0 120 -90t66 -217q0 -72 -6.5 -123t-25.5 -94q-41 -90 -109 -90 t-121 90q-30 48 -46 99q-18 58 -18 118z" />
<glyph unicode="&#x201d;" horiz-adv-x="1080" d="M251 1114q0 46 15 100t46 117t70 117t86 100q92 90 160 90q70 0 70 -90q0 -45 -14.5 -100t-45.5 -117q-63 -130 -155.5 -218.5t-160.5 -88.5q-71 0 -71 90zM688 1114q0 50 13.5 101t45.5 115.5t71.5 119.5t85.5 98q92 90 159 90q71 0 71 -90q0 -45 -14.5 -100t-46 -117.5 t-70 -117t-85.5 -99.5q-90 -90 -160 -90t-70 90z" />
<glyph unicode="&#x201e;" horiz-adv-x="990" d="M-34 -221q0 57 12 120q26 121 91 214t129 93q62 0 88 -92q14 -47 13 -98q1 -53 -13 -117q-27 -128 -91.5 -217.5t-127.5 -89.5q-66 0 -89 90q-12 45 -12 97zM374 -225q0 27 3.5 59t10.5 65q28 128 90 215q66 91 129 92q62 0 88 -92q13 -44 13 -98q0 -56 -13 -117 q-25 -122 -91 -217q-63 -90 -127 -90q-65 0 -91 90q-6 22 -9 43t-3 50z" />
<glyph unicode="&#x2022;" horiz-adv-x="1080" d="M682 774q0 22 5 46q18 84 90.5 144t156.5 60t132 -60q35 -42 35 -100q0 -21 -5 -44q-18 -85 -92 -145.5t-157 -60.5q-86 0 -133 60q-32 42 -32 100z" />
<glyph unicode="&#x2026;" d="M30 122q0 17 3 32q14 63 68 108t118 45q62 0 99 -45q26 -31 25 -76q0 -17 -3 -32q-7 -34 -23.5 -60t-45.5 -48q-55 -46 -117 -46q-63 0 -99 45q-26 33 -25 77zM542 119q0 14 4 35q14 64 68 108.5t116 44.5t100 -45q26 -33 26 -78q0 -12 -1.5 -19.5t-1.5 -10.5 q-7 -34 -23.5 -60t-45.5 -48q-58 -46 -119 -46q-62 0 -99 45q-25 32 -24 74zM1053 119q0 14 5 40t22 52.5t46 50.5q54 46 117 45q62 0 99 -45q26 -31 25 -77q0 -13 -1.5 -20.5t-1.5 -10.5q-7 -34 -23.5 -60t-45.5 -48q-57 -46 -117 -46q-62 0 -99 45q-26 33 -26 74z" />
<glyph unicode="&#x202f;" horiz-adv-x="470" />
<glyph unicode="&#x2039;" horiz-adv-x="1182" d="M174 820l1074 716l-66 -307l-598 -409l425 -410l-66 -308z" />
<glyph unicode="&#x203a;" horiz-adv-x="1182" d="M22 102l65 308l600 410l-426 409l65 307l770 -716z" />
<glyph unicode="&#x205f;" horiz-adv-x="588" />
<glyph unicode="&#x2122;" d="M305 1433l43 205h654l-43 -205h-234l-131 -613h-185l130 613h-234zM861 820l109 511h187l-109 -511h-187zM991 1433l43 205h235l97 -205l182 205h234l-173 -818h-187l130 613l-126 -154l-98 -459h-187l97 459l-60 154h-187z" />
<glyph unicode="&#x25fc;" horiz-adv-x="1640" d="M0 0v1640h1640v-1640h-1640z" />
</font>
</defs>
</svg>
