<?xml version="1.0" standalone="no"?>
<!DOCTYPE svg PUBLIC "-//W3C//DTD SVG 1.1//EN" "http://www.w3.org/Graphics/SVG/1.1/DTD/svg11.dtd" >
<svg xmlns="http://www.w3.org/2000/svg">
<metadata></metadata>
<defs>
<font id="esp_bold_italicregular" horiz-adv-x="1620" >
<font-face units-per-em="2048" ascent="1638" descent="-410" />
<missing-glyph horiz-adv-x="1228" />
<glyph horiz-adv-x="2048" />
<glyph horiz-adv-x="2048" />
<glyph unicode="&#xd;" horiz-adv-x="1228" />
<glyph unicode=" "  horiz-adv-x="1228" />
<glyph unicode="&#x09;" horiz-adv-x="1228" />
<glyph unicode="&#xa0;" horiz-adv-x="1228" />
<glyph unicode="!" horiz-adv-x="614" d="M46 186q0 26 6 60q22 102 98 175t160 73q71 0 115.5 -52.5t44.5 -134.5q-1 -30 -8 -61q-21 -101 -96.5 -173.5t-160.5 -72.5q-71 0 -115 52.5t-44 133.5zM190 786q0 66 14 158q10 64 30 162q32 150 62 240q44 134 100 205q68 87 157 87q74 0 107 -60q29 -53 29 -153 q0 -53 -9 -124t-35 -195q-32 -149 -62 -240q-44 -134 -100 -205q-69 -88 -157 -88q-74 0 -107 61q-30 54 -29 152z" />
<glyph unicode="&#x22;" horiz-adv-x="1126" d="M276 1259q0 37 7 72q23 112 106 205q91 102 193 102q85 0 134 -72q44 -66 44 -161q0 -30 -2 -47l-6 -27q-24 -112 -106 -203q-90 -101 -193 -101q-85 0 -134 72q-43 64 -43 160zM729 1260q0 36 7 71q23 112 106 205q91 102 193 102q85 0 134 -72q44 -65 44 -160 q0 -41 -8 -75q-24 -111 -107 -203q-90 -101 -192 -101q-84 0 -133 72q-44 66 -44 161z" />
<glyph unicode="#" horiz-adv-x="1638" d="M41 191l105 493h188l58 270h-189l105 493h189l40 191h489l-41 -192h78l41 192h489l-40 -191l188 -1l-104 -492h-189l-58 -270h189l-105 -493h-188l-41 -191h-489l41 191h-79l-40 -191h-489l41 191h-189zM823 684h79l57 270h-78z" />
<glyph unicode="$" horiz-adv-x="1638" d="M66 241q0 59 17 149q2 11 21 99h945l8 40l8 34h-511q-206 0 -292 71q-73 60 -72 185q0 60 16 151q3 17 21 100h1000q210 0 297 -71q72 -58 72 -176q0 -44 -9 -96q-2 -17 -21 -101l-40 -193q-32 -151 -61 -214q-50 -109 -147 -164q-118 -66 -320 -66h-40l-40 -191h-488 l40 191h-39q-206 0 -292 69q-73 58 -73 183zM244 1150q38 182 70 253q52 120 150 179q115 68 320 68h39l42 194h488l-42 -194h39q206 0 292 -69q73 -58 73 -183q0 -59 -17 -149q-2 -11 -20 -99h-1434z" />
<glyph unicode="%" horiz-adv-x="1843" d="M131 263l1511 1375l215 -261l-1511 -1377zM244 1104q0 25 1.5 42.5t7.5 42.5q38 174 192 298.5t335 124.5q157 0 257 -96.5t100 -241.5q0 -25 -1.5 -42.5t-7.5 -42.5q-38 -175 -192 -299t-336 -124q-156 0 -256 96t-100 242zM581 1167q0 -36 24 -59t63 -23 q44 0 82.5 30.5t47.5 73.5q2 11 2 21q0 36 -24.5 59.5t-63.5 23.5q-45 0 -82.5 -30.5t-46.5 -73.5q-2 -11 -2 -22zM848 365q0 25 1.5 42.5t7.5 42.5q38 175 193 299.5t336 124.5q157 0 257 -96t100 -243q1 -40 -9 -85q-37 -175 -192 -299.5t-336 -124.5q-157 0 -257.5 96 t-100.5 243zM1186 429q0 -36 24 -59.5t64 -23.5q45 0 82 30.5t46 73.5q2 12 3 22q0 35 -24 58.5t-63 23.5q-45 0 -82.5 -30.5t-47.5 -73.5q-2 -11 -2 -21z" />
<glyph unicode="&#x26;" horiz-adv-x="1638" d="M68 243q0 79 24 190l135 637h434h189h244l-106 -501h-378l-17 -80h456l41 193h488l-52 -249q-32 -151 -61 -214q-50 -109 -147 -164q-118 -66 -320 -66h-40l-40 -191h-488l40 191h-39q-196 0 -277 55q-86 58 -86 199zM244 1150q38 182 70 253q52 120 150 179 q115 68 320 68h39l42 194h488l-42 -194h39q210 0 297 -71q72 -58 72 -176q0 -42 -9 -96q-4 -27 -20 -101l-53 -250h-489l41 194h-945z" />
<glyph unicode="'" horiz-adv-x="614" d="M275 1249q0 45 8 82q23 112 98 205q82 102 172 102q72 0 112 -68q37 -62 37 -154q0 -20 -2.5 -42t-6.5 -43q-24 -112 -99 -203q-82 -101 -171 -101q-72 0 -112 68q-36 62 -36 154z" />
<glyph unicode="(" horiz-adv-x="819" d="M62 236q0 41 10 98q3 19 21 104l162 763q31 146 59 210q47 108 136 163q106 65 291 64h221l-104 -493h-172l-138 -651l171 -1l-105 -493h-221q-187 0 -266 67q-65 55 -65 169z" />
<glyph unicode=")" horiz-adv-x="819" d="M0 0l105 494h171l138 651l-171 1l105 492h222q187 0 265 -67q65 -55 65 -169q0 -41 -10 -97q-3 -19 -20 -104l-163 -763q-31 -146 -59 -211q-47 -108 -136 -162q-106 -65 -290 -65h-222z" />
<glyph unicode="*" horiz-adv-x="1024" d="M231 1086l60 284h60l-28 36l252 210l29 -37l12 59h284l-12 -59l43 37l164 -210l-44 -36h59l-60 -284h-58l27 -36l-251 -208l-30 36l-12 -60h-284l12 60l-43 -35l-164 207l44 36h-60z" />
<glyph unicode="+" horiz-adv-x="1228" d="M124 582l101 474h275l58 275l473 -4l-57 -271h275l-101 -474h-275l-59 -273l-473 -2l58 275h-275z" />
<glyph unicode="," horiz-adv-x="614" d="M-8 -82q0 45 8 82q23 112 98 205q82 102 172 102q72 0 112 -68q36 -61 36 -153q1 -48 -8 -86q-24 -112 -99 -203q-82 -101 -171 -101q-72 0 -112 68q-36 62 -36 154z" />
<glyph unicode="-" horiz-adv-x="1228" d="M130 614l88 410h1024l-88 -410h-1024z" />
<glyph unicode="." horiz-adv-x="614" d="M38 162q0 21 5 43q18 84 91 144.5t158 60.5q73 0 119.5 -46t46.5 -117q0 -20 -5 -42q-18 -85 -90.5 -145t-157.5 -60q-73 0 -120 46t-47 116z" />
<glyph unicode="/" horiz-adv-x="1638" d="M56 262l1465 1376l205 -262l-1465 -1376z" />
<glyph unicode="0" horiz-adv-x="1638" d="M70 254q0 40 5.5 83t17.5 101l133 628h489l-53 -253l290 332h-709q61 286 174.5 389.5t364.5 103.5h566q194 0 279 -59t85 -201q0 -38 -5 -80t-17 -97l-163 -763q-52 -246 -167.5 -342t-359.5 -96h-566q-195 0 -278 55q-86 58 -86 199zM830 494h87q99 0 117 14 q22 18 44 120l42 197z" />
<glyph unicode="1" horiz-adv-x="1024" d="M243 1145q42 201 203 349q154 144 312 144h409l-105 -493h-409h-410zM358 0l226 1066h462l-227 -1066h-461z" />
<glyph unicode="2" horiz-adv-x="1638" d="M0 0l98 465l987 680h-842q38 178 69 249q52 121 150 178q114 66 320 66h566q210 0 298 -70q72 -58 72 -174q0 -50 -13 -118q-2 -10 -16 -75l-29 -136l-783 -571h661l-104 -494h-1434z" />
<glyph unicode="3" horiz-adv-x="1638" d="M64 244q0 50 13 118q2 10 16 76l53 246h488l-40 -190h456l16 79h-377l105 493h377l17 79h-945q38 178 69 249q52 120 150 178q114 66 320 66h566q210 0 298 -70q72 -58 72 -174q0 -50 -13 -118q-2 -10 -16 -75l-163 -763q-31 -148 -60 -211q-50 -108 -146 -162 q-116 -65 -320 -65h-566q-210 0 -298 70q-72 58 -72 174z" />
<glyph unicode="4" horiz-adv-x="1638" d="M122 573l104 493h756l122 572h488l-122 -572h184l-105 -493h-183l-122 -573h-488l122 573h-756zM243 1145l105 493h489l-105 -493h-489z" />
<glyph unicode="5" horiz-adv-x="1638" d="M0 0l105 494h945l16 79h-944l104 493h1000q210 0 298 -71q72 -58 72 -173q0 -50 -13 -119q-2 -10 -16 -75l-41 -190q-31 -148 -60 -211q-50 -109 -146 -162q-116 -65 -320 -65h-1000zM243 1145l105 493h1434l-105 -493h-1434z" />
<glyph unicode="6" horiz-adv-x="1638" d="M64 244q0 50 13 118q2 10 16 76l41 190l92 438h1000q210 0 298 -70q72 -58 72 -174q0 -50 -13 -119q-1 -4 -16 -75l-41 -190q-31 -148 -60 -211q-50 -109 -146 -162q-116 -65 -320 -65h-566q-210 0 -298 70q-72 58 -72 174zM243 1145q38 178 69 249q52 121 150 178 q114 66 320 66h566q206 0 293 -68q73 -58 73 -182q0 -47 -12 -114q-7 -46 -25 -129h-1434zM594 494h456l16 79h-456z" />
<glyph unicode="7" horiz-adv-x="1638" d="M243 1145l105 493h1434l-95 -448l-745 -1190h-592l718 1145h-825z" />
<glyph unicode="8" horiz-adv-x="1638" d="M64 244q0 50 13 118q2 10 16 76q70 330 124 390q-16 29 -16 72q0 37 11 96l14 70h940l16 79h-939q38 178 69 249q52 121 150 178q114 66 320 66h566q210 0 298 -70q72 -58 72 -174q0 -50 -13 -118q-2 -10 -16 -75q-18 -88 -38 -150q-24 -78 -53 -132q-34 -63 -80 -100 q20 -26 30 -64.5t10 -84.5q0 -50 -7.5 -101t-24.5 -131q-31 -148 -60 -211q-50 -108 -146 -162q-116 -65 -320 -65h-566q-210 0 -298 70q-72 58 -72 174zM594 494h456l16 79h-456z" />
<glyph unicode="9" horiz-adv-x="1638" d="M68 250q0 47 11 115q7 46 26 129h945l16 79h-511q-206 0 -293 69q-73 58 -72 180q0 48 11 116q7 42 25 128h945l17 79h-945q38 178 69 249q52 121 150 178q114 66 320 66h566q210 0 298 -70q72 -58 72 -174q0 -50 -13 -118q-2 -10 -16 -75l-163 -763q-31 -148 -60 -211 q-50 -109 -146 -162q-116 -65 -320 -65h-566q-206 0 -293 69q-73 58 -73 181z" />
<glyph unicode=":" horiz-adv-x="614" d="M110 487q0 26 7 57q21 98 95 168t160 70q71 0 115.5 -52t44.5 -130q0 -18 -1 -27.5t-5 -28.5q-21 -98 -95 -167.5t-160 -69.5q-71 0 -116 51.5t-45 128.5zM227 1038q0 26 7 56q20 98 95 167.5t160 69.5q71 0 115.5 -50.5t44.5 -130.5q0 -18 -1 -27.5t-5 -28.5 q-21 -98 -95 -167.5t-160 -69.5q-71 0 -116 51t-45 130z" />
<glyph unicode=";" horiz-adv-x="614" d="M84 339q0 50 10 98q26 123 101 223q84 111 175 111q70 0 109 -70q35 -63 35 -162q0 -51 -11 -102q-26 -122 -101 -221q-84 -110 -174 -110q-70 0 -109 71q-35 65 -35 162zM226 1032q0 26 7 58q21 99 96 170t160 71q71 0 115.5 -51.5t44.5 -131.5q-1 -26 -7 -58 q-22 -100 -96.5 -170.5t-159.5 -70.5q-71 0 -115.5 51.5t-44.5 131.5z" />
<glyph unicode="&#x3c;" horiz-adv-x="1638" d="M174 821l1608 817l-103 -485l-653 -333l512 -334l-104 -486z" />
<glyph unicode="=" horiz-adv-x="1228" d="M66 307l100 475h1024l-100 -475h-1024zM182 857l101 474h1024l-101 -474h-1024z" />
<glyph unicode="&#x3e;" horiz-adv-x="1638" d="M0 0l103 486l654 334l-512 333l103 485l1261 -817z" />
<glyph unicode="?" horiz-adv-x="1638" d="M243 1145q38 178 69 249q52 121 150 178q114 66 320 66h566q210 0 298 -70q72 -58 72 -174q0 -50 -13 -118q-2 -10 -16 -75l-41 -191q-31 -148 -60 -210q-50 -109 -146 -162q-116 -65 -320 -65h-528q38 177 68 251q47 118 127 176q92 66 249 66h133l17 79h-945zM519 197 q0 10 1.5 22.5t4.5 26.5q22 102 109 175t188 73q87 0 141.5 -55t54.5 -140q0 -17 -0.5 -26t-4.5 -27q-21 -101 -108 -173.5t-188 -72.5q-88 0 -143 55.5t-55 141.5z" />
<glyph unicode="@" horiz-adv-x="1638" d="M64 244q0 50 13 118q2 10 16 76l133 628h489l-121 -572h944l-104 -494h-1000q-210 0 -298 70q-72 58 -72 174zM243 1145q38 178 69 249q52 121 150 178q114 66 320 66h566q210 0 298 -70q72 -58 72 -174q0 -50 -13 -118q-2 -10 -16 -75l-41 -191q-31 -148 -60 -210 q-50 -109 -146 -162q-116 -65 -320 -65h-410l105 493h354l17 79h-945z" />
<glyph unicode="A" horiz-adv-x="1638" d="M0 0l226 1066h945l17 79h-945q38 178 69 249q52 121 150 178q114 66 320 66h566q210 0 298 -70q72 -58 72 -174q0 -50 -13 -118q-2 -10 -16 -75l-255 -1201h-489l121 573h-456l-121 -573h-489z" />
<glyph unicode="B" horiz-adv-x="1638" d="M0 0l226 1066h945l17 79h-945l105 493h1000q210 0 298 -70q72 -58 72 -174q0 -50 -13 -118q-2 -10 -16 -75q-22 -101 -37 -150q-24 -78 -59 -132q-41 -63 -100 -100q34 -28 49 -70.5t15 -97.5q0 -47 -9 -103q-6 -36 -22 -110q-31 -148 -60 -211q-50 -109 -146 -162 q-116 -65 -320 -65h-1000zM594 494h456l16 79h-456z" />
<glyph unicode="C" horiz-adv-x="1638" d="M64 244q0 50 13 118q2 10 16 76l133 628h489l-121 -572h456l40 190h489l-53 -246q-31 -148 -60 -211q-50 -109 -146 -162q-116 -65 -320 -65h-566q-210 0 -298 70q-72 58 -72 174zM243 1145q38 178 69 249q52 121 150 178q114 66 320 66h566q210 0 298 -70 q72 -58 72 -174q0 -50 -13 -118q-2 -10 -16 -75l-52 -247h-489l40 191h-945z" />
<glyph unicode="D" horiz-adv-x="1638" d="M0 0l229 1076h489l-124 -582h456l138 651h-945l105 493h1000q210 0 298 -70q72 -58 72 -174q0 -50 -13 -118q-2 -10 -16 -75l-163 -763q-31 -148 -60 -211q-50 -109 -146 -162q-116 -65 -320 -65h-1000z" />
<glyph unicode="E" horiz-adv-x="1638" d="M0 0l226 1066h1056l-104 -493h-568l-16 -79h944l-104 -494h-1434zM243 1145l105 493h1434l-105 -493h-1434z" />
<glyph unicode="F" horiz-adv-x="1638" d="M0 0l226 1066h1056l-104 -493h-568l-121 -573h-489zM243 1145l105 493h1434l-105 -493h-1434z" />
<glyph unicode="G" horiz-adv-x="1638" d="M64 244q0 50 13 118q2 10 16 76l133 628h489l-121 -572h456l16 79h-377l105 493h432q210 0 298 -71q72 -58 72 -173q0 -50 -13 -119q-2 -10 -16 -75l-41 -190q-31 -148 -60 -211q-50 -109 -146 -162q-116 -65 -320 -65h-566q-210 0 -298 70q-72 58 -72 174zM243 1145 q38 178 69 249q52 121 150 178q114 66 320 66h566q206 0 293 -68q73 -58 73 -182q0 -47 -12 -114q-7 -46 -25 -129h-1434z" />
<glyph unicode="H" horiz-adv-x="1638" d="M0 0l226 1066h945l122 572h489l-348 -1638h-489l121 573h-456l-121 -573h-489zM243 1145l105 493h489l-105 -493h-489z" />
<glyph unicode="I" horiz-adv-x="614" d="M0 0l226 1066h410l-226 -1066h-410zM243 1145l105 493h410l-105 -493h-410z" />
<glyph unicode="J" horiz-adv-x="1638" d="M64 244q0 50 13 118q2 10 16 76l53 246h488l-40 -190h456l243 1144h489l-256 -1200q-31 -148 -60 -211q-50 -109 -146 -162q-116 -65 -320 -65h-566q-210 0 -298 70q-72 58 -72 174z" />
<glyph unicode="K" horiz-adv-x="1638" d="M0 0l226 1066h392l574 572h590l-806 -819l458 -819h-591l-265 512l-109 -512h-469zM243 1145l105 493h469l-105 -493h-469z" />
<glyph unicode="L" horiz-adv-x="1638" d="M0 0l226 1066h489l-121 -572h944l-104 -494h-1434zM243 1145l105 493h489l-105 -493h-489z" />
<glyph unicode="M" horiz-adv-x="1812" d="M0 0l226 1066h494l-226 -1066h-494zM243 1145q38 178 69 249q52 121 151 178q115 66 323 66h763q214 0 301 -64q74 -54 75 -170q0 -41 -10 -97q-2 -11 -21 -106l-256 -1201h-493l243 1145h-79l-203 -954h-492l202 954h-573z" />
<glyph unicode="N" horiz-adv-x="1638" d="M0 0l226 1066h489l-226 -1066h-489zM243 1145l105 493h1000q210 0 298 -70q72 -58 72 -174q0 -50 -13 -118q-2 -10 -16 -75l-255 -1201h-489l243 1145h-945z" />
<glyph unicode="O" horiz-adv-x="1638" d="M64 244q0 50 13 118q2 10 16 76l133 628h489l-121 -572h456l138 651h-945q38 178 69 249q52 121 150 178q114 66 320 66h566q210 0 298 -70q72 -58 72 -174q0 -50 -13 -118q-2 -10 -16 -75l-163 -763q-31 -148 -60 -211q-50 -109 -146 -162q-116 -65 -320 -65h-566 q-210 0 -298 70q-72 58 -72 174z" />
<glyph unicode="P" horiz-adv-x="1638" d="M0 0l226 1066h945l17 79h-945l105 493h1000q210 0 298 -70q72 -58 72 -174q0 -50 -13 -118q-2 -10 -16 -75l-41 -191q-34 -164 -64 -228q-48 -105 -145 -153q-111 -56 -317 -56h-512l-121 -573h-489z" />
<glyph unicode="Q" horiz-adv-x="1638" d="M67 241q0 78 24 187l135 634h488l-122 -577h456l139 656h-945q38 179 70 252q52 121 150 178q114 67 320 67h566q210 0 298 -70q72 -58 72 -174q0 -43 -9 -96q-3 -18 -21 -100l-299 -1409h-489l42 198h-511q-196 0 -278 55q-86 58 -86 199z" />
<glyph unicode="R" horiz-adv-x="1638" d="M0 0l226 1066h945l17 79h-945l105 493h1000q184 0 274 -95q79 -83 80 -226q0 -28 -3.5 -55.5t-9.5 -60.5l-40 -191q-30 -143 -56 -205q-46 -109 -133 -164q-105 -67 -282 -67l-17 -80h377l-104 -494h-434q-210 0 -297 70q-72 58 -72 174q0 50 13 118q2 10 16 76l29 135 h-79l-121 -573h-489z" />
<glyph unicode="S" horiz-adv-x="1638" d="M68 250q0 47 11 115q7 46 26 129h945l16 79h-511q-206 0 -293 69q-72 57 -72 177q0 51 11 119q7 42 25 128h1000q210 0 298 -71q72 -58 72 -173q0 -50 -13 -119q-2 -10 -16 -75l-41 -190q-31 -148 -60 -211q-50 -109 -146 -162q-116 -65 -320 -65h-566q-206 0 -293 69 q-73 58 -73 181zM243 1145q49 227 166 349q138 144 373 144h566q206 0 293 -68q73 -58 73 -182q0 -47 -12 -114q-7 -46 -25 -129h-1434z" />
<glyph unicode="T" horiz-adv-x="1638" d="M243 1145l105 493h1434l-105 -493h-473l-243 -1145h-488l241 1145h-471z" />
<glyph unicode="U" d="M64 244q0 50 13 118q2 10 16 76l133 628h489l-121 -572h456l243 1144h489l-256 -1200q-31 -148 -60 -211q-50 -109 -146 -162q-116 -65 -320 -65h-566q-210 0 -298 70q-72 58 -72 174zM243 1145l105 493h489l-105 -493h-489z" />
<glyph unicode="V" horiz-adv-x="1638" d="M129 606l97 460h489l-67 -319l178 -230l278 230l189 891h489l-220 -1032l-728 -606h-235zM243 1145l105 493h489l-105 -493h-489z" />
<glyph unicode="W" horiz-adv-x="1812" d="M64 245q0 50 13 117q2 10 16 76l133 628h494l-122 -572h80l203 953h493l-204 -953h80l243 1144h493l-255 -1200q-31 -146 -61 -211q-50 -109 -147 -162q-117 -65 -322 -65h-763q-212 0 -301 70q-73 58 -73 175zM243 1145l105 493h494l-105 -493h-494z" />
<glyph unicode="X" horiz-adv-x="1638" d="M0 0l93 438q10 34 21 68q32 83 80 151q68 96 163 151q-77 38 -110 104q-23 47 -23 106q0 19 1.5 29.5t4.5 18.5h430h266l280 164l87 408h489l-93 -437q-10 -34 -20 -67q-30 -79 -77 -147q-66 -94 -155 -150q66 -28 95 -79q26 -45 26 -114q0 -52 -14 -124q-1 -5 -18 -82 l-92 -438h-489l86 408l-195 154l-261 -154l-86 -408h-489zM243 1145l105 493h489l-105 -493h-489z" />
<glyph unicode="Y" horiz-adv-x="1638" d="M201 938q7 42 25 128h945l122 572h489l-134 -628q-31 -148 -60 -210q-50 -109 -146 -162q-116 -65 -320 -65h-40l-121 -573h-488l121 573h-39q-206 0 -293 69q-72 57 -72 177q0 51 11 119zM243 1145l105 493h489l-105 -493h-489z" />
<glyph unicode="Z" horiz-adv-x="1638" d="M0 0l98 463l905 682h-760l105 493h1434l-99 -463l-905 -681h760l-104 -494h-1434z" />
<glyph unicode="[" horiz-adv-x="819" d="M0 0l348 1638h614l-104 -493h-172l-138 -651h171l-105 -494h-614z" />
<glyph unicode="\" horiz-adv-x="1638" d="M293 1376l316 262l881 -1376l-317 -262z" />
<glyph unicode="]" horiz-adv-x="819" d="M0 0l105 494h172l138 651h-172l105 493h614l-348 -1638h-614z" />
<glyph unicode="^" horiz-adv-x="1638" d="M218 1024l848 614l585 -614h-570l-115 146l-178 -146h-570z" />
<glyph unicode="_" horiz-adv-x="1638" d="M-43 -205l43 205h1638l-43 -205h-1638z" />
<glyph unicode="`" horiz-adv-x="614" d="M279 1321q0 114 62 212q67 106 161 105q87 0 144 -98q50 -88 50 -198q0 -115 -61 -211q-66 -104 -161 -104q-87 0 -144 97q-51 87 -51 197z" />
<glyph unicode="a" horiz-adv-x="1638" d="M0 0l226 1066h945l17 79h-945q38 178 69 249q52 121 150 178q114 66 320 66h566q210 0 298 -70q72 -58 72 -174q0 -50 -13 -118q-2 -10 -16 -75l-255 -1201h-489l121 573h-456l-121 -573h-489z" />
<glyph unicode="b" horiz-adv-x="1638" d="M0 0l226 1066h945l17 79h-945l105 493h1000q210 0 298 -70q72 -58 72 -174q0 -50 -13 -118q-2 -10 -16 -75q-22 -101 -37 -150q-24 -78 -59 -132q-41 -63 -100 -100q34 -28 49 -70.5t15 -97.5q0 -47 -9 -103q-6 -36 -22 -110q-31 -148 -60 -211q-50 -109 -146 -162 q-116 -65 -320 -65h-1000zM594 494h456l16 79h-456z" />
<glyph unicode="c" horiz-adv-x="1638" d="M64 244q0 50 13 118q2 10 16 76l133 628h489l-121 -572h456l40 190h489l-53 -246q-31 -148 -60 -211q-50 -109 -146 -162q-116 -65 -320 -65h-566q-210 0 -298 70q-72 58 -72 174zM243 1145q38 178 69 249q52 121 150 178q114 66 320 66h566q210 0 298 -70 q72 -58 72 -174q0 -50 -13 -118q-2 -10 -16 -75l-52 -247h-489l40 191h-945z" />
<glyph unicode="d" horiz-adv-x="1638" d="M0 0l229 1076h489l-124 -582h456l138 651h-945l105 493h1000q210 0 298 -70q72 -58 72 -174q0 -50 -13 -118q-2 -10 -16 -75l-163 -763q-31 -148 -60 -211q-50 -109 -146 -162q-116 -65 -320 -65h-1000z" />
<glyph unicode="e" horiz-adv-x="1638" d="M0 0l226 1066h1056l-104 -493h-568l-16 -79h944l-104 -494h-1434zM243 1145l105 493h1434l-105 -493h-1434z" />
<glyph unicode="f" horiz-adv-x="1638" d="M0 0l226 1066h1056l-104 -493h-568l-121 -573h-489zM243 1145l105 493h1434l-105 -493h-1434z" />
<glyph unicode="g" horiz-adv-x="1638" d="M64 244q0 50 13 118q2 10 16 76l133 628h489l-121 -572h456l16 79h-377l105 493h432q210 0 298 -71q72 -58 72 -173q0 -50 -13 -119q-2 -10 -16 -75l-41 -190q-31 -148 -60 -211q-50 -109 -146 -162q-116 -65 -320 -65h-566q-210 0 -298 70q-72 58 -72 174zM243 1145 q38 178 69 249q52 121 150 178q114 66 320 66h566q206 0 293 -68q73 -58 73 -182q0 -47 -12 -114q-7 -46 -25 -129h-1434z" />
<glyph unicode="h" horiz-adv-x="1638" d="M0 0l226 1066h945l122 572h489l-348 -1638h-489l121 573h-456l-121 -573h-489zM243 1145l105 493h489l-105 -493h-489z" />
<glyph unicode="i" horiz-adv-x="614" d="M0 0l226 1066h410l-226 -1066h-410zM243 1145l105 493h410l-105 -493h-410z" />
<glyph unicode="j" horiz-adv-x="1638" d="M64 244q0 50 13 118q2 10 16 76l53 246h488l-40 -190h456l243 1144h489l-256 -1200q-31 -148 -60 -211q-50 -109 -146 -162q-116 -65 -320 -65h-566q-210 0 -298 70q-72 58 -72 174z" />
<glyph unicode="k" horiz-adv-x="1638" d="M0 0l226 1066h392l574 572h590l-806 -819l458 -819h-591l-265 512l-109 -512h-469zM243 1145l105 493h469l-105 -493h-469z" />
<glyph unicode="l" horiz-adv-x="1638" d="M0 0l226 1066h489l-121 -572h944l-104 -494h-1434zM243 1145l105 493h489l-105 -493h-489z" />
<glyph unicode="m" horiz-adv-x="1812" d="M0 0l226 1066h494l-226 -1066h-494zM243 1145q38 178 69 249q52 121 151 178q115 66 323 66h763q214 0 301 -64q74 -54 75 -170q0 -41 -10 -97q-2 -11 -21 -106l-256 -1201h-493l243 1145h-79l-203 -954h-492l202 954h-573z" />
<glyph unicode="n" horiz-adv-x="1638" d="M0 0l226 1066h489l-226 -1066h-489zM243 1145l105 493h1000q210 0 298 -70q72 -58 72 -174q0 -50 -13 -118q-2 -10 -16 -75l-255 -1201h-489l243 1145h-945z" />
<glyph unicode="o" horiz-adv-x="1638" d="M64 244q0 50 13 118q2 10 16 76l133 628h489l-121 -572h456l138 651h-945q38 178 69 249q52 121 150 178q114 66 320 66h566q210 0 298 -70q72 -58 72 -174q0 -50 -13 -118q-2 -10 -16 -75l-163 -763q-31 -148 -60 -211q-50 -109 -146 -162q-116 -65 -320 -65h-566 q-210 0 -298 70q-72 58 -72 174z" />
<glyph unicode="p" horiz-adv-x="1638" d="M0 0l226 1066h945l17 79h-945l105 493h1000q210 0 298 -70q72 -58 72 -174q0 -50 -13 -118q-2 -10 -16 -75l-41 -191q-34 -164 -64 -228q-48 -105 -145 -153q-111 -56 -317 -56h-512l-121 -573h-489z" />
<glyph unicode="q" horiz-adv-x="1638" d="M67 241q0 78 24 187l135 634h488l-114 -538q-1 -4 -1 -10q0 -18 16 -25q5 -2 16 -4h378q19 3 28 9q15 10 19 30l122 571q2 10 1 14q0 19 -15 27q-5 2 -16 5h-906q38 179 70 252q52 121 150 178q114 67 320 67h566q210 0 298 -70q72 -58 72 -174q0 -43 -9 -96 q-3 -18 -21 -100l-299 -1409h-489l42 198h-511q-196 0 -278 55q-86 58 -86 199z" />
<glyph unicode="r" horiz-adv-x="1638" d="M0 0l226 1066h906q20 2 29 8q14 10 19 32q1 4 1 10q0 18 -16 25q-5 2 -16 4h-906l105 493h1000q184 0 274 -95q79 -83 80 -226q0 -28 -3.5 -55.5t-9.5 -60.5l-40 -191q-30 -142 -59 -212q-46 -108 -124 -161q-94 -64 -250 -64q-7 -1 -12 -2q-28 -8 -34 -38q-2 -8 -2 -11 q0 -21 21 -27q3 -1 10 -1h339l-104 -494h-434q-210 0 -297 70q-72 58 -72 174q0 50 13 118q2 10 16 76l21 95v12q-2 28 -31 28t-43 -27q-2 -4 -5 -13l-113 -533h-489z" />
<glyph unicode="s" horiz-adv-x="1638" d="M68 250q0 47 11 115q7 46 26 129h945l16 79h-511q-206 0 -293 69q-72 57 -72 177q0 51 11 119q7 42 25 128h1000q210 0 298 -71q72 -58 72 -173q0 -50 -13 -119q-2 -10 -16 -75l-41 -190q-31 -148 -60 -211q-50 -109 -146 -162q-116 -65 -320 -65h-566q-206 0 -293 69 q-73 58 -73 181zM243 1145q49 227 166 349q138 144 373 144h566q206 0 293 -68q73 -58 73 -182q0 -47 -12 -114q-7 -46 -25 -129h-1434z" />
<glyph unicode="t" horiz-adv-x="1638" d="M243 1145l105 493h1434l-105 -493h-473l-243 -1145h-488l241 1145h-471z" />
<glyph unicode="u" d="M64 244q0 50 13 118q2 10 16 76l133 628h489l-121 -572h456l243 1144h489l-256 -1200q-31 -148 -60 -211q-50 -109 -146 -162q-116 -65 -320 -65h-566q-210 0 -298 70q-72 58 -72 174zM243 1145l105 493h489l-105 -493h-489z" />
<glyph unicode="v" horiz-adv-x="1638" d="M129 606l97 460h489l-67 -319l178 -230l278 230l189 891h489l-220 -1032l-728 -606h-235zM243 1145l105 493h489l-105 -493h-489z" />
<glyph unicode="w" horiz-adv-x="1812" d="M64 245q0 50 13 117q2 10 16 76l133 628h494l-122 -572h80l203 953h493l-204 -953h80l243 1144h493l-255 -1200q-31 -146 -61 -211q-50 -109 -147 -162q-117 -65 -322 -65h-763q-212 0 -301 70q-73 58 -73 175zM243 1145l105 493h494l-105 -493h-494z" />
<glyph unicode="x" horiz-adv-x="1638" d="M0 0l93 438q10 34 21 68q32 83 80 151q68 96 163 151q-77 38 -110 104q-23 47 -23 106q0 19 1.5 29.5t4.5 18.5h430h266l280 164l87 408h489l-93 -437q-10 -34 -20 -67q-30 -79 -77 -147q-66 -94 -155 -150q66 -28 95 -79q26 -45 26 -114q0 -52 -14 -124q-1 -5 -18 -82 l-92 -438h-489l86 408l-195 154l-261 -154l-86 -408h-489zM243 1145l105 493h489l-105 -493h-489z" />
<glyph unicode="y" horiz-adv-x="1638" d="M201 938q7 42 25 128h945l122 572h489l-134 -628q-31 -148 -60 -210q-50 -109 -146 -162q-116 -65 -320 -65h-40l-121 -573h-488l121 573h-39q-206 0 -293 69q-72 57 -72 177q0 51 11 119zM243 1145l105 493h489l-105 -493h-489z" />
<glyph unicode="z" horiz-adv-x="1638" d="M0 0l98 463l905 682h-760l105 493h1434l-99 -463l-905 -681h760l-104 -494h-1434z" />
<glyph unicode="{" horiz-adv-x="1024" d="M174 819l240 214l36 168q31 146 60 210q48 109 137 163q108 65 295 64h225l-105 -493q-78 0 -113 5t-56 16l-150 -703q31 14 74.5 22.5t106.5 8.5l-105 -494h-225q-190 0 -270 68q-66 56 -66 169q0 45 9 97q2 14 21 104l36 168z" />
<glyph unicode="|" horiz-adv-x="614" d="M-43 -205l435 2048h410l-436 -2048h-409z" />
<glyph unicode="}" horiz-adv-x="1024" d="M0 0l105 494q78 0 113.5 -5.5t55.5 -17.5l149 703q-28 -14 -73.5 -21.5t-106.5 -7.5l105 493h225q190 0 269 -68q66 -56 66 -168q0 -45 -9 -98q-3 -18 -21 -103l-36 -168l152 -214l-242 -213l-36 -168q-31 -146 -59 -211q-48 -109 -137 -162q-108 -65 -294 -65h-226z" />
<glyph unicode="~" horiz-adv-x="1433" d="M250 1177q35 167 65 233q50 112 147 166q112 62 314 62q209 0 296 -65q72 -54 72 -164q0 -27 -4.5 -60t-11.5 -68h373q-35 -167 -65 -234q-50 -112 -146 -165q-112 -62 -315 -63q-209 0 -296 67q-71 54 -71 164q0 30 3.5 58t11.5 69h-373z" />
<glyph unicode="&#xa1;" horiz-adv-x="684" d="M-54 -318q0 54 20 156l121 572q18 86 40 140q19 47 37 64.5t60 27.5q50 13 121 13q67 0 108 -11t53 -28q9 -14 9 -56q0 -29 -4 -63t-14 -87l-122 -572q-17 -82 -39 -136q-19 -49 -38 -68q-18 -16 -67 -28.5t-117 -12.5q-71 0 -111 12.5t-51 31.5q-3 6 -4.5 16.5 t-1.5 28.5zM202 919q0 28 7 63q20 99 96 173q37 35 77 54t84 19q85 0 129 -72q29 -50 29 -114q0 -19 -1 -29t-5 -31q-21 -101 -97 -173.5t-159 -72.5q-86 0 -131 72q-29 48 -29 111z" />
<glyph unicode="&#xa2;" d="M72 266q0 73 20 166l135 638h489l-94 -444q-13 -54 -17 -73q-7 -31 -7 -45q0 -9 3.5 -13t22 -5.5t24.5 -1.5h31t35 1h12h190q18 0 35 -0.5t32 -0.5q24 0 38.5 1.5t21.5 7t48 185.5h488l-53 -250q-26 -125 -69.5 -209t-103 -133t-148 -75t-207.5 -26h-36l-40 -192h-492 l41 192h-40q-120 0 -197.5 26t-114.5 75q-23 30 -35 73.5t-12 102.5zM244 1150q34 159 80 256q42 90 104 142q58 49 148 75.5t208 26.5h40l42 194h491l-42 -194h35q118 0 196.5 -26t116.5 -74q48 -62 48 -177q0 -74 -20 -167l-53 -250h-490q32 150 32 174q0 6 -2 12 q-5 5 -17.5 6.5t-34.5 1.5h-34h-37h-811z" />
<glyph unicode="&#xa3;" d="M0 0l24 112q63 0 124.5 25t125.5 77t102.5 107.5t51.5 116.5l29 135h-195l104 493h196l28 135q26 121 70 204.5t105 132t153.5 74.5t216.5 26h196q122 0 204 -26t122 -74q24 -28 36.5 -69.5t12.5 -102.5q0 -46 -6.5 -97t-21.5 -124h-452h-40t-36 1q-23 0 -36.5 -2t-21 -8 t-14.5 -32q-1 -5 -8 -38h197l-105 -493h-196l-16 -79h589l-105 -494h-647h-787z" />
<glyph unicode="&#xa4;" d="M77 361l283 233q-6 13 -12 32t-11 40q-5 30 -5 64q0 41 9 89q15 76 61 151q23 40 53 73l-184 235l316 258l183 -234q17 10 38.5 20.5t40.5 17.5q78 30 159 30q76 0 145 -29q19 -10 36 -19t29 -20l283 234l205 -258l-284 -235q14 -29 22 -73q9 -33 9 -74q0 -20 -1.5 -37 t-6.5 -39q-18 -85 -66 -155q-26 -42 -52 -71l184 -233l-315 -259l-182 232q-50 -31 -111 -47.5t-129 -16.5q-135 0 -211 64l-281 -232zM711 781q0 -48 29 -87q42 -51 114 -51q70 0 134 52t79 124q4 20 4 36q0 48 -30 87q-40 52 -113 52q-70 0 -135 -52q-60 -53 -78 -124 q-4 -22 -4 -37z" />
<glyph unicode="&#xa5;" d="M174 377l65 304h301l-298 383h630l55 -73l278 231l88 416h489l-118 -557l-480 -400h300l-65 -304h-378l3 16h190l-64 -303h-190l-41 -190h-487l41 190h-191l64 303h191l-3 -16h-380zM243 1143l105 495h489l-105 -495h-489z" />
<glyph unicode="&#xa6;" horiz-adv-x="1272" d="M513 0l145 684h409l-145 -684h-409zM716 954l145 684h409l-145 -684h-409z" />
<glyph unicode="&#xa7;" d="M-43 -204l105 498h438q14 0 18 15.5t7 28t3 21.5q0 13 -12 13q-121 0 -199.5 26t-117.5 76q-22 30 -33.5 73t-11.5 103q0 75 19 164l41 192q26 120 70 207q42 84 100.5 132.5t150.5 75t211 26.5h438l-106 -498h-439q-11 0 -17 -11q-2 -4 -8 -29l-4 -26q0 -13 12 -13 q120 0 199 -26t117 -75q48 -62 48 -178q0 -71 -19 -162l-81 -385q-21 -98 -145 -177q-54 -34 -142.5 -52.5t-204.5 -18.5h-437zM762 -13l105 498h437q14 0 18 15.5t6 25.5t3 15.5t1 10.5q0 12 -12 12q-119 0 -198.5 26t-117.5 74q-46 59 -46 174q0 72 20 168l81 384 q10 50 44.5 93t98.5 84q54 34 143 52.5t204 18.5h437l-105 -497h-438q-11 0 -14.5 -8t-9 -29.5t-5.5 -29.5q0 -13 12 -12q119 0 197.5 -26t117.5 -75q50 -61 49 -176q0 -72 -20 -164l-40 -192q-26 -120 -70.5 -206.5t-103 -135.5t-147.5 -74.5t-211 -25.5h-436z" />
<glyph unicode="&#xa8;" horiz-adv-x="1338" d="M708 1870q0 16 2 24q14 62 77 108.5t141 46.5q77 0 123 -47q34 -41 35 -85q-1 -11 -3 -22q-14 -63 -80 -108t-138 -45q-80 0 -123 45q-34 33 -34 83zM1154 1870q0 11 3 24q7 30 25 57t51 51q64 46 141 47q35 0 65.5 -10.5t58.5 -34.5q34 -42 34 -87v-10q-2 -8 -2 -11 q-6 -31 -26.5 -58.5t-53.5 -51.5q-68 -44 -140 -44q-75 0 -122 44q-34 35 -34 84z" />
<glyph unicode="&#xa9;" horiz-adv-x="1812" d="M155 642q0 85 19 178q72 338 364 578t629 240q339 0 529 -240q136 -174 136 -400q0 -84 -19 -177q-72 -340 -364 -580.5t-629 -240.5q-340 0 -529 240q-136 174 -136 402zM465 708q0 -72 21.5 -134.5t64.5 -119.5q120 -151 334 -151q210 0 396 151q91 77 148.5 168 t81.5 199q12 58 12 110q0 143 -87 253q-61 75 -144 114t-189 39q-211 0 -396 -153t-229 -364q-13 -62 -13 -112zM506 548q0 -71 35 -110q25 -27 73.5 -41.5t121.5 -14.5h328q74 0 129 14.5t91 41.5t64 74t42 116l32 153h-328q-6 -24 -12 -60.5t-7 -38.5q-5 -1 -26.5 0.5 t-29.5 1.5h-108q-18 0 -30 -1t-23 -1h-8q0 2 6 15.5t10 27.5l52 245h-330l-73 -342q-9 -41 -9 -80zM585 954h490q15 0 35.5 3.5t22.5 0.5q2 -2 -6.5 -32t-16.5 -68h329l32 152q9 41 9 80q0 73 -35 112q-26 26 -74 40.5t-121 14.5h-328q-74 0 -129 -15t-91 -41 q-39 -31 -65 -83q-30 -61 -52 -164z" />
<glyph unicode="&#xaa;" horiz-adv-x="1236" d="M482 820l116 550h440l-4 -16h-439q21 101 46 153q22 46 56 75q30 26 77 41t108 15h264q62 0 102 -14t60 -41q24 -31 24 -93q0 -34 -9 -83l-125 -587h-277l57 268h-160l-57 -268h-279z" />
<glyph unicode="&#xab;" horiz-adv-x="1812" d="M174 821l1137 715l-83 -392l-502 -324l364 -326l-84 -392zM829 821l1136 715l-83 -392l-503 -325l364 -325l-83 -392z" />
<glyph unicode="&#xac;" d="M117 550l101 474h1434l-218 -1024h-489l117 550h-945z" />
<glyph unicode="&#xad;" d="M130 614l88 410h1434l-87 -410h-1435z" />
<glyph unicode="&#xae;" horiz-adv-x="1812" d="M155 642q0 85 19 178q72 338 364 578t629 240q339 0 529 -240q136 -174 136 -400q0 -84 -19 -177q-72 -340 -364 -580.5t-629 -240.5q-340 0 -529 240q-136 174 -136 402zM462 382h330l62 287h-29l157 -287h413l-164 297q69 14 111 45q39 28 66.5 74.5t42.5 115.5l20 96 q9 41 9 80q0 73 -35 112q-25 26 -73.5 40.5t-122.5 14.5h-600l-64 -303h545q4 1 5.5 5t1.5 7q-6 -2 -7 -3q-1 -4 2.5 -3.5t8.5 2.5q-1 1 -2 4.5t-5 3.5h-546zM465 708q0 -72 21.5 -134.5t64.5 -119.5q120 -151 334 -151q210 0 396 151q91 77 148.5 168t81.5 199 q12 58 12 110q0 143 -87 253q-61 75 -144 114t-189 39q-211 0 -396 -153t-229 -364q-13 -62 -13 -112z" />
<glyph unicode="&#xaf;" horiz-adv-x="1812" d="M261 1229l87 409h1638l-87 -409h-1638z" />
<glyph unicode="&#xb0;" horiz-adv-x="1272" d="M837 1978q0 32 7 66q26 122 136 215.5t236 93.5q123 0 198 -92q51 -66 51 -151q0 -25 -1.5 -35.5t-5.5 -29.5q-26 -127 -137 -217t-235 -90q-126 0 -197 89q-52 65 -52 151zM1090 2029q0 -14 9 -26q14 -18 42 -17q10 0 21.5 4.5t23.5 13.5q20 17 26 42q1 3 1 9 q0 15 -11 32q-16 18 -40 18q-23 0 -43.5 -17.5t-26.5 -43.5q-2 -10 -2 -15z" />
<glyph unicode="&#xb1;" horiz-adv-x="1428" d="M206 0l104 489h275l37 173h-276l104 489l276 1l60 282h472l-60 -283h276l-104 -489h-276l-36 -173h275l-104 -489h-1023z" />
<glyph unicode="&#xb2;" horiz-adv-x="1236" d="M482 820l54 258l504 312q-2 -11 -2 -12q0 -6 5 -9q3 -6 3 -9q0 -6 -5 -6h-446q21 99 47 154q22 46 54 74t78 42t108 14h263q61 0 100.5 -13.5t60.5 -39.5q26 -32 26 -95q0 -16 -2.5 -38t-6.5 -45l-25 -115l-288 -190h248l-60 -282h-716z" />
<glyph unicode="&#xb3;" horiz-adv-x="1236" d="M522 967q0 16 2 37.5t6 45.5l31 143h279q-7 -35 -16.5 -64.5t-8.5 -30.5q1 -2 15 1t26 3h88q10 0 18 -2t15 -3l-2 -9h-173l60 282h174q-1 -2 -1.5 -8.5t0.5 -8.5q1 3 2 7q-1 1 -14.5 -2.5t-25.5 -3.5h-402q21 99 47 154q22 46 54 74t78 42t108 14h263q61 0 100.5 -13.5 t60.5 -39.5q26 -32 26 -95q0 -16 -2.5 -38t-6.5 -45l-76 -357q-14 -65 -37 -108t-55 -68q-29 -25 -75.5 -39.5t-108.5 -14.5h-262q-62 0 -101.5 13.5t-60.5 39.5q-26 32 -25 94z" />
<glyph unicode="&#xb4;" horiz-adv-x="1236" d="M786 1230q0 43 30 104q45 87 149 173q50 40 100 68t94 41.5t75 13.5q28 0 49.5 -8.5t35.5 -25.5q18 -25 19 -62q0 -24 -7 -48t-23 -55q-50 -93 -148 -172q-48 -40 -96.5 -67.5t-100.5 -44.5q-42 -12 -73 -12q-57 0 -85 35q-19 26 -19 60z" />
<glyph unicode="&#xb5;" d="M-86 -408l311 1466h489l-95 -444q-13 -54 -17 -72q-7 -31 -7 -45q0 -9 3.5 -13t22 -5.5t25.5 -1.5h31t35 1h12h190q18 0 35 -0.5t32 -0.5q24 0 38.5 1.5t21.5 7.5q10 10 20.5 63t13.5 66l219 1025l488 -2l-258 -1217q-26 -120 -70 -207t-103 -135.5t-149 -74.5t-207 -26 h-511l-82 -386h-488zM242 1138l106 500h489l-107 -500h-488z" />
<glyph unicode="&#xb6;" horiz-adv-x="1812" d="M199 842q0 87 27 224h573l17 79h-572q34 158 80 254q42 89 102 138t150 75t210 26h1200l-348 -1638h-493l243 1145h-78l-244 -1145h-493l121 573h-134q-121 0 -200.5 25.5t-117.5 73.5q-22 28 -32.5 69t-10.5 101z" />
<glyph unicode="&#xb7;" horiz-adv-x="1152" d="M682 774q0 22 5 46q18 82 89 144q34 28 75 44t83 16q43 0 75 -14t57 -45q35 -43 35 -101q0 -21 -5 -44q-18 -84 -92 -145t-156 -61q-85 0 -134 61q-32 42 -32 99z" />
<glyph unicode="&#xb8;" horiz-adv-x="1896" d="M123 580l66 308h2049l-66 -308h-194l4 18h96l-65 -308h-96l4 17h193l-65 -307h-501l123 580h-1048l-123 -580h-306l124 580h-195zM598 694h325l3 -23l12 23h325l-257 -360l-71 -334h-309l71 334zM758 1742l64 307h1274l-65 -307h-677l-185 -872h-307l185 872h-289zM967 0 l147 694h597l-105 -500h-290l-42 -194h-307zM1250 870l188 888h307l-123 -580h289l-65 -308h-596zM1364 500h17l17 80h-17z" />
<glyph unicode="&#xb9;" horiz-adv-x="1146" d="M801 1354q20 97 45 153q21 48 49 74.5t71 41.5t98 15h206l-60 -284h-205h-204zM845 820l117 550h251l-117 -550h-251z" />
<glyph unicode="&#xba;" horiz-adv-x="1236" d="M526 1006q0 19 4 44l68 320h280l-12 -57l36 43h-307q17 80 44 128q25 44 71 82q86 72 172 72h264q86 0 140 -71q42 -52 42 -114q0 -22 -5 -45l-76 -358q-18 -89 -104.5 -159.5t-170.5 -70.5h-263q-42 0 -77.5 17t-65.5 53q-40 52 -40 116zM946 1103q10 0 21.5 -3.5 t13.5 -1.5t4 18.5t5 26.5l-36 -39z" />
<glyph unicode="&#xbb;" horiz-adv-x="1812" d="M22 102l83 392l504 326l-366 324l83 392l833 -715zM676 102l83 392l503 325l-364 325l83 392l833 -715z" />
<glyph unicode="&#xbc;" horiz-adv-x="1812" d="M56 263l1495 1375l213 -261l-1495 -1377zM301 1318q22 102 49 159q24 50 58 77.5t82 42.5t115 15h245l-62 -294h-245h-242zM370 766l122 569h300l-122 -569h-300zM898 303l212 292h262l-3 -15h-271l213 293h419l-60 -278h95l-62 -292h-94l-59 -277h-299l59 277h-412z" />
<glyph unicode="&#xbd;" horiz-adv-x="1812" d="M56 263l1495 1375l213 -261l-1495 -1377zM301 1318q22 102 49 159q24 50 58 77.5t82 42.5t115 15h245l-61 -291l-246 -3h-242zM370 766l122 569h300l-122 -569h-300zM874 26l56 265l540 325q-2 -10 -1 -11q0 -8 6 -15q-1 -10 -4 -10h-479q22 101 49 158q24 50 57.5 77.5 t82.5 42.5t117 15h282q66 0 108.5 -14t65.5 -41q27 -36 28 -104q0 -38 -8 -79l-27 -121l-307 -196h266l-62 -292h-770z" />
<glyph unicode="&#xbe;" horiz-adv-x="1812" d="M205 918q0 41 9 86l31 147h299q-8 -37 -22 -75q-6 -19 -2 -22q1 -2 16.5 1t25.5 3h95q12 0 20.5 -2t16.5 -4l-4 -9h-186l62 292h188q-2 -12 -2 -16.5t2 -4.5t3 3t-1 5q-4 1 -19.5 -1.5t-25.5 -2.5h-431q22 102 49 159q24 50 58 77.5t82.5 42.5t116.5 15h282q64 0 107 -14 t68 -41q26 -37 27 -105q0 -38 -8 -78l-79 -370q-14 -66 -39 -112t-59 -71.5t-83 -40t-114 -14.5h-282q-65 0 -107.5 14t-65.5 41q-28 30 -28 97zM226 263l1494 1375l211 -261l-1495 -1377zM878 303l212 292h261l-3 -15h-270l212 293h419l-59 -278h94l-62 -292h-94l-59 -277 h-299l60 277h-412z" />
<glyph unicode="&#xbf;" d="M-14 -134q0 70 20 162l40 191q26 120 71 207q42 82 100.5 129.5t148 73.5t208.5 26h94h432q-34 -158 -79 -253q-42 -86 -101.5 -134.5t-146.5 -75t-203 -26.5l-46 -1q-3 -14 -6.5 -31t-3.5 -29q0 -10 4 -16t45 -6h30.5t35.5 1h11h812q-33 -156 -79 -252 q-42 -87 -103 -138q-56 -48 -145.5 -74.5t-210.5 -26.5h-566q-119 0 -197 25t-117 73q-48 60 -48 175zM676 926q0 26 6 56q21 101 108 174q43 36 89.5 54t98.5 18q102 0 159 -72q39 -51 39 -118q0 -26 -6 -56q-22 -104 -108.5 -175t-187.5 -71q-104 0 -156 72 q-42 50 -42 118z" />
<glyph unicode="&#xc0;" d="M0 0l230 1083h948l16 81h-947q34 160 81 258q42 89 101 139.5t148.5 77t210.5 26.5h568q118 0 197.5 -26t116.5 -75q43 -63 43 -176q0 -40 -4 -78t-15 -88l-260 -1222h-487l124 582h-457l-124 -582h-490zM811 1984q0 43 21 75.5t61 55.5q46 28 118 28q23 0 40.5 -1.5 t43.5 -7.5q54 -12 106 -37t102 -65.5t79.5 -82t41.5 -84.5q3 -14 4.5 -25t1.5 -24q0 -42 -19.5 -74t-57.5 -56q-50 -30 -121 -30q-41 0 -86 10q-117 26 -206 104q-49 37 -79 76.5t-43 87.5q-2 10 -4.5 24.5t-2.5 25.5z" />
<glyph unicode="&#xc1;" d="M0 0l230 1083h948l16 81h-947q34 160 81 258q42 89 103 140q56 49 147.5 76.5t210.5 27.5h568q119 0 197 -26t116 -76q43 -63 43 -176q0 -40 -4 -78t-15 -88l-260 -1222h-487l124 582h-457l-124 -582h-490zM762 1758q0 46 41 108q29 42 75.5 83t115.5 83q68 38 129 63.5 t116 37t95 11.5q67 0 107 -29q37 -30 37 -74q0 -46 -40 -107q-32 -44 -80.5 -85.5t-111.5 -78.5q-121 -73 -251 -104q-49 -10 -89 -10q-68 0 -106 29t-38 73z" />
<glyph unicode="&#xc2;" d="M0 0l228 1072h947l17 79h-947q34 158 80 255q42 88 100.5 138t149 76.5t210.5 26.5h568q118 0 196.5 -26t116.5 -74q44 -62 44 -177q0 -34 -5 -75t-14 -87l-257 -1208h-487l123 576h-458l-122 -576h-490zM553 1632l621 518l403 -518h-347l-131 167l-201 -167h-345z" />
<glyph unicode="&#xc3;" d="M0 0l230 1083h948l16 81h-947q34 160 81 258q42 89 103 140q56 49 147.5 76.5t210.5 27.5h568q119 0 197 -26t116 -76q43 -63 43 -176q0 -40 -4 -78t-15 -88l-260 -1222h-487l124 582h-457l-124 -582h-490zM770 1842q22 104 49 164q24 52 61 85q33 27 83 43t118 16 q64 0 106.5 -15t65.5 -42q29 -36 29 -105v-15q-2 -11 -2 -17h192q-22 -103 -50 -164q-24 -51 -59 -83q-33 -27 -84.5 -43t-116.5 -16t-108.5 14.5t-65.5 41.5q-28 34 -28 100q0 18 2 36h-192z" />
<glyph unicode="&#xc4;" d="M0 0l230 1081h947l17 80h-948q34 160 81 257q42 89 101 139.5t148.5 77t210.5 26.5h568q118 0 196.5 -26t116.5 -75q44 -62 44 -177q0 -34 -5 -76.5t-13 -88.5l-260 -1218h-487l123 580h-457l-123 -580h-490zM672 1806v24q2 11 3 16q18 82 88.5 142.5t151.5 60.5t127 -61 q32 -46 32 -103q0 -11 -1 -17.5t-3 -20.5q-18 -82 -89 -144q-74 -58 -150 -57q-86 0 -128 59q-31 42 -31 101zM1145 1803q0 20 5 43q16 78 84 142q73 61 152 61q38 0 70 -14t61 -45q16 -25 23 -50.5t7 -53.5v-23l-3 -15q-18 -82 -90 -145q-35 -27 -74.5 -42t-77.5 -15 q-80 0 -126 58q-31 42 -31 99z" />
<glyph unicode="&#xc5;" d="M0 0l231 1089h947l18 80h-947q34 161 81 259q43 90 101.5 140.5t147.5 77.5t211 27h568q119 0 197.5 -26t114.5 -76q44 -62 44 -177q0 -74 -19 -167l-261 -1227h-487l124 585h-457l-124 -585h-490zM795 1926q0 38 8 76q29 138 152 244.5t261 106.5q137 0 217 -105 q57 -75 57 -172q0 -32 -8 -74q-31 -148 -154 -248t-259 -100q-140 0 -217 100q-57 74 -57 172zM1075 1986q0 -19 10 -32q14 -19 45 -19q23 0 50 21q23 17 29 47q2 10 1 14q0 18 -12 32q-18 22 -43 21q-26 0 -49 -20q-11 -9 -18 -20.5t-11 -27.5q-2 -11 -2 -16z" />
<glyph unicode="&#xc6;" horiz-adv-x="1812" d="M0 0l226 1066h668l17 79h-668q34 158 80 254q42 89 102 138t150 75t211 26h1200l-104 -493h-476l-17 -79h285l-104 -493h-286l-17 -79h476l-105 -494h-970l122 573h-175l-121 -573h-494z" />
<glyph unicode="&#xc7;" d="M68 246q0 75 20 168l136 641h489l-95 -445q-9 -42 -17 -83q-4 -20 -4 -30t4 -16q7 -6 26 -7.5t51 -1.5h44h190q19 0 37 -0.5t34 -0.5q22 0 36 1.5t20 7t49 186.5h488l-54 -252q-26 -121 -70.5 -208t-103 -135.5t-147.5 -75t-207 -26.5h-40l-29 -137q-26 -122 -68.5 -207 t-101.5 -135t-148 -77t-209 -27h-245l107 504h190l17 79h-40q-120 0 -196.5 25t-116.5 76q-46 61 -46 176zM242 1135q34 163 80 260q42 89 103 141q58 49 148 75.5t209 26.5h566q120 0 197.5 -26t115.5 -76q23 -31 35 -74.5t12 -102.5q0 -74 -20 -166l-54 -252h-489 q18 81 20 93q14 65 14 80q0 10 -3 13q-7 9 -51 9q-16 0 -34 -0.5t-38 -0.5h-811z" />
<glyph unicode="&#xc8;" d="M0 0l233 1094h1055l-109 -512h-566l-18 -80h942l-107 -502h-1430zM247 1164l107 501h1430l-106 -501h-1431zM811 1984q0 43 21 75.5t61 55.5q46 28 118 28q23 0 40.5 -1.5t43.5 -7.5q54 -12 106 -37t103 -65q97 -81 119 -167q6 -28 7 -50q0 -82 -77 -129 q-50 -30 -121 -30q-41 0 -86 10q-118 26 -206 104q-49 37 -79 76.5t-43 87.5q-2 10 -4.5 24.5t-2.5 25.5z" />
<glyph unicode="&#xc9;" d="M0 0l233 1094h1055l-109 -512h-566l-18 -80h942l-107 -502h-1430zM247 1164l107 502h1431l-107 -502h-1431zM762 1759q0 22 10 48.5t30 58.5q29 42 76.5 83t115.5 83q68 38 129 63.5t116 37t95 11.5q67 0 107 -29q36 -30 36 -74q0 -46 -40 -107q-32 -44 -79.5 -85.5 t-111.5 -78.5q-122 -73 -251 -104q-49 -10 -89 -10q-68 0 -106 29t-38 74z" />
<glyph unicode="&#xca;" d="M0 0l230 1082h1055l-107 -506h-567l-17 -80h942l-106 -496h-1430zM245 1151l105 496h1431l-106 -496h-1430zM552 1632l622 518l403 -518h-347l-131 167l-201 -167h-346z" />
<glyph unicode="&#xcb;" d="M0 0l230 1081h1055l-107 -501h-566l-17 -80h942l-107 -500h-1430zM246 1161l107 500h1430l-106 -500h-1431zM672 1806v24q2 11 3 16q18 82 87 142q36 30 73.5 45.5t79.5 15.5q81 0 127 -61q32 -46 32 -103q0 -11 -1 -17.5t-3 -20.5q-18 -82 -89 -144q-74 -58 -150 -57 q-86 0 -128 59q-31 42 -31 101zM1145 1802q0 21 5 44q16 78 84 142q73 61 152 61q38 0 69.5 -14t60.5 -45q30 -49 30 -104q0 -7 -0.5 -15t-2.5 -23q-17 -82 -89 -145q-35 -27 -74.5 -42t-77.5 -15q-80 0 -126 58q-31 42 -31 98z" />
<glyph unicode="&#xcc;" horiz-adv-x="684" d="M-32 0l233 1094h441l-232 -1094h-442zM215 1164l107 502h442l-107 -502h-442zM231 1977q0 46 19 80t56 58q46 29 108 29q37 0 76 -10q97 -24 186 -102q43 -41 69 -82.5t36 -83.5q5 -24 5 -45q0 -43 -19 -77t-54 -58q-22 -15 -49.5 -22.5t-60.5 -7.5q-36 0 -77 10 q-102 26 -184 104q-43 38 -69 77t-38 87q-4 26 -4 43z" />
<glyph unicode="&#xcd;" horiz-adv-x="780" d="M0 0l233 1094h441l-232 -1094h-442zM247 1164l107 502h442l-107 -502h-442zM384 1756q0 46 38 108q26 42 69 84t107 85q116 74 229 101q45 10 82 10q32 0 55 -7t39 -22q32 -28 32 -73q1 -47 -37 -108q-58 -86 -175.5 -162t-228.5 -106q-45 -10 -84 -10q-64 0 -95 29 t-31 71z" />
<glyph unicode="&#xce;" horiz-adv-x="780" d="M9 0l229 1082h392l-230 -1082h-391zM143 1632l518 518l301 -518h-277l-99 167l-167 -167h-276zM254 1151l105 496h391l-105 -496h-391z" />
<glyph unicode="&#xcf;" horiz-adv-x="780" d="M-26 0l229 1081h463l-230 -1081h-462zM184 1799q0 22 5 47q16 75 81 141q70 62 147 62q76 0 119 -61q28 -46 28 -103v-23q-2 -10 -3 -14q-18 -84 -86 -144q-33 -29 -68 -43.5t-74 -14.5q-81 0 -120 59q-29 39 -29 94zM220 1161l106 500h463l-107 -500h-462zM630 1802 q0 18 4 44q9 39 29 74t55 67q68 62 144 62q77 0 120 -61q29 -47 29 -101q0 -18 -4 -40q-17 -82 -86 -144q-34 -27 -70.5 -42t-72.5 -15q-78 0 -120 58q-29 40 -28 98z" />
<glyph unicode="&#xd0;" d="M-82 573l105 493h874l-105 -495l-190 4l-18 -81h332q18 0 46 -1t36 -1q16 0 26 1.5t15 6.5q10 8 20 58q3 17 15 70l83 392q9 42 13 65.5t4 39.5q0 6 -1 13q-7 3 -29.5 5t-50.5 2h-45h-818l104 493h1010q119 0 198 -25.5t116 -73.5q46 -64 46 -177q0 -74 -18 -161 l-163 -763q-26 -120 -68.5 -204t-101 -132.5t-148 -75t-209.5 -26.5h-1010l122 573h-190z" />
<glyph unicode="&#xd1;" d="M0 0l230 1083h489l-230 -1083h-489zM247 1164l107 502h656l163 -592l126 592h490l-355 -1666h-468l-320 1164h-399zM770 1842q22 104 49 164q24 52 61 85q33 27 83 43t118 16q64 0 106.5 -15t65.5 -42q29 -36 29 -105v-15q-2 -11 -2 -17h192q-22 -103 -50 -164 q-24 -51 -59 -83q-33 -27 -84.5 -43t-116.5 -16t-108.5 14.5t-65.5 41.5q-28 34 -28 100q0 18 2 36h-192z" />
<glyph unicode="&#xd2;" d="M74 278q0 74 20 167l136 638h489l-94 -445q-1 -5 -16 -72q-7 -32 -7 -45q0 -10 3 -14q4 -8 35 -8q25 0 47 1t42 2h189q19 0 37.5 -0.5t34.5 -0.5q22 0 35.5 1.5t20.5 6.5q10 9 19.5 59t15.5 71l82 387q7 34 13.5 66.5t6.5 49.5q0 9 -2 15q-9 8 -56 8q-15 0 -32 -0.5 t-35 -0.5h-811q34 160 81 258q42 89 101 139.5t148 77t210 26.5h567q117 0 194.5 -25.5t117.5 -74.5q47 -61 48 -178q0 -74 -20 -166l-165 -776q-26 -124 -70.5 -209.5t-102.5 -133.5t-148 -75t-208 -27h-566q-121 0 -198.5 26t-113.5 76q-24 30 -36 73t-12 103zM811 1984 q0 43 21 75.5t61 55.5q46 28 118 28q23 0 40.5 -1.5t43.5 -7.5q54 -12 106 -37t102 -65.5t79.5 -82t41.5 -84.5q3 -14 4.5 -25t1.5 -24q0 -42 -19.5 -74t-57.5 -56q-50 -30 -121 -30q-41 0 -86 10q-117 26 -206 104q-49 37 -79 76.5t-43 87.5q-2 10 -4.5 24.5t-2.5 25.5z " />
<glyph unicode="&#xd3;" d="M74 278q0 74 20 167l136 638h489l-94 -445q-1 -5 -16 -72q-7 -32 -7 -45q0 -10 3 -14q4 -8 35 -8q25 0 47 1t42 2h189q19 0 37.5 -0.5t34.5 -0.5q22 0 35.5 1.5t20.5 6.5q10 9 19.5 59t15.5 71l82 387q7 34 13.5 66.5t6.5 49.5q0 9 -2 15q-9 8 -56 8q-15 0 -32 -0.5 t-35 -0.5h-811q34 160 81 258q42 89 103 140q56 49 146.5 76.5t210.5 27.5h566q117 0 194.5 -25.5t117.5 -74.5q23 -31 35.5 -75.5t12.5 -102.5q0 -74 -20 -167l-165 -776q-26 -124 -70 -209.5t-102.5 -133.5t-148.5 -75t-208 -27h-566q-121 0 -198.5 26t-113.5 76 q-23 30 -35.5 73.5t-12.5 102.5zM762 1758q0 46 41 108q29 42 75.5 83t115.5 83q68 38 129 63.5t116 37t95 11.5q67 0 107 -29q37 -30 37 -74q0 -46 -40 -107q-32 -44 -80.5 -85.5t-111.5 -78.5q-121 -73 -251 -104q-49 -10 -89 -10q-68 0 -106 29t-38 73z" />
<glyph unicode="&#xd4;" d="M74 275q0 73 20 165l134 632h489l-94 -440q-10 -43 -19 -86q-4 -19 -4 -31q0 -10 3 -13q4 -7 35 -8q14 0 49 1t41 1h190q18 0 35 -0.5t32 -0.5q24 0 38.5 1.5t22.5 9t19 57.5q14 68 14 70l82 382q7 34 13.5 66.5t6.5 48.5q0 9 -3 15q-4 4 -17 5.5t-33 1.5q-16 0 -34 -0.5 t-38 -0.5h-811q34 158 80 255q42 88 103 140q55 48 145.5 74.5t210.5 26.5h566q115 0 193.5 -25t119.5 -73q47 -61 47 -177q0 -71 -19 -165l-163 -767q-26 -123 -69.5 -207t-103 -132.5t-148 -74.5t-207.5 -26h-566q-120 0 -198 26t-114 75q-48 59 -48 174zM553 1632 l621 518l403 -518h-347l-131 167l-201 -167h-345z" />
<glyph unicode="&#xd5;" d="M74 278q0 74 20 167l136 638h489l-94 -445q-8 -36 -15.5 -69t-7.5 -48q0 -10 4 -16t32 -6q26 0 48 1t43 2h189q19 0 37.5 -0.5t34.5 -0.5q22 0 35.5 1.5t20.5 6.5q10 10 20 60.5t15 69.5l82 387q7 34 13.5 66.5t6.5 49.5q0 9 -2 15q-8 8 -52 8q-16 0 -33.5 -0.5 t-37.5 -0.5h-811q34 160 81 258q42 89 103 140q56 49 146.5 76.5t210.5 27.5h566q117 0 194.5 -25.5t117.5 -74.5q23 -31 35.5 -75.5t12.5 -102.5q0 -74 -20 -167l-165 -776q-26 -124 -70 -209.5t-102.5 -133.5t-148.5 -75t-208 -27h-566q-121 0 -198.5 26t-113.5 76 q-23 30 -35.5 73.5t-12.5 102.5zM770 1842q22 104 49 164q24 52 61 85q33 27 83 43t118 16q64 0 106.5 -15t65.5 -42q29 -36 29 -105v-15q-2 -11 -2 -17h192q-22 -103 -50 -164q-24 -51 -59 -83q-33 -27 -84.5 -43t-116.5 -16t-108.5 14.5t-65.5 41.5q-28 34 -28 100 q0 18 2 36h-192z" />
<glyph unicode="&#xd6;" d="M74 278q0 74 20 166l136 637h488l-94 -444q-8 -37 -15 -71t-7 -48q0 -8 3 -14t34 -6q14 0 48.5 1t41.5 1h189q18 0 35 -0.5t33 -0.5q24 0 38 1.5t22 8.5t16 46t18 83l82 386q7 34 13.5 66.5t6.5 48.5q0 10 -1 15q-9 8 -53 8q-16 0 -33.5 -0.5t-36.5 -0.5h-812 q34 160 81 257q42 89 101 139.5t148.5 77t209.5 26.5h567q116 0 194.5 -25.5t118.5 -73.5q47 -61 47 -179q0 -72 -19 -165l-165 -774q-26 -125 -70 -209.5t-102.5 -132.5t-148.5 -75t-208 -27h-566q-121 0 -198.5 26t-113.5 76q-24 30 -36 73t-12 103zM672 1806v24 q2 11 3 16q18 82 88.5 142.5t151.5 60.5t127 -61q32 -46 32 -103q0 -11 -1 -17.5t-3 -20.5q-18 -82 -89 -144q-74 -58 -150 -57q-86 0 -128 59q-31 42 -31 101zM1145 1803q0 20 5 43q16 78 84 142q73 61 152 61q38 0 70 -14t61 -45q16 -25 23 -50.5t7 -53.5v-23l-3 -15 q-18 -82 -90 -145q-35 -27 -74.5 -42t-77.5 -15q-80 0 -126 58q-31 42 -31 99z" />
<glyph unicode="&#xd7;" horiz-adv-x="1428" d="M345 634l225 185l-146 186l387 321l147 -187l225 187l255 -321l-228 -186l148 -185l-390 -322l-146 187l-226 -187z" />
<glyph unicode="&#xd8;" d="M74 276q0 69 19 162l133 628h489l-53 -253l290 332h-709q34 158 80 253q42 88 100.5 137.5t148 76t210.5 26.5h566q117 0 195.5 -25t117.5 -73q48 -60 48 -177q0 -71 -19 -162l-163 -763q-26 -121 -69.5 -206t-102.5 -133t-148 -73.5t-207 -25.5h-566q-120 0 -198 26 t-114 75q-48 59 -48 175zM830 494h87q19 0 37 -0.5t34 -0.5q22 0 36 1.5t20 6.5q10 10 20.5 62.5t13.5 65.5l42 196z" />
<glyph unicode="&#xd9;" d="M74 278q0 74 20 167l136 638h489l-94 -445q-8 -36 -15.5 -69t-7.5 -48q0 -10 4 -16t31 -6q26 0 48.5 1t43.5 2h189q19 0 37.5 -0.5t34.5 -0.5q22 0 35.5 1.5t20.5 6.5q10 9 19.5 59t15.5 71l217 1026h490l-259 -1220q-26 -124 -70.5 -209.5t-102.5 -133.5t-148 -75 t-208 -27h-566q-121 0 -198.5 26t-113.5 76q-24 30 -36 73t-12 103zM247 1164l107 501h488l-106 -501h-489zM811 1984q0 43 21 75.5t61 55.5q46 28 118 28q23 0 40.5 -1.5t43.5 -7.5q54 -12 106 -37t102 -65.5t79.5 -82t41.5 -84.5q3 -14 4.5 -25t1.5 -24q0 -42 -19.5 -74 t-57.5 -56q-50 -30 -121 -30q-41 0 -86 10q-117 26 -206 104q-49 37 -79 76.5t-43 87.5q-2 10 -4.5 24.5t-2.5 25.5z" />
<glyph unicode="&#xda;" d="M74 278q0 74 20 167l136 638h489l-94 -445q-8 -36 -15.5 -69t-7.5 -48q0 -10 4 -16t31 -6q26 0 48.5 1t43.5 2h189q19 0 37.5 -0.5t34.5 -0.5q22 0 35.5 1.5t20.5 6.5q10 9 19.5 59t15.5 71l218 1027h490l-260 -1221q-26 -124 -70 -209.5t-102.5 -133.5t-148.5 -75 t-208 -27h-566q-121 0 -198.5 26t-113.5 76q-23 30 -35.5 73.5t-12.5 102.5zM247 1164l107 502h489l-107 -502h-489zM762 1758q0 46 41 108q29 42 75.5 83t115.5 83q68 38 129 63.5t116 37t95 11.5q67 0 107 -29q37 -30 37 -74q0 -46 -40 -107q-32 -44 -80.5 -85.5 t-111.5 -78.5q-121 -73 -251 -104q-49 -10 -89 -10q-68 0 -106 29t-38 73z" />
<glyph unicode="&#xdb;" d="M74 275q0 73 20 165l134 632h489l-94 -440q-10 -43 -19 -86q-4 -19 -4 -31q0 -10 3 -13q4 -7 35 -8q14 0 49 1t41 1h190q18 0 35 -0.5t32 -0.5q24 0 38.5 1.5t22.5 9t19 57.5q14 68 14 70l216 1014h490l-257 -1207q-26 -123 -69.5 -207t-103 -132.5t-148 -74.5 t-207.5 -26h-566q-120 0 -198 26t-114 75q-48 59 -48 174zM245 1151l105 496h489l-105 -496h-489zM553 1632l621 518l403 -518h-347l-131 167l-201 -167h-345z" />
<glyph unicode="&#xdc;" d="M74 278q0 74 20 166l136 637h488l-94 -444q-8 -37 -15 -71t-7 -48q0 -8 3 -14t34 -6q14 0 48.5 1t41.5 1h189q18 0 35 -0.5t33 -0.5q24 0 38 1.5t22 8.5t16 46t18 83l218 1023h489l-258 -1217q-26 -125 -70 -209.5t-102.5 -132.5t-148.5 -75t-208 -27h-566 q-121 0 -198.5 26t-113.5 76q-24 30 -36 73t-12 103zM246 1161l107 500h489l-107 -500h-489zM672 1806v24q2 11 3 16q18 82 88.5 142.5t151.5 60.5t127 -61q32 -46 32 -103q0 -11 -1 -17.5t-3 -20.5q-18 -82 -89 -144q-74 -58 -150 -57q-86 0 -128 59q-31 42 -31 101z M1145 1803q0 20 5 43q16 78 84 142q73 61 152 61q38 0 70 -14t61 -45q16 -25 23 -50.5t7 -53.5v-23l-3 -15q-18 -82 -90 -145q-35 -27 -74.5 -42t-77.5 -15q-80 0 -126 58q-31 42 -31 99z" />
<glyph unicode="&#xdd;" d="M246 1083h630l55 -73l279 234l89 422h490l-121 -565l-577 -486l-130 -615h-487l130 615zM247 1164l107 502h489l-107 -502h-489zM762 1758q0 46 41 108q29 42 75.5 83t115.5 83q68 38 129 63.5t116 37t95 11.5q67 0 107 -29q37 -30 37 -74q0 -46 -40 -107 q-32 -44 -80.5 -85.5t-111.5 -78.5q-121 -73 -251 -104q-49 -10 -89 -10q-68 0 -106 29t-38 73z" />
<glyph unicode="&#xde;" d="M0 0l348 1638h489l-61 -286h511q118 0 196.5 -26t116.5 -74q49 -60 49 -174q0 -72 -20 -164l-41 -190q-26 -120 -70 -205t-102 -133t-147 -74t-208 -26h-511l-61 -286h-489zM654 780h417q15 0 28.5 -3t15.5 -1q1 1 1 20q0 12 3 25t9 26.5t4 15.5t-16.5 -1.5t-28.5 -3.5 h-416z" />
<glyph unicode="&#xdf;" d="M0 0l226 1066h489l-226 -1066h-489zM243 1145q34 160 79 254q42 88 102 137.5t149 75.5t209 26h564q119 0 196.5 -26t115.5 -74q45 -59 44 -176q0 -69 -16 -160q-25 -121 -66.5 -204.5t-97.5 -133.5q-17 -14 -33.5 -25t-38.5 -21q30 -19 47 -44q45 -59 45 -174 q0 -33 -5 -75t-14 -87q-34 -159 -153 -295q-63 -70 -155.5 -106.5t-214.5 -36.5h-94q-120 0 -197.5 25t-116.5 74q-22 28 -32.5 68t-10.5 99q0 49 6.5 100.5t22.5 127.5h432q14 0 27.5 -3t16.5 -1q2 2 1 8q0 7 0.5 15.5t3.5 21t8.5 26t3.5 16.5q-2 2 -18.5 -1t-26.5 -3h-337 l105 493h338q13 0 21.5 -3.5t16.5 -5.5q3 4 6.5 27t5.5 32.5t7 20t4 12.5t-16.5 -1t-28.5 -3h-905z" />
<glyph unicode="&#xe0;" d="M0 0l230 1083h948l16 81h-947q34 160 81 258q42 89 101 139.5t148.5 77t210.5 26.5h568q118 0 197.5 -26t116.5 -75q43 -63 43 -176q0 -40 -4 -78t-15 -88l-260 -1222h-487l124 582h-457l-124 -582h-490zM811 1984q0 43 21 75.5t61 55.5q46 28 118 28q23 0 40.5 -1.5 t43.5 -7.5q54 -12 106 -37t102 -65.5t79.5 -82t41.5 -84.5q3 -14 4.5 -25t1.5 -24q0 -42 -19.5 -74t-57.5 -56q-50 -30 -121 -30q-41 0 -86 10q-117 26 -206 104q-49 37 -79 76.5t-43 87.5q-2 10 -4.5 24.5t-2.5 25.5z" />
<glyph unicode="&#xe1;" d="M0 0l230 1083h948l16 81h-947q34 160 81 258q42 89 103 140q56 49 147.5 76.5t210.5 27.5h568q119 0 197 -26t116 -76q43 -63 43 -176q0 -40 -4 -78t-15 -88l-260 -1222h-487l124 582h-457l-124 -582h-490zM762 1758q0 46 41 108q29 42 75.5 83t115.5 83q68 38 129 63.5 t116 37t95 11.5q67 0 107 -29q37 -30 37 -74q0 -46 -40 -107q-32 -44 -80.5 -85.5t-111.5 -78.5q-121 -73 -251 -104q-49 -10 -89 -10q-68 0 -106 29t-38 73z" />
<glyph unicode="&#xe2;" d="M0 0l228 1072h947l17 79h-947q34 158 80 255q42 88 100.5 138t149 76.5t210.5 26.5h568q118 0 196.5 -26t116.5 -74q44 -62 44 -177q0 -34 -5 -75t-14 -87l-257 -1208h-487l123 576h-458l-122 -576h-490zM553 1632l621 518l403 -518h-347l-131 167l-201 -167h-345z" />
<glyph unicode="&#xe3;" d="M0 0l230 1083h948l16 81h-947q34 160 81 258q42 89 103 140q56 49 147.5 76.5t210.5 27.5h568q119 0 197 -26t116 -76q43 -63 43 -176q0 -40 -4 -78t-15 -88l-260 -1222h-487l124 582h-457l-124 -582h-490zM770 1842q22 104 49 164q24 52 61 85q33 27 83 43t118 16 q64 0 106.5 -15t65.5 -42q29 -36 29 -105v-15q-2 -11 -2 -17h192q-22 -103 -50 -164q-24 -51 -59 -83q-33 -27 -84.5 -43t-116.5 -16t-108.5 14.5t-65.5 41.5q-28 34 -28 100q0 18 2 36h-192z" />
<glyph unicode="&#xe4;" d="M0 0l230 1081h947l17 80h-948q34 160 81 257q42 89 101 139.5t148.5 77t210.5 26.5h568q118 0 196.5 -26t116.5 -75q44 -62 44 -177q0 -34 -5 -76.5t-13 -88.5l-260 -1218h-487l123 580h-457l-123 -580h-490zM672 1806v24q2 11 3 16q18 82 88.5 142.5t151.5 60.5t127 -61 q32 -46 32 -103q0 -11 -1 -17.5t-3 -20.5q-18 -82 -89 -144q-74 -58 -150 -57q-86 0 -128 59q-31 42 -31 101zM1145 1803q0 20 5 43q16 78 84 142q73 61 152 61q38 0 70 -14t61 -45q16 -25 23 -50.5t7 -53.5v-23l-3 -15q-18 -82 -90 -145q-35 -27 -74.5 -42t-77.5 -15 q-80 0 -126 58q-31 42 -31 99z" />
<glyph unicode="&#xe5;" d="M0 0l231 1089h947l18 80h-947q34 161 81 259q43 90 101.5 140.5t147.5 77.5t211 27h568q119 0 197.5 -26t114.5 -76q44 -62 44 -177q0 -74 -19 -167l-261 -1227h-487l124 585h-457l-124 -585h-490zM795 1926q0 38 8 76q29 138 152 244.5t261 106.5q137 0 217 -105 q57 -75 57 -172q0 -32 -8 -74q-31 -148 -154 -248t-259 -100q-140 0 -217 100q-57 74 -57 172zM1075 1986q0 -19 10 -32q14 -19 45 -19q23 0 50 21q23 17 29 47q2 10 1 14q0 18 -12 32q-18 22 -43 21q-26 0 -49 -20q-11 -9 -18 -20.5t-11 -27.5q-2 -11 -2 -16z" />
<glyph unicode="&#xe6;" horiz-adv-x="1812" d="M0 0l226 1066h668l17 79h-668q34 158 80 254q42 89 102 138t150 75t211 26h1200l-104 -493h-476l-17 -79h285l-104 -493h-286l-17 -79h476l-105 -494h-970l122 573h-175l-121 -573h-494z" />
<glyph unicode="&#xe7;" d="M68 246q0 75 20 168l136 641h489l-95 -445q-9 -42 -17 -83q-4 -20 -4 -30t4 -16q7 -6 26 -7.5t51 -1.5h44h190q19 0 37 -0.5t34 -0.5q22 0 36 1.5t20 7t49 186.5h488l-54 -252q-26 -121 -70.5 -208t-103 -135.5t-147.5 -75t-207 -26.5h-40l-29 -137q-26 -122 -68.5 -207 t-101.5 -135t-148 -77t-209 -27h-245l107 504h190l17 79h-40q-120 0 -196.5 25t-116.5 76q-46 61 -46 176zM242 1135q34 163 80 260q42 89 103 141q58 49 148 75.5t209 26.5h566q120 0 197.5 -26t115.5 -76q23 -31 35 -74.5t12 -102.5q0 -74 -20 -166l-54 -252h-489 q18 81 20 93q14 65 14 80q0 10 -3 13q-7 9 -51 9q-16 0 -34 -0.5t-38 -0.5h-811z" />
<glyph unicode="&#xe8;" d="M0 0l233 1094h1055l-109 -512h-566l-18 -80h942l-107 -502h-1430zM247 1164l107 501h1430l-106 -501h-1431zM811 1984q0 43 21 75.5t61 55.5q46 28 118 28q23 0 40.5 -1.5t43.5 -7.5q54 -12 106 -37t103 -65q97 -81 119 -167q6 -28 7 -50q0 -82 -77 -129 q-50 -30 -121 -30q-41 0 -86 10q-118 26 -206 104q-49 37 -79 76.5t-43 87.5q-2 10 -4.5 24.5t-2.5 25.5z" />
<glyph unicode="&#xe9;" d="M0 0l233 1094h1055l-109 -512h-566l-18 -80h942l-107 -502h-1430zM247 1164l107 502h1431l-107 -502h-1431zM762 1759q0 22 10 48.5t30 58.5q29 42 76.5 83t115.5 83q68 38 129 63.5t116 37t95 11.5q67 0 107 -29q36 -30 36 -74q0 -46 -40 -107q-32 -44 -79.5 -85.5 t-111.5 -78.5q-122 -73 -251 -104q-49 -10 -89 -10q-68 0 -106 29t-38 74z" />
<glyph unicode="&#xea;" d="M0 0l230 1082h1055l-107 -506h-567l-17 -80h942l-106 -496h-1430zM245 1151l105 496h1431l-106 -496h-1430zM552 1632l622 518l403 -518h-347l-131 167l-201 -167h-346z" />
<glyph unicode="&#xeb;" d="M0 0l230 1081h1055l-107 -501h-566l-17 -80h942l-107 -500h-1430zM246 1161l107 500h1430l-106 -500h-1431zM672 1806v24q2 11 3 16q18 82 87 142q36 30 73.5 45.5t79.5 15.5q81 0 127 -61q32 -46 32 -103q0 -11 -1 -17.5t-3 -20.5q-18 -82 -89 -144q-74 -58 -150 -57 q-86 0 -128 59q-31 42 -31 101zM1145 1802q0 21 5 44q16 78 84 142q73 61 152 61q38 0 69.5 -14t60.5 -45q30 -49 30 -104q0 -7 -0.5 -15t-2.5 -23q-17 -82 -89 -145q-35 -27 -74.5 -42t-77.5 -15q-80 0 -126 58q-31 42 -31 98z" />
<glyph unicode="&#xec;" horiz-adv-x="684" d="M-32 0l233 1094h441l-232 -1094h-442zM215 1164l107 502h442l-107 -502h-442zM231 1977q0 46 19 80t56 58q46 29 108 29q37 0 76 -10q97 -24 186 -102q43 -41 69 -82.5t36 -83.5q5 -24 5 -45q0 -43 -19 -77t-54 -58q-22 -15 -49.5 -22.5t-60.5 -7.5q-36 0 -77 10 q-102 26 -184 104q-43 38 -69 77t-38 87q-4 26 -4 43z" />
<glyph unicode="&#xed;" horiz-adv-x="780" d="M0 0l233 1094h441l-232 -1094h-442zM247 1164l107 502h442l-107 -502h-442zM384 1756q0 46 38 108q26 42 69 84t107 85q116 74 229 101q45 10 82 10q32 0 55 -7t39 -22q32 -28 32 -73q1 -47 -37 -108q-58 -86 -175.5 -162t-228.5 -106q-45 -10 -84 -10q-64 0 -95 29 t-31 71z" />
<glyph unicode="&#xee;" horiz-adv-x="780" d="M9 0l229 1082h392l-230 -1082h-391zM143 1632l518 518l301 -518h-277l-99 167l-167 -167h-276zM254 1151l105 496h391l-105 -496h-391z" />
<glyph unicode="&#xef;" horiz-adv-x="780" d="M-26 0l229 1081h463l-230 -1081h-462zM184 1799q0 22 5 47q16 75 81 141q70 62 147 62q76 0 119 -61q28 -46 28 -103v-23q-2 -10 -3 -14q-18 -84 -86 -144q-33 -29 -68 -43.5t-74 -14.5q-81 0 -120 59q-29 39 -29 94zM220 1161l106 500h463l-107 -500h-462zM630 1802 q0 18 4 44q9 39 29 74t55 67q68 62 144 62q77 0 120 -61q29 -47 29 -101q0 -18 -4 -40q-17 -82 -86 -144q-34 -27 -70.5 -42t-72.5 -15q-78 0 -120 58q-29 40 -28 98z" />
<glyph unicode="&#xf0;" d="M-82 573l104 493h875l-105 -495l-190 4l-18 -81h332q18 0 46 -1t36 -1q16 0 26 1.5t15 6.5q10 8 20 58q3 17 15 70l83 392q7 35 12.5 64t5.5 42v6q-2 4 -1 6q-7 4 -28 5.5t-52 1.5h-46h-818l104 493h1010q119 0 198 -25.5t116 -73.5q46 -64 46 -177q0 -74 -18 -161 l-163 -763q-26 -120 -68.5 -204t-101 -132.5t-148 -75t-209.5 -26.5h-1010l122 573h-190z" />
<glyph unicode="&#xf1;" d="M0 0l230 1083h489l-230 -1083h-489zM247 1164l107 502h656l163 -592l126 592h490l-355 -1666h-468l-320 1164h-399zM770 1842q22 104 49 164q24 52 61 85q33 27 83 43t118 16q64 0 106.5 -15t65.5 -42q29 -36 29 -105v-15q-2 -11 -2 -17h192q-22 -103 -50 -164 q-24 -51 -59 -83q-33 -27 -84.5 -43t-116.5 -16t-108.5 14.5t-65.5 41.5q-28 34 -28 100q0 18 2 36h-192z" />
<glyph unicode="&#xf2;" d="M74 278q0 74 20 167l136 638h489l-94 -445q-1 -5 -16 -72q-7 -32 -7 -45q0 -10 3 -14q4 -8 35 -8q25 0 47 1t42 2h189q19 0 37.5 -0.5t34.5 -0.5q22 0 35.5 1.5t20.5 6.5q10 9 19.5 59t15.5 71l82 387q7 34 13.5 66.5t6.5 49.5q0 9 -2 15q-9 8 -56 8q-15 0 -32 -0.5 t-35 -0.5h-811q34 160 81 258q42 89 101 139.5t148 77t210 26.5h567q117 0 194.5 -25.5t117.5 -74.5q47 -61 48 -178q0 -74 -20 -166l-165 -776q-26 -124 -70.5 -209.5t-102.5 -133.5t-148 -75t-208 -27h-566q-121 0 -198.5 26t-113.5 76q-24 30 -36 73t-12 103zM811 1984 q0 43 21 75.5t61 55.5q46 28 118 28q23 0 40.5 -1.5t43.5 -7.5q54 -12 106 -37t102 -65.5t79.5 -82t41.5 -84.5q3 -14 4.5 -25t1.5 -24q0 -42 -19.5 -74t-57.5 -56q-50 -30 -121 -30q-41 0 -86 10q-117 26 -206 104q-49 37 -79 76.5t-43 87.5q-2 10 -4.5 24.5t-2.5 25.5z " />
<glyph unicode="&#xf3;" d="M74 278q0 74 20 167l136 638h489l-94 -445q-1 -5 -16 -72q-7 -32 -7 -45q0 -10 3 -14q4 -8 35 -8q25 0 47 1t42 2h189q19 0 37.5 -0.5t34.5 -0.5q22 0 35.5 1.5t20.5 6.5q10 9 19.5 59t15.5 71l82 387q7 34 13.5 66.5t6.5 49.5q0 9 -2 15q-9 8 -56 8q-15 0 -32 -0.5 t-35 -0.5h-811q34 160 81 258q42 89 103 140q56 49 146.5 76.5t210.5 27.5h566q117 0 194.5 -25.5t117.5 -74.5q23 -31 35.5 -75.5t12.5 -102.5q0 -74 -20 -167l-165 -776q-26 -124 -70 -209.5t-102.5 -133.5t-148.5 -75t-208 -27h-566q-121 0 -198.5 26t-113.5 76 q-23 30 -35.5 73.5t-12.5 102.5zM762 1758q0 46 41 108q29 42 75.5 83t115.5 83q68 38 129 63.5t116 37t95 11.5q67 0 107 -29q37 -30 37 -74q0 -46 -40 -107q-32 -44 -80.5 -85.5t-111.5 -78.5q-121 -73 -251 -104q-49 -10 -89 -10q-68 0 -106 29t-38 73z" />
<glyph unicode="&#xf4;" d="M74 275q0 73 20 165l134 632h489l-94 -440q-10 -43 -19 -86q-4 -19 -4 -31q0 -10 3 -13q4 -7 35 -8q14 0 49 1t41 1h190q18 0 35 -0.5t32 -0.5q24 0 38.5 1.5t22.5 9t19 57.5q14 68 14 70l82 382q7 34 13.5 66.5t6.5 48.5q0 9 -3 15q-4 4 -17 5.5t-33 1.5q-16 0 -34 -0.5 t-38 -0.5h-811q34 158 80 255q42 88 103 140q55 48 145.5 74.5t210.5 26.5h566q115 0 193.5 -25t119.5 -73q47 -61 47 -177q0 -71 -19 -165l-163 -767q-26 -123 -69.5 -207t-103 -132.5t-148 -74.5t-207.5 -26h-566q-120 0 -198 26t-114 75q-48 59 -48 174zM553 1632 l621 518l403 -518h-347l-131 167l-201 -167h-345z" />
<glyph unicode="&#xf5;" d="M74 278q0 74 20 167l136 638h489l-94 -445q-8 -36 -15.5 -69t-7.5 -48q0 -10 4 -16t32 -6q26 0 48 1t43 2h189q19 0 37.5 -0.5t34.5 -0.5q22 0 35.5 1.5t20.5 6.5q10 10 20 60.5t15 69.5l82 387q7 34 13.5 66.5t6.5 49.5q0 9 -2 15q-8 8 -52 8q-16 0 -33.5 -0.5 t-37.5 -0.5h-811q34 160 81 258q42 89 103 140q56 49 146.5 76.5t210.5 27.5h566q117 0 194.5 -25.5t117.5 -74.5q23 -31 35.5 -75.5t12.5 -102.5q0 -74 -20 -167l-165 -776q-26 -124 -70 -209.5t-102.5 -133.5t-148.5 -75t-208 -27h-566q-121 0 -198.5 26t-113.5 76 q-23 30 -35.5 73.5t-12.5 102.5zM770 1842q22 104 49 164q24 52 61 85q33 27 83 43t118 16q64 0 106.5 -15t65.5 -42q29 -36 29 -105v-15q-2 -11 -2 -17h192q-22 -103 -50 -164q-24 -51 -59 -83q-33 -27 -84.5 -43t-116.5 -16t-108.5 14.5t-65.5 41.5q-28 34 -28 100 q0 18 2 36h-192z" />
<glyph unicode="&#xf6;" d="M74 278q0 74 20 166l136 637h488l-94 -444q-8 -37 -15 -71t-7 -48q0 -8 3 -14t34 -6q14 0 48.5 1t41.5 1h189q18 0 35 -0.5t33 -0.5q24 0 38 1.5t22 8.5t16 46t18 83l82 386q7 34 13.5 66.5t6.5 48.5q0 10 -1 15q-9 8 -53 8q-16 0 -33.5 -0.5t-36.5 -0.5h-812 q34 160 81 257q42 89 101 139.5t148.5 77t209.5 26.5h567q116 0 194.5 -25.5t118.5 -73.5q47 -61 47 -179q0 -72 -19 -165l-165 -774q-26 -125 -70 -209.5t-102.5 -132.5t-148.5 -75t-208 -27h-566q-121 0 -198.5 26t-113.5 76q-24 30 -36 73t-12 103zM672 1806v24 q2 11 3 16q18 82 88.5 142.5t151.5 60.5t127 -61q32 -46 32 -103q0 -11 -1 -17.5t-3 -20.5q-18 -82 -89 -144q-74 -58 -150 -57q-86 0 -128 59q-31 42 -31 101zM1145 1803q0 20 5 43q16 78 84 142q73 61 152 61q38 0 70 -14t61 -45q16 -25 23 -50.5t7 -53.5v-23l-3 -15 q-18 -82 -90 -145q-35 -27 -74.5 -42t-77.5 -15q-80 0 -126 58q-31 42 -31 99z" />
<glyph unicode="&#xf7;" horiz-adv-x="1428" d="M328 575l104 489h1023l-104 -489h-1023zM549 291q0 17 0.5 26.5t4.5 28.5q11 51 36.5 93.5t67.5 78.5q86 74 184 74q95 0 152 -73q40 -51 40 -117q-1 -26 -7 -56q-11 -50 -37 -93t-69 -79q-84 -72 -183 -72q-97 0 -153 72q-36 50 -36 117zM750 1237q0 17 0.5 26.5 t4.5 28.5q11 50 36.5 92.5t67.5 79.5q86 72 184 72t152 -72q39 -50 39 -117q0 -25 -6 -55q-22 -101 -107 -174q-42 -34 -88 -52t-94 -18q-96 0 -153 70q-37 50 -36 119z" />
<glyph unicode="&#xf8;" d="M74 276q0 69 19 162l133 628h489l-53 -253l290 332h-709q34 158 80 253q42 88 100.5 137.5t148 76t210.5 26.5h566q117 0 195.5 -25t117.5 -73q48 -60 48 -177q0 -71 -19 -162l-163 -763q-26 -121 -69.5 -206t-102.5 -133t-148 -73.5t-207 -25.5h-566q-120 0 -198 26 t-114 75q-48 59 -48 175zM830 494h87q19 0 37 -0.5t34 -0.5q22 0 36 1.5t20 6.5q10 10 20.5 62.5t13.5 65.5l42 196z" />
<glyph unicode="&#xf9;" d="M74 278q0 74 20 167l136 638h489l-94 -445q-1 -5 -16 -72q-7 -32 -7 -45q0 -10 3 -14q4 -8 35 -8q25 0 47 1t42 2h189q19 0 37.5 -0.5t34.5 -0.5q22 0 35.5 1.5t20.5 6.5q10 9 19.5 59t15.5 71l217 1026h490l-259 -1220q-26 -124 -70.5 -209.5t-102.5 -133.5t-148 -75 t-208 -27h-566q-121 0 -198.5 26t-113.5 76q-24 30 -36 73t-12 103zM247 1164l107 501h488l-106 -501h-489zM811 1984q0 43 21 75.5t61 55.5q46 28 118 28q23 0 40.5 -1.5t43.5 -7.5q54 -12 106 -37t102 -65.5t79.5 -82t41.5 -84.5q3 -14 4.5 -25t1.5 -24q0 -42 -19.5 -74 t-57.5 -56q-50 -30 -121 -30q-41 0 -86 10q-117 26 -206 104q-49 37 -79 76.5t-43 87.5q-2 10 -4.5 24.5t-2.5 25.5z" />
<glyph unicode="&#xfa;" d="M74 278q0 74 20 167l136 638h489l-94 -445q-8 -36 -15.5 -69t-7.5 -48q0 -10 4 -16t31 -6q26 0 48.5 1t43.5 2h189q19 0 37.5 -0.5t34.5 -0.5q22 0 35.5 1.5t20.5 6.5q10 9 19.5 59t15.5 71l217 1026h490l-259 -1220q-26 -124 -70.5 -209.5t-102.5 -133.5t-148 -75 t-208 -27h-566q-121 0 -198.5 26t-113.5 76q-24 30 -36 73t-12 103zM247 1164l107 501h488l-106 -501h-489zM811 1984q0 43 21 75.5t61 55.5q46 28 118 28q23 0 40.5 -1.5t43.5 -7.5q54 -12 106 -37t102 -65.5t79.5 -82t41.5 -84.5q3 -14 4.5 -25t1.5 -24q0 -42 -19.5 -74 t-57.5 -56q-50 -30 -121 -30q-41 0 -86 10q-117 26 -206 104q-49 37 -79 76.5t-43 87.5q-2 10 -4.5 24.5t-2.5 25.5z" />
<glyph unicode="&#xfb;" d="M74 275q0 73 20 165l134 632h489l-94 -440q-10 -43 -19 -86q-4 -19 -4 -31q0 -10 3 -13q4 -7 35 -8q14 0 49 1t41 1h190q18 0 35 -0.5t32 -0.5q24 0 38.5 1.5t22.5 9t19 57.5q14 68 14 70l216 1014h490l-257 -1207q-26 -123 -69.5 -207t-103 -132.5t-148 -74.5 t-207.5 -26h-566q-120 0 -198 26t-114 75q-48 59 -48 174zM245 1151l105 496h489l-105 -496h-489zM553 1632l621 518l403 -518h-347l-131 167l-201 -167h-345z" />
<glyph unicode="&#xfc;" d="M74 278q0 74 20 166l136 637h488l-94 -444q-8 -37 -15 -71t-7 -48q0 -8 3 -14t34 -6q14 0 48.5 1t41.5 1h189q18 0 35 -0.5t33 -0.5q24 0 38 1.5t22 8.5t16 46t18 83l218 1023h489l-258 -1217q-26 -125 -70 -209.5t-102.5 -132.5t-148.5 -75t-208 -27h-566 q-121 0 -198.5 26t-113.5 76q-24 30 -36 73t-12 103zM246 1161l107 500h489l-107 -500h-489zM672 1806v24q2 11 3 16q18 82 88.5 142.5t151.5 60.5t127 -61q32 -46 32 -103q0 -11 -1 -17.5t-3 -20.5q-18 -82 -89 -144q-74 -58 -150 -57q-86 0 -128 59q-31 42 -31 101z M1145 1803q0 20 5 43q16 78 84 142q73 61 152 61q38 0 70 -14t61 -45q16 -25 23 -50.5t7 -53.5v-23l-3 -15q-18 -82 -90 -145q-35 -27 -74.5 -42t-77.5 -15q-80 0 -126 58q-31 42 -31 99z" />
<glyph unicode="&#xfd;" d="M246 1083h630l55 -73l279 234l89 422h490l-121 -565l-577 -486l-130 -615h-487l130 615zM247 1164l107 502h489l-107 -502h-489zM762 1758q0 46 41 108q29 42 75.5 83t115.5 83q68 38 129 63.5t116 37t95 11.5q67 0 107 -29q37 -30 37 -74q0 -46 -40 -107 q-32 -44 -80.5 -85.5t-111.5 -78.5q-121 -73 -251 -104q-49 -10 -89 -10q-68 0 -106 29t-38 73z" />
<glyph unicode="&#xfe;" d="M0 0l348 1638h489l-61 -286h511q118 0 196.5 -26t116.5 -74q49 -60 49 -174q0 -72 -20 -164l-41 -190q-26 -120 -70 -205t-102 -133t-147 -74t-208 -26h-511l-61 -286h-489zM654 780h417q15 0 28.5 -3t15.5 -1q1 1 1 20q0 12 3 25t9 26.5t4 15.5t-16.5 -1.5t-28.5 -3.5 h-416z" />
<glyph unicode="&#xff;" d="M246 1081h629l56 -74l278 234l89 420h489l-119 -563l-577 -484l-130 -614h-487l130 614zM246 1161l107 500h489l-107 -500h-489zM672 1806v24q2 11 3 16q18 82 88.5 142.5t151.5 60.5t127 -61q32 -46 32 -103q0 -11 -1 -17.5t-3 -20.5q-18 -82 -89 -144q-74 -58 -150 -57 q-86 0 -128 59q-31 42 -31 101zM1145 1803q0 20 5 43q16 78 84 142q73 61 152 61q38 0 70 -14t61 -45q16 -25 23 -50.5t7 -53.5v-23l-3 -15q-18 -82 -90 -145q-35 -27 -74.5 -42t-77.5 -15q-80 0 -126 58q-31 42 -31 99z" />
<glyph unicode="&#x152;" horiz-adv-x="1812" d="M74 275q0 75 19 163l162 763q26 120 69 204t102 132.5t149 74.5t211 26h1200l-104 -493h-573l-17 -79h382l-104 -493h-383l-17 -79h573l-105 -494h-628h-572q-119 0 -199.5 26t-118.5 74q-46 60 -46 175zM603 512q0 -9 3.5 -13t19 -5t52.5 -1l138 653h-47 q-19 -2 -27.5 -9t-15.5 -40q-10 -50 -18 -87l-81 -382q-13 -53 -17 -72q-7 -31 -7 -44z" />
<glyph unicode="&#x153;" horiz-adv-x="1812" d="M74 275q0 75 19 163l162 763q26 120 69 204t102 132.5t149 74.5t211 26h1200l-104 -493h-573l-17 -79h382l-104 -493h-383l-17 -79h573l-105 -494h-628h-572q-119 0 -199.5 26t-118.5 74q-46 60 -46 175zM603 512q0 -9 3.5 -13t19 -5t52.5 -1l138 653h-47 q-19 -2 -27.5 -9t-15.5 -40q-10 -50 -18 -87l-81 -382q-13 -53 -17 -72q-7 -31 -7 -44z" />
<glyph unicode="&#x178;" d="M246 1081h629l56 -74l278 234l89 420h489l-119 -563l-577 -484l-130 -614h-487l130 614zM246 1161l107 500h489l-107 -500h-489zM672 1806v24q2 11 3 16q18 82 88.5 142.5t151.5 60.5t127 -61q32 -46 32 -103q0 -11 -1 -17.5t-3 -20.5q-18 -82 -89 -144q-74 -58 -150 -57 q-86 0 -128 59q-31 42 -31 101zM1145 1803q0 20 5 43q16 78 84 142q73 61 152 61q38 0 70 -14t61 -45q16 -25 23 -50.5t7 -53.5v-23l-3 -15q-18 -82 -90 -145q-35 -27 -74.5 -42t-77.5 -15q-80 0 -126 58q-31 42 -31 99z" />
<glyph unicode="&#x2c6;" horiz-adv-x="1464" d="M568 1229l497 409l323 -409h-278l-104 133l-160 -133h-278z" />
<glyph unicode="&#x2dc;" horiz-adv-x="1272" d="M704 1386q19 89 42 136q21 42 55 68q30 22 74 35t103 13q114 0 160 -48q14 -16 20 -43t6 -68h174q-18 -86 -42 -134q-21 -42 -52 -66.5t-74.5 -37t-104.5 -12.5q-62 0 -100.5 12t-59.5 36q-14 15 -20.5 42t-6.5 67h-174z" />
<glyph unicode="&#x2000;" horiz-adv-x="1176" />
<glyph unicode="&#x2001;" horiz-adv-x="2353" />
<glyph unicode="&#x2002;" horiz-adv-x="1176" />
<glyph unicode="&#x2003;" horiz-adv-x="2353" />
<glyph unicode="&#x2004;" horiz-adv-x="784" />
<glyph unicode="&#x2005;" horiz-adv-x="588" />
<glyph unicode="&#x2006;" horiz-adv-x="392" />
<glyph unicode="&#x2007;" horiz-adv-x="392" />
<glyph unicode="&#x2008;" horiz-adv-x="294" />
<glyph unicode="&#x2009;" horiz-adv-x="470" />
<glyph unicode="&#x200a;" horiz-adv-x="130" />
<glyph unicode="&#x2010;" horiz-adv-x="1228" d="M130 614l88 410h1024l-88 -410h-1024z" />
<glyph unicode="&#x2011;" horiz-adv-x="1228" d="M130 614l88 410h1024l-88 -410h-1024z" />
<glyph unicode="&#x2012;" horiz-adv-x="1228" d="M130 614l88 410h1024l-88 -410h-1024z" />
<glyph unicode="&#x2013;" d="M130 614l88 411h1434l-87 -411h-1435z" />
<glyph unicode="&#x2014;" horiz-adv-x="1908" d="M130 614l88 411h2048l-87 -411h-2049z" />
<glyph unicode="&#x2018;" horiz-adv-x="618" d="M300 1321q0 57 8.5 106t25.5 95q21 60 51 88t66 28q27 0 51 -22q26 -26 44 -76q28 -82 28 -197q0 -56 -9 -106t-26 -97q-22 -59 -55 -89q-30 -27 -63 -27q-28 0 -51 22q-26 25 -44 76q-13 38 -19.5 89.5t-6.5 109.5z" />
<glyph unicode="&#x2019;" horiz-adv-x="618" d="M253 1139q0 42 12.5 89.5t39.5 113.5q46 114 110 198q38 50 73 74t64 24q33 0 50.5 -27.5t17.5 -88.5q0 -42 -12.5 -90t-37.5 -110.5t-52 -109.5t-60 -90q-38 -50 -73 -74t-63 -24q-33 0 -51 27t-18 88z" />
<glyph unicode="&#x201a;" horiz-adv-x="606" d="M-14 -120q0 52 13 115.5t32 113t48 94.5q34 54 68.5 79t70.5 25q33 0 58 -24.5t37 -77.5q8 -37 8 -81q0 -55 -14 -123q-24 -116 -81 -203q-33 -53 -68 -78t-69 -25q-35 0 -59 24q-26 26 -35 70.5t-9 90.5z" />
<glyph unicode="&#x201c;" horiz-adv-x="1080" d="M305 1363q0 89 33 162q27 58 66 85.5t88 27.5q38 0 74 -23t68 -70q26 -38 42 -88.5t23 -110.5q0 -65 -7 -115.5t-25 -92.5q-28 -58 -67 -86t-86 -28q-42 0 -77.5 22.5t-66.5 71.5q-51 80 -63 199q-2 24 -2 46zM685 1363q0 89 33 162q28 58 66 85.5t87 27.5 q39 0 75.5 -22.5t67.5 -71.5q26 -41 42 -90.5t22 -107.5q0 -74 -5.5 -120t-25.5 -88q-28 -58 -66.5 -86t-87.5 -28q-41 0 -76.5 22.5t-66.5 71.5q-52 82 -63 199q-2 24 -2 46z" />
<glyph unicode="&#x201d;" horiz-adv-x="1080" d="M255 1137q0 45 14 97t45 112q59 116 147 199q50 47 97 70t87 23q49 0 77 -27.5t28 -85.5q0 -46 -14 -97t-43.5 -110t-66 -109t-80.5 -92q-53 -48 -98.5 -70.5t-85.5 -22.5q-50 0 -77 26q-30 29 -30 87zM637 1137q0 50 12.5 99t44.5 110q59 119 148 199q50 48 96 70.5 t86 22.5q50 0 78 -27.5t28 -85.5q0 -46 -14 -97t-43 -110q-59 -117 -149 -200q-50 -47 -96 -70.5t-87 -23.5q-48 0 -75 26q-30 29 -29 87z" />
<glyph unicode="&#x201e;" horiz-adv-x="990" d="M-33 -211q0 48 11 110q24 112 87 203q38 52 79 78t82 26t70.5 -25t46.5 -79q14 -45 14 -94q0 -46 -13 -108q-26 -120 -87 -205q-38 -53 -78.5 -78t-81.5 -25q-42 0 -72.5 25t-45.5 79q-12 42 -12 93zM317 -213q0 46 13 112q25 118 86 203q38 54 78 79t83 25 q41 0 71 -25.5t46 -78.5q13 -42 12 -96q0 -48 -11 -106q-24 -114 -87 -204q-37 -53 -78 -78.5t-83 -25.5t-71.5 25t-45.5 78q-13 43 -13 92z" />
<glyph unicode="&#x2022;" horiz-adv-x="1080" d="M682 774q0 22 5 46q18 82 89 144q34 28 75 44t83 16q43 0 75 -14t57 -45q35 -43 35 -101q0 -21 -5 -44q-18 -84 -92 -145t-156 -61q-85 0 -134 61q-32 42 -32 99z" />
<glyph unicode="&#x2026;" d="M30 129q0 12 3 24q12 62 78.5 108t149.5 46q80 0 128 -45q38 -35 38 -82q0 -12 -2 -26q-7 -34 -27 -60.5t-56 -48.5q-66 -45 -145 -45q-82 0 -130 45q-37 36 -37 84zM500 127q0 10 1 16q2 7 2 11q14 64 80.5 108.5t146.5 44.5q39 0 71 -10.5t58 -34.5q38 -35 38 -85v-11 q-2 -8 -2 -12q-14 -66 -82.5 -110t-146.5 -44q-79 0 -129 45q-37 34 -37 82zM970 127q0 13 2 27q14 63 80 108t148 45q79 0 129 -45q38 -35 37 -84q0 -12 -2 -24q-14 -66 -82 -109q-34 -22 -71 -33.5t-75 -11.5q-79 0 -128 44q-38 36 -38 83z" />
<glyph unicode="&#x202f;" horiz-adv-x="470" />
<glyph unicode="&#x2039;" horiz-adv-x="1182" d="M174 821l1074 715l-83 -392l-475 -324l336 -326l-83 -392z" />
<glyph unicode="&#x203a;" horiz-adv-x="1182" d="M22 102l83 392l476 326l-338 324l83 392l770 -715z" />
<glyph unicode="&#x205f;" horiz-adv-x="588" />
<glyph unicode="&#x2122;" d="M288 1354l60 284h714l-60 -284h-216l-113 -534h-283l114 534h-216zM808 820l117 550h283l-117 -550h-283zM922 1354l60 284h300l71 -139l128 139h301l-173 -818h-283l84 401l32 37l-92 -438h-284l93 438l-41 96h-196z" />
</font>
</defs>
</svg>
