<?xml version="1.0" standalone="no"?>
<!DOCTYPE svg PUBLIC "-//W3C//DTD SVG 1.1//EN" "http://www.w3.org/Graphics/SVG/1.1/DTD/svg11.dtd" >
<svg xmlns="http://www.w3.org/2000/svg">
<metadata></metadata>
<defs>
<font id="collegiateborderflfregular" horiz-adv-x="1419" >
<font-face units-per-em="2048" ascent="1638" descent="-410" />
<missing-glyph horiz-adv-x="593" />
<glyph horiz-adv-x="2048" />
<glyph horiz-adv-x="2048" />
<glyph unicode="&#xd;" horiz-adv-x="2048" />
<glyph unicode=" "  horiz-adv-x="593" />
<glyph unicode="&#x09;" horiz-adv-x="593" />
<glyph unicode="&#xa0;" horiz-adv-x="593" />
<glyph unicode="!" horiz-adv-x="591" d="M0 0h469v385h-469v-385zM0 512h469v1194h-469v-1194zM16 16v351h437v-351h-437zM16 528v1162h437v-1162h-437z" />
<glyph unicode="&#x22;" horiz-adv-x="733" d="M0 1221h272v485h-272v-485zM16 1237v453h240v-453h-240zM367 1221h274v485h-274v-485zM385 1237v453h238v-453h-238z" />
<glyph unicode="#" horiz-adv-x="1658" d="M0 649h307v-239h375v239h172v-239h375v239h307v307h-307v205h307v307h-307v238h-375v-238h-172v238h-375v-238h-307v-307h307v-205h-307v-307zM16 666v272h308v240h-308v272h308v240h342v-240h204v240h342v-240h308v-272h-308v-240h308v-272h-308v-240h-342v240h-204 v-240h-342v240h-308zM666 938h204v240h-204v-240zM682 956v205h172v-205h-172z" />
<glyph unicode="$" d="M0 383l272 -274h134v-109h223v109h51v-109h221v109h123l272 274v348l-272 273h-500l-55 55v172l55 55h250l53 -55v-170h469v264l-272 272h-123v109h-221v-109h-51v109h-223v-109h-134l-272 -272v-356l272 -275h502l53 -53v-164l-53 -55h-250l-55 55v162h-469v-256z M16 391v230h437v-154l61 -61h270l62 61v184l-62 62h-501l-267 264v340l267 264h141v109h186v-109h86v109h189v-109h131l264 -264v-240h-434v164l-62 62h-270l-61 -62v-192l61 -62h502l264 -264v-332l-264 -264h-131v-111h-189v111h-86v-111h-186v111h-141z" />
<glyph unicode="&#x26;" d="M0 383l272 -274h181v-109h393v109h178l272 274v248h-469v-82l-53 -55h-250l-55 55v78l55 55h211v344h-211l-55 55v78l55 55h250l53 -55v-119h469v285l-272 272h-178v109h-393v-109h-181l-272 -272v-397l74 -74l-74 -74v-397zM16 391v381l82 82l-82 82v381l267 264h186 v109h358v-109h189l264 -264v-258h-434v110l-62 62h-270l-61 -62v-98l61 -61h205v-312h-205l-61 -61v-98l61 -62h270l62 62v75h434v-223l-264 -264h-189v-111h-358v111h-186z" />
<glyph unicode="'" horiz-adv-x="366" d="M0 1221h272v485h-272v-485zM16 1237v453h240v-453h-240z" />
<glyph unicode="," horiz-adv-x="591" d="M0 0h160v-309l309 309v385h-469v-385zM16 16v351h437v-357l-275 -274v280h-162z" />
<glyph unicode="-" horiz-adv-x="802" d="M0 662h674v385h-674v-385zM16 680v350h641v-350h-641z" />
<glyph unicode="." horiz-adv-x="563" d="M0 0h436v436h-436v-436zM16 16v402h400v-402h-400z" />
<glyph unicode="/" horiz-adv-x="1355" d="M0 0h469l854 1706h-469zM27 16l837 1674h432l-837 -1674h-432z" />
<glyph unicode="0" horiz-adv-x="1429" d="M0 272l272 -272h752l272 272v1162l-272 272h-752l-272 -272v-1162zM16 283v1142l267 265h733l264 -265v-1142l-264 -267h-733zM453 428l61 -61h270l62 61v850l-62 61h-270l-61 -61v-850zM469 438v830l55 55h250l53 -55v-830l-53 -53h-250z" />
<glyph unicode="1" horiz-adv-x="948" d="M0 0h854v385h-172v1321h-365l-317 -317v-271h213v-733h-213v-385zM16 16v351h215v768h-215v247l308 308h342v-1323h170v-351h-820z" />
<glyph unicode="2" horiz-adv-x="1351" d="M0 0h1229v442h-541l541 541v451l-273 272h-684l-272 -272v-338h469v172l55 55h181l55 -55v-111l-760 -760v-397zM16 16v375l760 760v127l-61 61h-201l-61 -61v-166h-437v313l267 265h665l264 -265v-436l-563 -563h563v-410h-1196z" />
<glyph unicode="3" d="M0 272l272 -272h752l272 272v508l-71 74l71 74v506l-272 272h-752l-272 -272v-283h469v117l55 55h250l53 -55v-164l-53 -53h-213v-394h213l53 -55v-164l-53 -53h-250l-55 53v84h-469v-250zM16 283v223h437v-78l61 -61h270l62 61v184l-62 62h-204v358h204l62 62v184 l-62 61h-270l-61 -61v-111h-437v258l267 265h733l264 -265v-489l-82 -82l82 -82v-489l-264 -267h-733z" />
<glyph unicode="4" horiz-adv-x="1382" d="M0 512h641v-127h-102v-385h675v385h-102v127h176v385h-176v809h-418l-694 -694v-500zM16 528v478l686 684h392v-811h178v-351h-178v-161h102v-351h-639v351h102v161h-643zM477 879h182v182zM520 897l121 121v-121h-121z" />
<glyph unicode="5" d="M0 272l272 -272h752l272 272v643l-256 256h-516l-55 54v98h827v383h-1296v-645l272 -273h502l53 -55v-295l-53 -53h-250l-55 53v140h-469v-306zM16 283v276h437v-131l61 -61h270l62 61v315l-62 62h-501l-267 266v619h1264v-351h-827v-125l61 -61h516l250 -246v-624 l-264 -267h-733z" />
<glyph unicode="6" d="M0 272l272 -272h752l272 272v480l-272 272h-555v244l55 55h250l53 -55v-113h469v279l-272 272h-752l-272 -272v-1162zM16 283v1142l267 265h733l264 -265v-251h-434v104l-62 61h-270l-61 -61v-270h563l264 -265v-460l-264 -267h-733zM453 428l61 -61h270l62 61v168 l-62 61h-270l-61 -61v-168zM469 438v148l55 55h250l53 -55v-148l-53 -53h-250z" />
<glyph unicode="7" horiz-adv-x="1357" d="M0 1221h385v102h369l-492 -1323h492l512 1378v328h-1266v-485zM16 1237v453h1231v-304l-506 -1370h-452l489 1323h-411v-102h-351z" />
<glyph unicode="8" horiz-adv-x="1449" d="M35 272l272 -272h746l274 272v473l-108 109l108 107v473l-274 272h-746l-272 -272v-473l106 -107l-106 -109v-473zM51 283v454l117 117l-117 115v456l264 265h729l265 -265v-456l-115 -115l115 -117v-454l-265 -267h-729zM508 428l61 -61h222l61 61v188l-61 62h-222 l-61 -62v-188zM508 1092l61 -62h222l61 62v186l-61 61h-222l-61 -61v-186zM526 438v168l54 56h200l56 -56v-168l-56 -53h-200zM526 1102v166l54 55h200l56 -55v-166l-56 -55h-200z" />
<glyph unicode="9" horiz-adv-x="1458" d="M0 272l272 -272h789l274 272v1162l-274 272h-789l-272 -272v-478l272 -274h594v-244l-55 -53h-287l-55 53v111h-469v-277zM16 283v249h437v-104l61 -61h307l62 61v272h-600l-267 265v460l267 265h770l264 -265v-1142l-264 -267h-768zM453 1112l61 -61h307l62 61v166 l-62 61h-307l-61 -61v-166zM469 1122v146l55 55h287l55 -55v-146l-55 -55h-287z" />
<glyph unicode=":" horiz-adv-x="591" d="M0 0h469v385h-469v-385zM0 981h469v385h-469v-385zM16 16v351h437v-351h-437zM16 999v349h437v-349h-437z" />
<glyph unicode=";" horiz-adv-x="591" d="M0 0h160v-309l309 309v385h-469v-385zM0 981h469v385h-469v-385zM16 16v351h437v-357l-275 -274v280h-162zM16 999v349h437v-349h-437z" />
<glyph unicode="?" horiz-adv-x="1300" d="M0 1096h469v139l55 53h133l56 -53v-98l-381 -381v-289h512v180l334 334v455l-273 270h-633l-272 -272v-338zM16 1112v313l267 265h614l264 -263v-438l-336 -336v-170h-477v267l381 380v115l-61 62h-154l-61 -62v-133h-437zM332 0h512v385h-512v-385zM348 16v351h477v-351 h-477z" />
<glyph unicode="A" horiz-adv-x="1669" d="M0 0h653v385h-55l27 78h325l27 -78h-57v-385h655v385h-102l-312 938h86v383h-907v-383h76l-314 -938h-102v-385zM16 16v351h99l323 972h-82v351h875v-351h-94l323 -972h99v-351h-621v351h61l-36 112h-353l-37 -112h64v-351h-621zM709 772h157l-80 236zM733 788l53 164 l58 -164h-111z" />
<glyph unicode="B" horiz-adv-x="1449" d="M0 0h1057l272 272v500l-112 113l112 112v437l-272 272h-1057v-383h102v-938h-102v-385zM16 16v351h103v972h-103v351h1033l264 -265v-419l-121 -121l121 -121v-481l-264 -267h-1033zM555 367h260l62 61v219l-62 62h-260v-342zM555 1059h260l62 61v158l-62 61h-260v-280z M571 385v307h234l55 -55v-199l-55 -53h-234zM571 1075v248h234l55 -55v-138l-55 -55h-234z" />
<glyph unicode="C" horiz-adv-x="1429" d="M0 272l272 -272h752l272 272v371h-469v-205l-53 -53h-250l-55 53v830l55 55h250l53 -55v-217h469v383l-272 272h-752l-272 -272v-1162zM16 283v1142l267 265h733l264 -265v-356h-434v209l-62 61h-270l-61 -61v-850l61 -61h270l62 61v199h434v-344l-264 -267h-733z" />
<glyph unicode="D" horiz-adv-x="1462" d="M0 0h1057l272 272v1162l-272 272h-1057v-383h102v-938h-102v-385zM16 16v351h103v972h-103v351h1033l264 -265v-1142l-264 -267h-1033zM555 367h260l62 61v850l-62 61h-260v-972zM571 385v938h234l55 -55v-830l-55 -53h-234z" />
<glyph unicode="E" horiz-adv-x="1378" d="M0 0h1255v453h-385v-68h-299v277h70v-68h383v518h-383v-68h-70v279h299v-68h385v451h-1255v-383h102v-938h-102v-385zM16 16v351h103v972h-103v351h1221v-418h-350v67h-332v-311h102v68h351v-486h-351v70h-102v-313h332v69h350v-420h-1221z" />
<glyph unicode="F" horiz-adv-x="1347" d="M0 0h768v385h-197v277h70v-68h383v518h-383v-68h-70v279h299v-68h385v451h-1255v-383h102v-938h-102v-385zM16 16v351h103v972h-103v351h1221v-418h-350v67h-332v-311h102v68h351v-486h-351v70h-102v-313h197v-351h-736z" />
<glyph unicode="G" horiz-adv-x="1433" d="M0 272l272 -272h748l274 272v676h-600v-348h131v-162l-55 -53h-246l-55 53v830l55 55h246l55 -55v-217h469v383l-274 272h-748l-272 -272v-1162zM16 283v1142l267 265h729l264 -265v-356h-434v209l-62 61h-266l-61 -61v-850l61 -61h266l62 61v188h-129v316h563v-649 l-264 -267h-729z" />
<glyph unicode="H" horiz-adv-x="1599" d="M0 0h674v385h-103v285h334v-285h-102v-385h674v385h-103v938h103v383h-674v-383h102v-233h-334v233h103v383h-674v-383h102v-938h-102v-385zM16 16v351h103v972h-103v351h641v-351h-102v-268h367v268h-103v351h641v-351h-102v-972h102v-351h-641v351h103v319h-367v-319 h102v-351h-641z" />
<glyph unicode="I" horiz-adv-x="796" d="M0 0h674v385h-103v938h103v383h-674v-383h102v-938h-102v-385zM16 16v351h103v972h-103v351h641v-351h-102v-972h102v-351h-641z" />
<glyph unicode="J" horiz-adv-x="1394" d="M0 272l272 -272h625l272 272v1051h103v383h-717v-383h145v-885l-55 -53h-121l-55 53v248h-469v-414zM16 283v387h437v-242l61 -61h141l62 61v911h-146v351h684v-351h-102v-1056l-266 -267h-604z" />
<glyph unicode="K" horiz-adv-x="1669" d="M0 0h674v385h-103v82l80 82l166 -164h-47v-385h811v385h-129l-475 475l463 463h141v383h-811v-383h45l-244 -242v242h103v383h-674v-383h102v-938h-102v-385zM16 16v351h103v972h-103v351h641v-351h-102v-303l303 303h-72v351h777v-351h-131l-482 -479l494 -493h119v-351 h-777v351h72l-207 204l-96 -98v-106h102v-351h-641z" />
<glyph unicode="L" horiz-adv-x="1357" d="M0 0h1264v487h-385v-102h-308v938h103v383h-674v-383h102v-938h-102v-385zM16 16v351h103v972h-103v351h641v-351h-102v-972h342v102h348v-453h-1229z" />
<glyph unicode="M" horiz-adv-x="2011" d="M0 0h674v385h-103v442l373 -618l373 618v-442h-103v-385h674v385h-102v938h102v383h-549l-395 -659l-395 659h-549v-383h102v-938h-102v-385zM16 16v351h103v972h-103v351h523l405 -678l406 678h520v-351h-103v-972h103v-351h-639v351h102v520l-389 -645l-389 645v-520 h102v-351h-641z" />
<glyph unicode="N" horiz-adv-x="1718" d="M0 0h674v385h-103v379l459 -764h565v385h-102v938h102v383h-673v-383h102v-397l-469 780h-555v-383h102v-938h-102v-385zM16 16v351h103v972h-103v351h529l495 -828v477h-102v351h641v-351h-102v-972h102v-351h-539l-485 811v-460h102v-351h-641z" />
<glyph unicode="O" horiz-adv-x="1429" d="M0 272l272 -272h752l272 272v1162l-272 272h-752l-272 -272v-1162zM16 283v1142l267 265h733l264 -265v-1142l-264 -267h-733zM453 428l61 -61h270l62 61v850l-62 61h-270l-61 -61v-850zM469 438v830l55 55h250l53 -55v-830l-53 -53h-250z" />
<glyph unicode="P" horiz-adv-x="1452" d="M0 0h674v385h-103v262h486l272 273v514l-272 272h-1057v-383h102v-938h-102v-385zM16 16v351h103v972h-103v351h1033l264 -265v-497l-264 -264h-494v-297h102v-351h-641zM555 1014h260l62 61v203l-62 61h-260v-325zM571 1030v293h234l55 -55v-183l-55 -55h-234z" />
<glyph unicode="Q" horiz-adv-x="1468" d="M0 272l272 -272h752l121 121l72 -72l260 260l-181 178v947l-272 272h-752l-272 -272v-1162zM16 283v1142l267 265h733l264 -265v-946l170 -170l-233 -233l-72 71l-129 -131h-733zM453 428l61 -61h270l62 61v18l-273 273l234 233l39 -37v363l-62 61h-270l-61 -61v-850z M469 438v830l55 55h250l53 -55v-310l-20 21l-258 -260l278 -281l-53 -53h-250z" />
<glyph unicode="R" horiz-adv-x="1552" d="M0 0h674v385h-103v307h234l55 -55v-637h572v385h-103v387l-112 113l112 112v437l-272 272h-1057v-383h102v-938h-102v-385zM16 16v351h103v972h-103v351h1033l264 -265v-419l-121 -121l121 -121v-397h102v-351h-538v631l-62 62h-260v-342h102v-351h-641zM555 1059h260 l62 61v158l-62 61h-260v-280zM571 1075v248h234l55 -55v-138l-55 -55h-234z" />
<glyph unicode="S" d="M0 272l272 -272h752l272 272v496l-272 272h-500l-55 56v172l55 55h250l53 -55v-170h469v336l-272 272h-752l-272 -272v-504l272 -273h502l53 -55v-164l-53 -53h-250l-55 53v162h-469v-328zM16 283v301h437v-156l61 -61h270l62 61v184l-62 62h-501l-267 264v487l267 265 h733l264 -265v-311h-434v164l-62 61h-270l-61 -61v-193l61 -61h502l264 -264v-477l-264 -267h-733z" />
<glyph unicode="T" horiz-adv-x="1536" d="M0 1221h385v102h102v-938h-102v-385h674v385h-103v938h103v-102h383v485h-1442v-485zM16 1237v453h1409v-453h-350v102h-137v-972h102v-351h-639v351h103v972h-137v-102h-351z" />
<glyph unicode="U" horiz-adv-x="1624" d="M0 1323h102v-1051l273 -272h751l273 272v1051h102v383h-674v-383h103v-885l-53 -53h-250l-56 53v885h103v383h-674v-383zM16 1339v351h641v-351h-102v-911l61 -61h271l61 61v911h-102v351h639v-351h-103v-1056l-264 -267h-733l-266 267v1056h-103z" />
<glyph unicode="V" horiz-adv-x="1755" d="M0 1323h137l312 -938h-74v-385h907v385h-88l313 938h154v383h-707v-383h56l-189 -569l-190 569h57v383h-688v-383zM16 1339v351h656v-351h-64l213 -639l213 639h-63v351h674v-351h-150l-324 -972h95v-351h-875v351h82l-323 972h-134z" />
<glyph unicode="W" horiz-adv-x="2785" d="M0 1323h137l312 -938h-56v-385h873v385h-56l138 410l135 -410h-56v-385h873v385h-55l311 938h135v383h-698v-383h55l-188 -563l-187 563h53v383h-761v-383h55l-186 -563l-189 563h68v383h-713v-383zM16 1339v351h680v-351h-75l213 -641l213 641h-66v351h729v-351h-63 l213 -641l215 641h-66v351h666v-351h-140l-323 -972h72v-351h-840v351h65l-161 489l-164 -489h65v-351h-839v351h71l-323 972h-142z" />
<glyph unicode="X" horiz-adv-x="1964" d="M0 0h811v385h-16l153 152l152 -152h-17v-385h787v385h-135l-469 469l469 469h135v383h-787v-383h17l-152 -152l-153 152h16v383h-811v-383h160l471 -469l-471 -469h-160v-385zM16 16v351h154l485 487l-485 485h-154v351h779v-351h-41l194 -194l195 194h-41v351h751v-351 h-127l-487 -485l487 -487h127v-351h-751v351h41l-195 194l-194 -194h41v-351h-779z" />
<glyph unicode="Y" horiz-adv-x="1964" d="M0 1323h160l553 -553v-385h-103v-385h674v385h-102v385l553 553h135v383h-783v-383h15l-154 -156l-155 156h14v383h-807v-383zM16 1339v351h775v-351h-41l198 -196l197 196h-41v351h749v-351h-127l-563 -561v-411h103v-351h-637v351h102v411l-561 561h-154z" />
<glyph unicode="Z" horiz-adv-x="1398" d="M0 0h1276v487h-385v-102h-281l666 997v324h-1276v-485h385v102h281l-666 -999v-324zM16 16v299l684 1024h-333v-102h-351v453h1241v-299l-682 -1024h332v102h350v-453h-1241z" />
<glyph unicode="a" horiz-adv-x="1382" d="M0 0h522v307h-45l23 64h262l20 -64h-47v-307h525v307h-82l-250 752h71v307h-727v-307h60l-250 -752h-82v-307zM14 14v279h78l260 778h-67v281h700v-281h-76l260 -778h76v-279h-495v279h51l-31 92h-283l-28 -92h49v-279h-494zM567 618h125l-61 187zM586 631l45 131 l43 -131h-88z" />
<glyph unicode="b" horiz-adv-x="1183" d="M0 0h846l217 219v399l-90 89l90 90v350l-217 219h-846v-307h82v-752h-82v-307zM14 14v279h82v778h-82v281h824l213 -211v-336l-99 -98l99 -97v-385l-213 -211h-824zM444 293h207l51 51v174l-51 49h-207v-274zM444 846h207l51 51v125l-51 49h-207v-225zM457 307v246h188 l43 -45v-156l-43 -45h-188zM457 860v199h188l43 -45v-109l-43 -45h-188z" />
<glyph unicode="c" horiz-adv-x="1157" d="M0 219l219 -219h600l219 219v297h-376v-164l-44 -45h-198l-45 45v662l45 45h198l44 -45v-172h376v305l-219 219h-600l-219 -219v-928zM14 225v916l211 211h588l211 -211v-285h-348v166l-49 49h-215l-50 -49v-678l50 -51h215l49 51v158h348v-277l-211 -211h-588z" />
<glyph unicode="d" horiz-adv-x="1185" d="M0 0h846l217 219v928l-217 219h-846v-307h82v-752h-82v-307zM14 14v279h82v778h-82v281h824l213 -211v-916l-213 -211h-824zM444 293h207l51 51v678l-51 49h-207v-778zM457 307v752h188l43 -45v-662l-43 -45h-188z" />
<glyph unicode="e" horiz-adv-x="1126" d="M0 0h1004v362h-308v-55h-239v221h55v-53h307v416h-307v-55h-55v223h239v-55h308v362h-1004v-307h82v-752h-82v-307zM14 14v279h82v778h-82v281h975v-334h-278v53h-267v-248h82v54h279v-390h-279v56h-82v-250h267v55h278v-334h-975z" />
<glyph unicode="f" horiz-adv-x="1097" d="M0 0h614v307h-157v221h55v-53h307v416h-307v-55h-55v223h239v-55h308v362h-1004v-307h82v-752h-82v-307zM14 14v279h82v778h-82v281h975v-334h-278v53h-267v-248h82v54h279v-390h-279v56h-82v-250h156v-279h-586z" />
<glyph unicode="g" horiz-adv-x="1161" d="M0 219l219 -219h596l219 219v541h-477v-281h102v-127l-43 -45h-196l-45 45v662l45 45h196l43 -45v-172h375v305l-219 219h-596l-219 -219v-928zM14 225v916l211 211h584l211 -211v-285h-348v166l-47 49h-213l-50 -49v-678l50 -51h213l47 51v150h-103v251h451v-520 l-211 -211h-584z" />
<glyph unicode="h" horiz-adv-x="1304" d="M0 0h539v307h-82v230h266v-230h-82v-307h541v307h-82v752h82v307h-541v-307h82v-189h-266v189h82v307h-539v-307h82v-752h-82v-307zM14 14v279h82v778h-82v281h512v-281h-82v-215h293v215h-82v281h512v-281h-82v-778h82v-279h-512v279h82v256h-293v-256h82v-279h-512z " />
<glyph unicode="i" horiz-adv-x="661" d="M0 0h539v307h-82v752h82v307h-539v-307h82v-752h-82v-307zM14 14v279h82v778h-82v281h512v-281h-82v-778h82v-279h-512z" />
<glyph unicode="j" horiz-adv-x="1140" d="M0 219l219 -219h498l219 219v840h82v307h-574v-307h115v-707l-43 -45h-96l-45 45v197h-375v-330zM14 225v312h348v-193l50 -51h112l49 51v727h-116v281h547v-281h-82v-846l-211 -211h-486z" />
<glyph unicode="k" horiz-adv-x="1386" d="M0 0h539v307h-82v68l65 63l131 -131h-37v-307h650v307h-103l-381 381l371 371h113v307h-650v-307h35l-194 -195v195h82v307h-539v-307h82v-752h-82v-307zM14 14v279h82v778h-82v281h512v-281h-82v-242l242 242h-55v281h620v-281h-106l-383 -383l393 -395h96v-279h-620 v279h55l-164 164l-78 -78v-86h82v-279h-512z" />
<glyph unicode="l" horiz-adv-x="1103" d="M0 0h1010v389h-308v-82h-245v752h82v307h-539v-307h82v-752h-82v-307zM14 14v279h82v778h-82v281h512v-281h-82v-778h273v82h280v-361h-983z" />
<glyph unicode="m" horiz-adv-x="1632" d="M0 0h539v307h-82v355l297 -494l299 494v-355h-82v-307h540v307h-81v752h81v307h-440l-317 -530l-316 530h-438v-307h82v-752h-82v-307zM14 14v279h82v778h-82v281h416l324 -543l327 543h416v-281h-82v-778h82v-279h-512v279h82v418l-313 -516l-310 516v-418h82v-279h-512 z" />
<glyph unicode="n" horiz-adv-x="1398" d="M0 0h539v307h-82v303l368 -610h451v307h-82v752h82v307h-539v-307h82v-318l-375 625h-444v-307h82v-752h-82v-307zM14 14v279h82v778h-82v281h422l398 -662v381h-82v281h512v-281h-82v-778h82v-279h-430l-390 648v-369h82v-279h-512z" />
<glyph unicode="o" horiz-adv-x="1161" d="M0 219l219 -219h600l219 219v928l-219 219h-600l-219 -219v-928zM14 225v916l211 211h588l211 -211v-916l-211 -211h-588zM362 344l50 -51h215l49 51v678l-49 49h-215l-50 -49v-678zM375 352v662l45 45h198l44 -45v-662l-44 -45h-198z" />
<glyph unicode="p" horiz-adv-x="1212" d="M0 0h539v307h-82v211h389l217 217v412l-217 219h-846v-307h82v-752h-82v-307zM14 14v279h82v778h-82v281h824l213 -211v-398l-213 -213h-394v-237h82v-279h-512zM444 811h207l51 49v162l-51 49h-207v-260zM457 825v234h188l43 -45v-146l-43 -43h-188z" />
<glyph unicode="q" horiz-adv-x="1183" d="M0 219l219 -219h600l99 98l55 -59l209 209l-144 143v756l-219 219h-600l-219 -219v-928zM14 225v916l211 211h588l211 -211v-756l137 -137l-188 -189l-55 60l-105 -105h-588zM362 344l50 -51h215l49 51v14l-217 217l186 187l31 -29v289l-49 49h-215l-50 -49v-678z M375 352v662l45 45h198l44 -45v-248l-17 16l-207 -207l224 -223l-44 -45h-198z" />
<glyph unicode="r" horiz-adv-x="1265" d="M0 0h539v307h-82v246h188l43 -45v-508h457v307h-82v311l-90 89l90 90v350l-217 219h-846v-307h82v-752h-82v-307zM14 14v279h82v778h-82v281h824l213 -211v-336l-99 -98l99 -97v-317h82v-279h-431v504l-51 49h-207v-274h82v-279h-512zM444 846h207l51 51v125l-51 49h-207 v-225zM457 860v199h188l43 -45v-109l-43 -45h-188z" />
<glyph unicode="s" horiz-adv-x="1161" d="M0 219l219 -219h600l219 219v395l-219 220h-399l-45 43v137l45 45h198l44 -45v-137h376v270l-219 219h-600l-219 -219v-404l219 -217h399l44 -45v-129l-44 -45h-198l-45 45v129h-375v-262zM14 225v242h348v-123l50 -51h215l49 51v145l-49 50h-402l-211 213v389l211 211 h588l211 -211v-250h-348v131l-49 49h-215l-50 -49v-154l50 -49h401l211 -211v-383l-211 -211h-588z" />
<glyph unicode="t" horiz-adv-x="1245" d="M0 977h307v82h82v-750h-82v-307h539v307h-82v750h82v-82h307v389h-1153v-389zM14 989v363h1125v-363h-281v82h-108v-776h81v-279h-509v279h81v776h-110v-82h-279z" />
<glyph unicode="u" horiz-adv-x="1296" d="M0 1059h82v-840l219 -219h600l219 219v840h82v307h-540v-307h81v-707l-43 -45h-198l-45 45v707h82v307h-539v-307zM14 1071v281h512v-281h-82v-727l50 -51h215l49 51v727h-82v281h512v-281h-82v-846l-211 -211h-588l-211 211v846h-82z" />
<glyph unicode="v" horiz-adv-x="1421" d="M0 1059h109l249 -752h-59v-307h727v307h-70l248 752h123v307h-563v-307h45l-152 -455l-151 455h43v307h-549v-307zM14 1071v281h523v-281h-50l170 -512l170 512h-51v281h539v-281h-119l-258 -778h74v-279h-699v279h66l-260 778h-105z" />
<glyph unicode="w" horiz-adv-x="2246" d="M0 1059h109l249 -752h-45v-307h701v307h-45l108 328l109 -328h-43v-307h696v307h-43l248 752h110v307h-561v-307h45l-149 -451l-152 451h45v307h-610v-307h43l-149 -451l-150 451h53v307h-569v-307zM14 1071v281h543v-281h-61l170 -512l170 512h-52v281h584v-281h-51 l172 -512l170 512h-51v281h532v-281h-110l-261 -778h58v-279h-672v279h51l-129 391l-129 -391h51v-279h-671v279h57l-258 778h-113z" />
<glyph unicode="x" horiz-adv-x="1607" d="M0 0h657v305h-14l123 121l123 -121h-12v-305h636v305h-108l-381 375l381 373h108v305h-636v-305h12l-123 -121l-123 121h14v305h-657v-305h129l381 -373l-381 -375h-129v-305zM14 14v279h123l393 387l-393 387h-123v279h627v-279h-31l156 -156l160 156h-35v279h610v-279 h-102l-395 -387l395 -387h102v-279h-610v279h35l-160 153l-156 -153h31v-279h-627z" />
<glyph unicode="y" horiz-adv-x="1587" d="M0 1059h129l440 -443v-307h-82v-307h539v307h-82v307l442 443h109v307h-627v-307h13l-123 -123l-125 123h12v307h-645v-307zM14 1071v281h617v-281h-31l158 -156l157 156h-32v281h598v-281h-103l-448 -448v-328h82v-279h-510v279h82v328l-449 448h-121z" />
<glyph unicode="z" horiz-adv-x="1142" d="M0 0h1020v389h-307v-82h-226l533 799v260h-1020v-389h307v82h225l-532 -799v-260zM14 14v238l545 819h-266v-82h-279v363h994v-240l-547 -819h266v82h281v-361h-994z" />
<glyph unicode="&#xad;" horiz-adv-x="802" d="M0 662h674v385h-674v-385zM16 680v350h641v-350h-641z" />
<glyph unicode="&#x2000;" horiz-adv-x="853" />
<glyph unicode="&#x2001;" horiz-adv-x="1706" />
<glyph unicode="&#x2002;" horiz-adv-x="853" />
<glyph unicode="&#x2003;" horiz-adv-x="1706" />
<glyph unicode="&#x2004;" horiz-adv-x="568" />
<glyph unicode="&#x2005;" horiz-adv-x="426" />
<glyph unicode="&#x2006;" horiz-adv-x="284" />
<glyph unicode="&#x2007;" horiz-adv-x="284" />
<glyph unicode="&#x2008;" horiz-adv-x="213" />
<glyph unicode="&#x2009;" horiz-adv-x="341" />
<glyph unicode="&#x200a;" horiz-adv-x="94" />
<glyph unicode="&#x2010;" horiz-adv-x="802" d="M0 662h674v385h-674v-385zM16 680v350h641v-350h-641z" />
<glyph unicode="&#x2011;" horiz-adv-x="802" d="M0 662h674v385h-674v-385zM16 680v350h641v-350h-641z" />
<glyph unicode="&#x2012;" horiz-adv-x="802" d="M0 662h674v385h-674v-385zM16 680v350h641v-350h-641z" />
<glyph unicode="&#x2013;" horiz-adv-x="1152" d="M0 662h1024v385h-1024v-385zM24 680v350h974v-350h-974z" />
<glyph unicode="&#x2014;" horiz-adv-x="2176" d="M0 662h2048v385h-2048v-385zM49 680v350h1947v-350h-1947z" />
<glyph unicode="&#x2018;" horiz-adv-x="598" d="M0 1323l309 -309v309h109v383h-418v-383zM16 1329v361h385v-351h-108v-284z" />
<glyph unicode="&#x2019;" horiz-adv-x="598" d="M0 1323h109v-309l309 309v383h-418v-383zM16 1339v351h385v-361l-274 -274v284h-111z" />
<glyph unicode="&#x201c;" horiz-adv-x="1058" d="M0 1323l309 -309v309h109v383h-418v-383zM16 1329v361h385v-351h-108v-284zM528 1323l308 -309v309h110v383h-418v-383zM545 1329v361h383v-351h-109v-284z" />
<glyph unicode="&#x201d;" horiz-adv-x="1058" d="M0 1323h109v-309l309 309v383h-418v-383zM16 1339v351h385v-361l-274 -274v284h-111zM528 1323h109v-309l309 309v383h-418v-383zM545 1339v351h383v-361l-275 -274v284h-108z" />
<glyph unicode="&#x2022;" horiz-adv-x="1144" d="M0 854q0 -106 40 -199.5t109.5 -163t163 -109.5t199.5 -40t199.5 40t163 109.5t109.5 163t40 199.5t-40 199.5t-109.5 163t-163 109.5t-199.5 40t-199.5 -40t-163 -109.5t-109.5 -163t-40 -199.5zM16 854q0 102 39 192.5t106.5 157t158 105.5t192.5 39t192.5 -39 t158 -105.5t106.5 -157t39 -192.5t-39 -192.5t-106.5 -158t-158 -106.5t-192.5 -39t-192.5 39t-158 106.5t-106.5 158t-39 192.5z" />
<glyph unicode="&#x202f;" horiz-adv-x="341" />
<glyph unicode="&#x205f;" horiz-adv-x="426" />
<glyph unicode="&#xe000;" horiz-adv-x="1361" d="M0 0v1362h1362v-1362h-1362z" />
</font>
</defs>
</svg>
