<?xml version="1.0" standalone="no"?>
<!DOCTYPE svg PUBLIC "-//W3C//DTD SVG 1.1//EN" "http://www.w3.org/Graphics/SVG/1.1/DTD/svg11.dtd" >
<svg xmlns="http://www.w3.org/2000/svg">
<metadata></metadata>
<defs>
<font id="cabin_condensedbold" horiz-adv-x="972" >
<font-face units-per-em="2048" ascent="1638" descent="-410" />
<missing-glyph horiz-adv-x="395" />
<glyph horiz-adv-x="2048" />
<glyph horiz-adv-x="2048" />
<glyph unicode="&#xd;" horiz-adv-x="2048" />
<glyph unicode=" "  horiz-adv-x="395" />
<glyph unicode="&#x09;" horiz-adv-x="395" />
<glyph unicode="&#xa0;" horiz-adv-x="395" />
<glyph unicode="!" horiz-adv-x="444" d="M98 0v254h248v-254h-248zM102 1536h230l-27 -1126h-164z" />
<glyph unicode="&#x22;" horiz-adv-x="696" d="M63 1536h242l-35 -614h-172zM393 1536h242l-35 -614h-172z" />
<glyph unicode="#" horiz-adv-x="1239" d="M53 432l80 201h195l65 215h-209l58 201h221l129 385h176l-125 -385h182l123 385h182l-124 -385h192l-63 -201h-199l-64 -215h218l-84 -201h-203l-148 -455h-180l141 455h-176l-147 -455h-180l147 455h-207zM504 633h182l70 215h-183z" />
<glyph unicode="$" horiz-adv-x="933" d="M66 969q0 51 16 105t53 100.5t98.5 79t151.5 42.5l-27 236h201l-29 -236q86 -6 164 -30.5t115 -48.5l-21 -232q-74 45 -157.5 76t-149.5 31q-33 0 -66.5 -3.5t-61 -14.5t-45 -30.5t-17.5 -50.5q0 -49 43 -77.5t106.5 -51t138 -45t138 -62.5t106.5 -104.5t43 -167.5 q0 -43 -12 -95t-49 -98t-102.5 -82t-172.5 -46l29 -230h-201l27 228q-100 6 -182 29.5t-125 52.5l35 260q41 -49 127 -89t204 -40q86 0 130 24.5t44 83.5q0 53 -40.5 86t-102 57.5t-133.5 49t-133.5 60.5t-102 91.5t-40.5 141.5z" />
<glyph unicode="%" horiz-adv-x="1482" d="M57 1057q0 88 21.5 159.5t58.5 122t87 77t110 26.5q57 0 106 -25.5t85 -74t55.5 -117t19.5 -152.5q0 -178 -73.5 -282.5t-202.5 -104.5q-123 0 -195 100.5t-72 270.5zM217 1057q0 -119 31 -169t78 -50q53 0 84.5 53t31.5 182q0 117 -33.5 169t-76.5 52q-41 0 -78 -55 t-37 -182zM246 -25l743 1459h207l-745 -1459h-205zM883 352q0 88 21.5 160t58 122t87 76.5t109.5 26.5q119 0 192.5 -99t73.5 -269q0 -178 -73.5 -282.5t-200.5 -104.5q-123 0 -195.5 100t-72.5 270zM1042 352q0 -119 31 -169t78 -50q53 0 86 53.5t33 182.5q0 117 -35 169 t-78 52q-41 0 -78 -55.5t-37 -182.5z" />
<glyph unicode="&#x26;" horiz-adv-x="1105" d="M57 342q0 72 19.5 130t49.5 108.5t67.5 92.5t74.5 79q-20 39 -43.5 79.5t-43 85t-32 91.5t-12.5 98q0 78 31 140.5t82 105.5t116.5 65.5t135.5 22.5q135 0 213 -81t78 -214q0 -68 -19.5 -121t-52.5 -99t-75 -86t-87 -79l209 -328q0 72 -1 147.5t-3 141.5h237 q0 -43 -2 -100.5t-10 -120t-22.5 -128t-38.5 -126.5l198 -246h-292l-46 70q-49 -53 -129.5 -86t-187.5 -33q-106 0 -184 32.5t-129.5 87t-76 125t-24.5 146.5zM317 365q0 -37 6.5 -76t27 -71t56 -52.5t97.5 -20.5q53 0 91 17.5t69 52.5l-279 399q-31 -51 -49.5 -111.5 t-18.5 -137.5zM383 1096q0 -55 20.5 -103.5t53.5 -107.5q55 61 86.5 113.5t31.5 123.5q0 63 -22 89t-59 26q-49 0 -80 -37t-31 -104z" />
<glyph unicode="'" horiz-adv-x="348" d="M55 1536h238l-37 -614h-164z" />
<glyph unicode="(" horiz-adv-x="499" d="M80 629q0 162 11 293t32.5 239.5t52.5 199.5t70 175h225q-39 -84 -74 -179t-60.5 -207t-40.5 -242t-15 -279q0 -152 15 -281t40.5 -240.5t60.5 -207t74 -179.5h-225q-39 84 -70 175.5t-52.5 200t-32.5 239.5t-11 293z" />
<glyph unicode=")" horiz-adv-x="499" d="M29 -279q39 84 73.5 179.5t60 207t41 240.5t15.5 281q0 150 -15.5 279.5t-41 241.5t-60 207t-73.5 179h225q39 -84 69.5 -175t52 -199.5t33 -239.5t11.5 -293t-11.5 -293t-33 -239.5t-52 -200t-69.5 -175.5h-225z" />
<glyph unicode="*" horiz-adv-x="792" d="M49 1264l101 168l223 -220l-78 322h203l-80 -322l225 220l100 -168l-280 -103l217 -184l-143 -133l-136 280l-141 -286l-143 133l223 186z" />
<glyph unicode="+" horiz-adv-x="794" d="M72 471v193h237v262h176v-262h238v-193h-238v-262h-176v262h-237z" />
<glyph unicode="," horiz-adv-x="415" d="M88 0v266h238v-266l-189 -225l-49 28l57 177z" />
<glyph unicode="-" horiz-adv-x="718" d="M86 471v193h547v-193h-547z" />
<glyph unicode="." horiz-adv-x="415" d="M84 0v266h244v-266h-244z" />
<glyph unicode="/" horiz-adv-x="970" d="M29 -174l633 1608h262l-633 -1608h-262z" />
<glyph unicode="0" horiz-adv-x="1241" d="M102 694q0 170 41 311.5t112 243t167 157.5t209 56q111 0 204 -54t160.5 -150.5t105.5 -231.5t38 -297q0 -170 -38 -310t-106.5 -239.5t-167 -154t-217.5 -54.5q-115 0 -209 52.5t-160.5 146.5t-102.5 227t-36 297zM348 694q0 -129 20.5 -221t56.5 -151.5t84 -87 t103 -27.5q59 0 111.5 29.5t90.5 92t59.5 162t21.5 238.5q0 127 -22.5 221t-60.5 156.5t-86 93.5t-99 31t-100.5 -33t-89.5 -98.5t-64.5 -167t-24.5 -238.5z" />
<glyph unicode="1" horiz-adv-x="647" d="M74 1210q25 6 58.5 29t64 53.5t55 67.5t35.5 74h192v-1434h-248v1063q-45 -55 -141 -74z" />
<glyph unicode="2" horiz-adv-x="931" d="M68 0q113 193 193.5 337t135 250.5t86 180.5t48 125t21.5 85t5 60q0 98 -39 151.5t-112 53.5q-59 0 -106.5 -24.5t-82.5 -60.5t-58.5 -72.5t-35.5 -61.5l-31 236q14 27 45 61.5t76 66t105.5 53t134.5 21.5q98 0 162.5 -35.5t103.5 -92t55.5 -125t16.5 -132.5 q0 -70 -17.5 -150.5t-54.5 -180t-93.5 -221.5t-133.5 -271h339v-254h-763z" />
<glyph unicode="3" horiz-adv-x="950" d="M66 82l61 242q10 -20 38 -39t63.5 -32t75.5 -21.5t77 -8.5q49 0 90 10.5t71.5 35t48 64.5t17.5 99q0 49 -8 93t-29.5 78t-59.5 54.5t-99 20.5h-170l18 203h88q61 0 101 15t65 41t34 60.5t9 71.5q0 78 -37 125t-133 47q-47 0 -108.5 -16.5t-98.5 -53.5l-37 197 q31 33 108 63.5t167 30.5q121 0 195.5 -38t116.5 -95t57.5 -123.5t15.5 -124.5q0 -94 -29 -165.5t-69 -120.5q59 -55 101 -142.5t42 -208.5q0 -119 -39 -208t-101.5 -147t-144.5 -88t-168 -30q-57 0 -112.5 12.5t-100.5 30t-76.5 37t-39.5 31.5z" />
<glyph unicode="4" horiz-adv-x="1021" d="M6 389l567 1045h209v-832h150v-213h-150v-389h-245v389h-531zM332 602h205v430z" />
<glyph unicode="5" horiz-adv-x="944" d="M86 88l57 238q35 -43 104.5 -75t162.5 -32q39 0 76.5 12.5t68.5 41t49.5 75.5t18.5 115q0 43 -7.5 83t-35 69.5t-82 47t-146.5 17.5h-205l78 754h570l-27 -254h-358l-27 -281q242 -4 357.5 -104.5t115.5 -321.5q0 -125 -38 -219t-99.5 -156.5t-140 -93.5t-160.5 -31 q-66 0 -125.5 13.5t-105.5 32t-73.5 38t-27.5 31.5z" />
<glyph unicode="6" horiz-adv-x="989" d="M102 518q0 133 30 253t78 222.5t107.5 183t119 138t110.5 88.5t84 31l162 -103q-10 0 -45 -23.5t-82.5 -63.5t-99.5 -94t-97 -114.5t-76 -126t-33 -127.5q16 27 43 42.5t54.5 23.5t51 11t36.5 3q76 0 142.5 -25.5t117.5 -77.5t80.5 -129t29.5 -181q0 -96 -29.5 -182.5 t-85 -152t-135.5 -104.5t-180 -39q-76 0 -144.5 30t-121.5 95.5t-85 169t-32 252.5zM340 416q0 -53 17.5 -93t44 -66t55 -39t53.5 -13q43 0 77 20.5t57.5 54t35.5 78.5t12 95q0 33 -8 67.5t-26.5 63t-50.5 47t-77 18.5q-80 0 -135 -57t-55 -176z" />
<glyph unicode="7" horiz-adv-x="897" d="M76 1180v254h815l-506 -1434h-262l403 1180h-450z" />
<glyph unicode="8" horiz-adv-x="1050" d="M94 379q0 98 39 199.5t131 193.5q-53 61 -77.5 151.5t-24.5 176.5q0 70 18.5 135t61.5 115.5t114.5 81t175.5 30.5q100 0 169 -27.5t111 -73.5t60.5 -105.5t18.5 -125.5q0 -104 -37 -187t-90 -152q76 -51 134 -147.5t58 -225.5q0 -78 -25.5 -157t-80.5 -143.5 t-140 -105.5t-204 -41q-104 0 -182 34t-129.5 91.5t-76 131t-24.5 151.5zM324 399q0 -104 51 -161.5t141 -57.5q102 0 151.5 62.5t49.5 167.5q0 57 -15.5 102t-41 79t-59.5 56.5t-69 32.5q-35 -8 -71.5 -29.5t-67.5 -56.5t-50 -84t-19 -111zM377 1075q0 -31 3 -60.5 t16.5 -56t42 -50t77.5 -38.5q90 31 120 89.5t30 125.5q0 33 -6.5 65t-21.5 55.5t-43 37.5t-71 14q-45 0 -73.5 -14t-45 -39.5t-22.5 -58.5t-6 -70z" />
<glyph unicode="9" horiz-adv-x="991" d="M102 977q0 100 30 188t86 153.5t136 104.5t178 39q82 0 154 -29.5t123 -95t81 -169t30 -250.5q0 -199 -50.5 -367t-129 -291t-174 -191.5t-185.5 -68.5l-150 102q20 0 62.5 19.5t91.5 56.5t100.5 87t93.5 110.5t69.5 130t27.5 143.5q-18 -23 -45 -37t-56.5 -23 t-60.5 -13.5t-57 -4.5q-72 0 -135.5 26t-112.5 77t-78 127t-29 176zM344 987q0 -37 9 -72.5t27.5 -64.5t49.5 -47.5t74 -18.5q74 0 130 57.5t56 174.5q0 61 -16.5 102t-41 65.5t-54 35t-56.5 10.5q-43 0 -75.5 -21.5t-55 -55.5t-35 -78t-12.5 -87z" />
<glyph unicode=":" horiz-adv-x="460" d="M109 0v266h243v-266h-243zM109 635v266h243v-266h-243z" />
<glyph unicode=";" horiz-adv-x="460" d="M88 0v266h238v-266l-189 -225l-49 28l57 177zM88 635v266h270v-266h-270z" />
<glyph unicode="&#x3c;" horiz-adv-x="786" d="M57 582l371 422h299l-371 -422l371 -422h-299z" />
<glyph unicode="=" horiz-adv-x="864" d="M106 307v193h652v-193h-652zM106 635v192h652v-192h-652z" />
<glyph unicode="&#x3e;" horiz-adv-x="786" d="M59 160l371 422l-371 422h299l371 -422l-371 -422h-299z" />
<glyph unicode="?" horiz-adv-x="780" d="M49 1391q49 76 125 110.5t162 34.5q94 0 163.5 -38t114.5 -95t66.5 -126t21.5 -130q0 -92 -40.5 -174t-89 -164t-89.5 -172t-41 -201v-26h-168q-4 66 -4 84v24q0 96 32 175t69 150.5t68.5 144.5t31.5 159q0 96 -42 142t-114 46t-123 -40t-92 -93zM236 0v254h243v-254 h-243z" />
<glyph unicode="@" horiz-adv-x="1243" d="M72 348q0 168 54 311.5t145 249t211 165t253 59.5q104 0 185 -37t137.5 -104.5t86.5 -163t30 -214.5q0 -78 -13.5 -153.5t-43.5 -135t-78 -96t-115 -36.5q-33 0 -54.5 17t-21.5 87q0 90 31.5 202.5t66.5 276.5q-35 41 -88 75t-125 34q-84 0 -164 -50.5t-144.5 -131 t-103 -183t-38.5 -207.5q0 -45 8 -87t27.5 -73.5t50 -51t73.5 -19.5q39 0 82 15.5t86 46t82 74.5t68 101q0 -10 -2 -29.5t-2 -41.5q0 -25 5 -53.5t16 -52t30.5 -40t50.5 -16.5q25 0 55.5 11.5t61.5 29.5t60.5 42t49.5 48q-41 -88 -102 -160.5t-136 -125t-161 -81t-178 -28.5 q-201 0 -318.5 138t-117.5 388zM424 354q0 84 32.5 158t81 129t105 87t105.5 32q16 0 42.5 -6t36.5 -39q-12 -82 -48 -170t-83 -161t-99 -120t-95 -47q-41 0 -59.5 39t-18.5 98z" />
<glyph unicode="A" horiz-adv-x="1097" d="M-2 0l436 1434h230l438 -1434h-260l-101 346h-383l-100 -346h-260zM446 600h207l-104 420z" />
<glyph unicode="B" horiz-adv-x="1126" d="M86 0v1434h356q104 0 192.5 -13.5t151 -52.5t97.5 -111.5t35 -191.5q0 -98 -29 -172t-76 -127q100 -47 158.5 -127t58.5 -217q0 -125 -40 -206t-104.5 -129t-144 -67.5t-157.5 -19.5h-498zM336 223h244q88 0 141 46t53 167q0 61 -16.5 103.5t-45 67t-67.5 34.5t-86 10 h-223v-428zM336 858h225q18 0 41 7t43.5 25.5t33.5 51.5t13 84q0 113 -35.5 148.5t-103.5 35.5h-217v-352z" />
<glyph unicode="C" horiz-adv-x="1073" d="M61 717q0 168 45.5 306t126 235.5t191.5 150.5t242 53q98 0 191 -22.5t163 -61.5l-29 -250q-78 35 -152.5 58.5t-172.5 23.5q-84 0 -145.5 -36.5t-102.5 -102t-61.5 -157t-20.5 -197.5q0 -109 20.5 -199t61.5 -155.5t102.5 -102.5t143.5 -37q98 0 173.5 23.5t153.5 58.5 l29 -250q-68 -39 -163 -61.5t-193 -22.5q-131 0 -242 53.5t-190.5 150.5t-125 234.5t-45.5 307.5z" />
<glyph unicode="D" horiz-adv-x="1267" d="M135 0v1434h463q131 0 242.5 -49.5t192.5 -141.5t126 -225t45 -301q0 -170 -45 -303t-126 -225.5t-192.5 -140.5t-242.5 -48h-463zM385 252h213q166 0 249 124t83 341t-83 341t-249 124h-213v-930z" />
<glyph unicode="E" horiz-adv-x="1017" d="M135 0v1434h805v-254h-547v-306h420v-253h-420v-367h565v-254h-823z" />
<glyph unicode="F" horiz-adv-x="927" d="M135 0v1434h762v-254h-512v-306h395v-253h-395v-621h-250z" />
<glyph unicode="G" horiz-adv-x="1169" d="M61 719q0 168 45.5 305t126 234.5t193.5 150.5t248 53q45 0 96 -6t101.5 -16t96.5 -26.5t79 -35.5l-29 -250q-70 35 -163 58.5t-175 23.5q-90 0 -154.5 -36.5t-106.5 -102t-62.5 -155t-20.5 -193.5q0 -111 22.5 -202t65.5 -157.5t107.5 -103.5t150.5 -37q39 0 75 6.5 t79 16.5v256h-111v217h362v-639q-33 -23 -83 -42.5t-108 -34.5t-118.5 -23.5t-113.5 -8.5q-131 0 -242 53.5t-190.5 150.5t-125 235.5t-45.5 308.5z" />
<glyph unicode="H" horiz-adv-x="1302" d="M135 0v1434h250v-560h533v560h249v-1434h-249v621h-533v-621h-250z" />
<glyph unicode="I" horiz-adv-x="495" d="M123 0v1434h250v-1434h-250z" />
<glyph unicode="J" horiz-adv-x="497" d="M-8 -156h65q61 0 62 164v1426h252v-1483q0 -154 -80 -228.5t-203 -74.5h-78z" />
<glyph unicode="K" horiz-adv-x="1079" d="M111 0v1434h249v-1434h-249zM395 758l418 676h287l-418 -676l418 -758h-287z" />
<glyph unicode="L" horiz-adv-x="880" d="M135 0v1434h250v-1180h483v-254h-733z" />
<glyph unicode="M" horiz-adv-x="1495" d="M74 0l180 1434h203l284 -654l283 654h203l180 -1434h-258l-109 961l-299 -660l-299 657l-108 -958h-260z" />
<glyph unicode="N" horiz-adv-x="1251" d="M135 0v1434h240l491 -926v926h250v-1434h-203l-528 983v-983h-250z" />
<glyph unicode="O" horiz-adv-x="1337" d="M61 717q0 168 45.5 306t127 235.5t192.5 150.5t244 53q131 0 242.5 -53t192.5 -150.5t126 -235.5t45 -306q0 -170 -45 -307.5t-126 -234.5t-192.5 -150.5t-242.5 -53.5q-133 0 -244 53.5t-192.5 150.5t-127 234.5t-45.5 307.5zM336 717q0 -109 21.5 -199t62.5 -155.5 t103.5 -102.5t146.5 -37q82 0 145.5 37t104.5 102.5t62.5 155.5t21.5 199q0 106 -21.5 197.5t-62.5 157t-104.5 102t-145.5 36.5q-84 0 -146.5 -36.5t-103.5 -102t-62.5 -157t-21.5 -197.5z" />
<glyph unicode="P" horiz-adv-x="1062" d="M123 0v1434h330q145 0 252.5 -15.5t178 -64.5t104.5 -138.5t34 -236.5q0 -154 -46 -253t-113.5 -155.5t-146.5 -78t-147 -21.5h-200v-471h-246zM369 717h172q119 0 174 57t55 203q0 61 -9 106t-34 74t-67 43t-107 14h-184v-497z" />
<glyph unicode="Q" horiz-adv-x="1339" d="M61 717q0 168 45.5 306t127 235.5t192.5 150.5t244 53q131 0 242.5 -53t192.5 -150.5t126 -235.5t45 -306q0 -133 -26.5 -246t-71.5 -205l110 -104l-149 -182l-125 116q-66 -61 -154 -93t-190 -32q-133 0 -244 53.5t-192.5 150.5t-127 234.5t-45.5 307.5zM336 717 q0 -109 21.5 -199t62.5 -155.5t103.5 -102.5t146.5 -37q47 0 77.5 12.5t59.5 34.5l-133 146l147 182l142 -152q10 57 21 125t11 146q0 106 -20.5 197.5t-60.5 157t-101 102t-143 36.5q-84 0 -146.5 -36.5t-103.5 -102t-62.5 -157t-21.5 -197.5z" />
<glyph unicode="R" horiz-adv-x="1099" d="M125 0v1434h473q86 0 163 -20.5t135 -70t92 -128t34 -195.5q0 -84 -17.5 -147.5t-45 -112.5t-64.5 -88t-76 -70l275 -602h-258l-248 532h-217v-532h-246zM371 778h123q94 0 148 16.5t80 46t32 70.5t6 90t-8.5 89t-33 68t-70.5 42t-122 14h-155v-436z" />
<glyph unicode="S" horiz-adv-x="1021" d="M84 76l29 295q18 -27 54 -53.5t85 -47t109.5 -34t127.5 -13.5q94 0 147.5 33t53.5 123q0 55 -20.5 95t-54 68.5t-77.5 50t-92 42.5q-68 31 -131 62.5t-111 75.5t-77 108.5t-29 158.5q0 68 18.5 142.5t69 136t137.5 102.5t224 41q70 0 132 -10t114.5 -26.5t90.5 -36 t56 -37.5l-22 -269q-94 63 -184.5 96t-170.5 33q-31 0 -68.5 -6t-70.5 -23.5t-55.5 -47t-22.5 -76.5q0 -43 18.5 -73t51.5 -53.5t77 -42t95 -38.5q96 -37 167.5 -74t120 -90t72 -131t23.5 -201q0 -49 -10.5 -115.5t-56.5 -126t-141 -101.5t-265 -42q-154 0 -260.5 32 t-153.5 73z" />
<glyph unicode="T" horiz-adv-x="974" d="M18 1180v254h938v-254h-344v-1180h-250v1180h-344z" />
<glyph unicode="U" horiz-adv-x="1263" d="M121 614v820h250v-732q0 -100 10 -187t40 -151.5t80 -102.5t130 -38t131 38t79.5 102.5t39 151.5t10.5 187v732h252v-820q0 -145 -31 -264t-94.5 -203t-159.5 -130t-227 -46q-129 0 -225.5 46t-160 130t-94 203t-30.5 264z" />
<glyph unicode="V" horiz-adv-x="1157" d="M-6 1434h260l328 -1088l321 1088h256l-416 -1434h-317z" />
<glyph unicode="W" horiz-adv-x="1701" d="M18 1434h261l233 -1018l262 1018h158l274 -992l221 992h259l-361 -1434h-205l-268 956l-260 -956h-225z" />
<glyph unicode="X" horiz-adv-x="1060" d="M-33 0l445 715l-416 719h289l272 -504l225 504h295l-391 -691l426 -743h-299l-274 526l-277 -526h-295z" />
<glyph unicode="Y" horiz-adv-x="1011" d="M-39 1434h266l289 -566l287 566h266l-430 -799v-635h-248v635z" />
<glyph unicode="Z" horiz-adv-x="948" d="M14 0l527 1180h-447v254h858l-524 -1180h446v-254h-860z" />
<glyph unicode="[" horiz-adv-x="589" d="M119 -279v1815h452v-223h-231v-1368h231v-224h-452z" />
<glyph unicode="\" horiz-adv-x="970" d="M47 1434h266l635 -1608h-268z" />
<glyph unicode="]" horiz-adv-x="600" d="M29 -25h231v1307h-231v254h452v-1815h-452v254z" />
<glyph unicode="^" horiz-adv-x="899" d="M86 819v301l363 434l362 -434v-301l-362 434z" />
<glyph unicode="_" horiz-adv-x="983" d="M-2 -74h987v-192h-987v192z" />
<glyph unicode="`" horiz-adv-x="534" d="M102 1323v213l330 -186v-152z" />
<glyph unicode="a" horiz-adv-x="866" d="M25 287q0 109 56 178.5t134 110t160 58t135 19.5q-4 88 -34 128t-111 40q-66 0 -121.5 -18.5t-126.5 -59.5l-17 207q92 45 172 67.5t160 22.5q70 0 130.5 -22.5t103.5 -71.5t67.5 -128t24.5 -189v-277q0 -57 3 -90t11 -49t21.5 -20.5t31.5 -4.5h33l-16 -208h-109 q-55 0 -108.5 32.5t-77.5 85.5q-41 -57 -118 -87.5t-155 -30.5q-49 0 -94 20t-79.5 60t-55 96.5t-20.5 130.5zM283 297q0 -63 23.5 -93t86.5 -30q14 0 50 17.5t69 56.5v233q-25 -2 -63.5 -14t-75.5 -34.5t-63.5 -56.5t-26.5 -79z" />
<glyph unicode="b" horiz-adv-x="1009" d="M102 0v1536h244v-563q37 33 72 50t106 17q113 0 198 -42t141.5 -114.5t85 -170t28.5 -205.5q0 -106 -26.5 -201.5t-82 -168t-140.5 -115.5t-202 -43q-78 0 -116.5 20t-77.5 57v-57h-230zM336 510q0 -70 7 -129t26.5 -102t53.5 -67t89 -24q106 0 159.5 89.5t53.5 232.5 t-53.5 232t-159.5 89q-55 0 -89 -23.5t-53.5 -66.5t-26.5 -102t-7 -129z" />
<glyph unicode="c" horiz-adv-x="788" d="M49 510q0 106 27.5 203.5t81 169t134.5 114.5t185 43q55 0 94 -6t70 -16t54.5 -24.5t45.5 -28.5l-18 -217q-55 41 -108.5 62t-118.5 21q-90 0 -143.5 -89t-53.5 -232t53.5 -232.5t143.5 -89.5q66 0 119 21.5t108 62.5l18 -217q-45 -31 -101.5 -53t-162.5 -22 q-104 0 -185 43t-134.5 114.5t-81 167.5t-27.5 205z" />
<glyph unicode="d" horiz-adv-x="1007" d="M39 510q0 106 27.5 203.5t84 169t140.5 114.5t196 43q70 0 107 -17t74 -50v563h245v-1536h-233v57q-23 -18 -40 -32.5t-38.5 -24.5t-48.5 -15t-66 -5q-117 0 -200.5 43t-139 114.5t-82 167.5t-26.5 205zM289 510q0 -143 55 -232.5t158 -89.5q55 0 89 24t53.5 65.5 t25.5 101t6 131.5t-6 131t-25.5 101t-53.5 65.5t-89 23.5q-102 0 -157.5 -89t-55.5 -232z" />
<glyph unicode="e" horiz-adv-x="913" d="M45 512q0 106 27.5 201.5t82 168t132.5 115.5t178 43q86 0 158.5 -31.5t126 -89t83 -138.5t29.5 -181q0 -39 -4 -72.5t-12 -70.5h-545q8 -72 32.5 -123t58.5 -83t73 -47.5t80 -15.5q27 0 64.5 7.5t76.5 18.5t75 26.5t62 31.5v-215q-51 -31 -126.5 -54t-170.5 -23 q-121 0 -212 43t-150.5 115.5t-89 168.5t-29.5 205zM301 629h313q0 33 -6 69.5t-21.5 65.5t-42 48t-67.5 19q-72 0 -118 -57t-58 -145z" />
<glyph unicode="f" horiz-adv-x="600" d="M33 815l18 209h96v244q0 49 13.5 97t39 86t66.5 61.5t96 23.5q45 0 75 -1t51.5 -3t40 -4t42.5 -4l-18 -211q-29 8 -56.5 9t-31.5 1q-43 0 -58.5 -33t-15.5 -127v-139h178v-209h-178v-815h-244v815h-114z" />
<glyph unicode="g" horiz-adv-x="884" d="M43 -209q0 74 42 130t99 99q-29 27 -52 62t-23 86q0 47 23.5 81t57.5 58q-55 55 -92 141.5t-37 188.5q0 82 24 155.5t69 129t112.5 87t153.5 31.5q121 0 192 -61q23 16 71 30.5t110 14.5h73l-12 -160h-94q-16 0 -27 -2q16 -47 28.5 -105.5t12.5 -119.5 q0 -82 -23.5 -155.5t-68.5 -129t-112.5 -87.5t-153.5 -32q-23 0 -41.5 3.5t-40.5 7.5q-8 -8 -8 -33q0 -37 54 -53.5t144 -30.5q45 -8 106.5 -22.5t117 -47t94.5 -90t39 -149.5q0 -150 -108.5 -240t-307.5 -90q-109 0 -188.5 25.5t-132 68.5t-77 97.5t-24.5 111.5zM238 -184 q0 -68 54 -108t154 -40q43 0 84 9.5t73 28t50.5 44t18.5 57.5q0 37 -23.5 60.5t-59.5 38t-77 22t-76 11.5q-16 2 -24.5 4t-15.5 4t-16 4t-28 6q-43 -18 -78.5 -50t-35.5 -91zM274 637q0 -98 34 -157.5t110 -59.5q72 0 106.5 59.5t34.5 157.5t-32.5 157.5t-106.5 59.5 q-72 0 -109 -59.5t-37 -157.5z" />
<glyph unicode="h" d="M90 0v1536h244v-565q35 29 77 49t76 20q106 0 181 -35.5t122.5 -100t68 -155t20.5 -198.5v-551h-244v551q0 280 -161 280h-1q-45 0 -78 -23.5t-61 -64.5v-743h-244z" />
<glyph unicode="i" horiz-adv-x="423" d="M90 0v1024h244v-1024h-244zM90 1180v254h244v-254h-244z" />
<glyph unicode="j" horiz-adv-x="423" d="M-6 -287q33 0 52.5 3t28.5 18.5t12 48.5t3 94v1147h244v-1251q0 -55 -9.5 -104.5t-35 -85.5t-70.5 -57.5t-115 -21.5h-90zM90 1180v254h244v-254h-244z" />
<glyph unicode="k" horiz-adv-x="856" d="M86 0v1536h244v-932l264 420h270l-309 -492l305 -532h-270l-260 455v-455h-244z" />
<glyph unicode="l" horiz-adv-x="466" d="M94 248v1288h244v-1184q0 -61 4 -95t15.5 -49t28.5 -17.5t44 -2.5l-18 -208h-93q-57 0 -99 21.5t-69.5 57t-42 85t-14.5 104.5z" />
<glyph unicode="m" horiz-adv-x="1523" d="M102 0v1024h205l10 -80q23 37 81.5 66.5t129.5 29.5q78 0 147.5 -37.5t110.5 -117.5q6 25 30 52.5t59.5 50t85 37.5t108.5 15q92 0 159.5 -35.5t111.5 -101t65.5 -156t21.5 -196.5v-551h-243v551q0 141 -31 210.5t-117 69.5q-45 0 -73.5 -16t-46 -44t-23.5 -63.5 t-6 -74.5v-633h-242v551q0 82 -8 136t-27.5 87t-51.5 45t-79 12q-43 0 -73.5 -21.5t-59.5 -61.5v-748h-244z" />
<glyph unicode="n" d="M102 0v1024h240l-2 -61q23 33 66 55t88 22q106 0 180 -35.5t119 -100t65.5 -155t20.5 -198.5v-551h-244v551q0 143 -37 211.5t-117 68.5q-47 0 -76.5 -23.5t-58.5 -64.5v-743h-244z" />
<glyph unicode="o" horiz-adv-x="1005" d="M49 510q0 106 31 203.5t88 169t141 114.5t193 43q106 0 191 -43t143.5 -114.5t89 -169t30.5 -203.5q0 -109 -30.5 -205t-89 -167.5t-143.5 -114.5t-191 -43q-109 0 -193 43t-141 114.5t-88 167.5t-31 205zM299 510q0 -143 53.5 -232.5t149.5 -89.5q98 0 150.5 89.5 t52.5 232.5t-52.5 232t-150.5 89q-96 0 -149.5 -89t-53.5 -232z" />
<glyph unicode="p" horiz-adv-x="1007" d="M92 -496v1520h219l19 -59q47 41 89 58t103 17q106 0 189.5 -42t139.5 -114.5t86 -169t30 -204.5q0 -106 -30 -202.5t-87 -169t-142 -115.5t-196 -43q-35 0 -60.5 4t-45 13t-36 22.5t-34.5 29.5v-545h-244zM326 510q0 -70 7 -129t25.5 -102t52 -67t89.5 -24 q106 0 160.5 89.5t54.5 232.5t-54.5 232t-160.5 89q-55 0 -89 -23.5t-52.5 -66.5t-25.5 -102t-7 -129z" />
<glyph unicode="q" horiz-adv-x="1007" d="M92 510q0 109 30 205t86 168.5t139 114.5t190 42q61 0 103 -17t89 -58l19 59h219v-1520h-246v545q-37 -35 -70.5 -52t-107.5 -17q-111 0 -195 43t-140 114.5t-86 167.5t-30 205zM342 510q0 -143 55.5 -232.5t161.5 -89.5q53 0 87 24t53.5 67t26.5 102t7 131q0 70 -7 129 t-26.5 101t-54.5 65.5t-90 23.5q-102 0 -157.5 -89t-55.5 -232z" />
<glyph unicode="r" horiz-adv-x="600" d="M92 0v1024h236v-109q8 20 27.5 43t47 41.5t62.5 29.5t72 11h77l-45 -239h-92q-55 0 -92 -30t-53 -73v-698h-240z" />
<glyph unicode="s" horiz-adv-x="755" d="M59 55l19 217q25 -18 58.5 -36.5t70.5 -33t74.5 -23.5t68.5 -9q39 0 62.5 10t36 26.5t15.5 37t3 39.5q0 63 -43 93t-113 52q-47 16 -91 35.5t-79 50.5t-56.5 79t-21.5 122q0 53 14.5 110.5t51.5 105.5t99.5 78.5t156.5 30.5q43 0 88 -7t85 -17t73 -23.5t49 -27.5 l-18 -217q-16 18 -44 38.5t-63 36t-74 25.5t-73 10q-49 0 -93.5 -25.5t-44.5 -87.5q0 -37 17.5 -60t45 -38.5t63.5 -27t75 -23.5q49 -16 93 -37.5t76 -57.5t51.5 -88.5t19.5 -131.5q0 -47 -10.5 -100.5t-47.5 -97.5t-106.5 -73.5t-188.5 -29.5q-98 0 -178 23.5t-121 51.5z " />
<glyph unicode="t" horiz-adv-x="612" d="M33 815l22 209h92v225l246 27v-252h178v-209h-178v-463q0 -59 3 -92t14.5 -48t34 -19.5t61.5 -4.5h67l-22 -208h-162q-63 0 -108 23.5t-75 61t-44.5 86t-14.5 97.5v567h-114z" />
<glyph unicode="u" d="M94 473v551h244v-551q0 -143 39 -211.5t125 -68.5q53 0 87 22.5t64 63.5v745h244v-1024h-231l2 61q-37 -35 -88.5 -58t-87.5 -23q-115 0 -192 36.5t-123 102t-64.5 156t-18.5 198.5z" />
<glyph unicode="v" horiz-adv-x="882" d="M2 1024h231l207 -709l207 709h230l-342 -1024h-191z" />
<glyph unicode="w" horiz-adv-x="1277" d="M14 1024h226l145 -715l158 695h190l156 -695l147 715h226l-256 -1024h-187l-182 668l-180 -668h-187z" />
<glyph unicode="x" horiz-adv-x="878" d="M8 1024h297l135 -289l127 289h293l-287 -512l283 -512h-297l-135 289l-117 -289h-297l277 512z" />
<glyph unicode="y" horiz-adv-x="944" d="M-16 1024h272l207 -659l221 659h272l-561 -1520h-235l192 564z" />
<glyph unicode="z" horiz-adv-x="831" d="M37 0l358 799h-340v225h746l-359 -799h336v-225h-741z" />
<glyph unicode="{" horiz-adv-x="561" d="M12 629q43 25 72 51.5t46 60t25.5 76.5t8.5 103q0 68 -5 143.5t-5 134.5q0 82 19.5 144.5t64.5 105.5t118.5 65.5t184.5 22.5v-223q-74 0 -115 -9.5t-59.5 -40t-21.5 -88t-3 -151.5q0 -41 4 -84t4 -84q0 -66 -13 -126t-52 -101q39 -41 52 -93.5t13 -117.5q0 -41 -4 -87 t-4 -95q0 -96 3 -153.5t21.5 -88.5t59.5 -40t115 -9v-224q-106 0 -180 20.5t-120 62.5t-66.5 105.5t-20.5 149.5q0 59 5 135t5 146q0 109 -32 173.5t-120 115.5z" />
<glyph unicode="|" horiz-adv-x="391" d="M104 -430v1966h185v-1966h-185z" />
<glyph unicode="}" horiz-adv-x="561" d="M12 -55q74 0 114 9t58.5 40t21.5 88t3 154q0 49 -3 95t-3 87q0 66 13 118t52 93q-39 41 -52 101.5t-13 125.5q0 41 3 84t3 84q0 94 -3 151.5t-21.5 88t-58.5 40t-114 9.5v223q111 0 184.5 -22.5t118.5 -65.5t64.5 -105.5t19.5 -144.5q0 -59 -6 -135t-6 -143 q0 -59 8 -102.5t26.5 -77t47.5 -60.5t72 -51q-90 -51 -122 -115.5t-32 -173.5q0 -70 6 -146t6 -135q0 -172 -88 -255t-299 -83v224z" />
<glyph unicode="~" horiz-adv-x="813" d="M121 391q2 51 23.5 90t55 65.5t74.5 40t84 13.5q45 0 71 -13.5t43 -29.5t33.5 -29.5t43.5 -13.5q41 0 66.5 33t25.5 63l166 -41q-4 -39 -19.5 -75.5t-43 -66.5t-66.5 -48.5t-88 -18.5q-41 0 -71 13.5t-54.5 30t-46 29.5t-47.5 13q-35 0 -50.5 -32.5t-17.5 -63.5z" />
<glyph unicode="&#xa1;" horiz-adv-x="444" d="M98 770v254h248v-254h-248zM113 -512l28 1126h164l37 -1126h-229z" />
<glyph unicode="&#xa2;" horiz-adv-x="833" d="M59 711q0 100 22.5 189t67 159.5t107.5 118t143 61.5l-26 293h200l-28 -291q80 -4 125 -24.5t82 -49.5l-21 -217q-113 84 -219 84q-104 0 -154.5 -89t-50.5 -232t49.5 -232.5t153.5 -89.5q109 0 221 84l21 -217q-41 -29 -89.5 -49.5t-125.5 -26.5l36 -248h-200l26 252 q-86 14 -150.5 60.5t-106.5 117t-62.5 159.5t-20.5 188z" />
<glyph unicode="&#xa3;" horiz-adv-x="921" d="M35 0q109 143 155 294.5t60 326.5h-154l51 213h113v190q0 76 11.5 151.5t46 135t98 97.5t168.5 38q47 0 95 -11.5t89 -34t70.5 -59t40.5 -88.5l-146 -125q-20 63 -42.5 89t-82.5 26q-43 0 -66.5 -16.5t-34.5 -49t-13 -81.5t-2 -113v-149h321l-49 -213h-281 q-2 -57 -6 -101.5t-10 -85.5t-17.5 -83t-27.5 -97h391v-254h-778z" />
<glyph unicode="&#xa4;" horiz-adv-x="1071" d="M72 141l123 199q-49 72 -78 168t-29 205t28.5 205t80.5 167l-125 199l129 102l129 -202q35 29 88 44t117 15q129 0 206 -61l129 204l129 -102l-125 -201q49 -72 78 -168t29 -202q0 -109 -29.5 -205t-79.5 -168l127 -199l-129 -102l-129 203q-76 -59 -206 -60 q-131 0 -207 60l-127 -203zM340 713q0 -143 51 -232.5t144 -89.5q92 0 143 89t51 233q0 143 -51 232t-143 89t-143.5 -89t-51.5 -232z" />
<glyph unicode="&#xa5;" horiz-adv-x="1236" d="M31 1434h264l323 -566l324 566h264l-418 -744h238l-49 -141h-234v-125h283l-49 -141h-234v-283h-249v283h-281l47 141h234v125h-281l45 141h191z" />
<glyph unicode="&#xa6;" horiz-adv-x="393" d="M119 389h155v-819h-155v819zM119 582v954h155v-954h-155z" />
<glyph unicode="&#xa7;" horiz-adv-x="804" d="M66 680q0 37 5 80t18 84t39 76.5t69 60.5q-23 35 -41.5 86t-18.5 127q0 57 13.5 117.5t49.5 111t95 82t151 31.5q33 0 72 -7t74 -19.5t62.5 -28t39.5 -29.5l-12 -215q-49 41 -113.5 71.5t-113.5 30.5q-25 0 -52.5 -5t-50 -18t-37 -36t-14.5 -59q0 -57 33 -90t81 -58.5 t105.5 -51.5t105.5 -67t80.5 -105.5t32.5 -166.5q0 -37 -5 -80t-19.5 -85t-42 -77.5t-72.5 -58.5q23 -37 43.5 -88t20.5 -125q0 -57 -13.5 -117.5t-47.5 -111t-93 -82t-150 -31.5q-35 0 -73.5 7t-73.5 19.5t-62.5 27t-41.5 30.5l12 215q49 -41 114.5 -71.5t112.5 -30.5 q25 0 51.5 5t48 18t35 35.5t13.5 59.5q0 57 -32 90t-80 58.5t-103.5 51.5t-103.5 67t-79.5 105.5t-31.5 166.5zM254 725q0 -49 23.5 -86t56.5 -63.5t67.5 -43t59.5 -26.5q8 0 24.5 12t33 30.5t28.5 42t12 46.5q0 49 -20.5 83t-53 56.5t-71.5 36t-76 23.5q-31 0 -57.5 -32 t-26.5 -79z" />
<glyph unicode="&#xa8;" horiz-adv-x="743" d="M154 1217v217h190v-217h-190zM399 1217v217h191v-217h-191z" />
<glyph unicode="&#xa9;" horiz-adv-x="1232" d="M70 748q0 152 41 275.5t113.5 211.5t173 136t218.5 48q119 0 219.5 -48t173 -136t113.5 -212t41 -275q0 -152 -41 -276t-113.5 -212t-173 -136t-219.5 -48t-219 48t-172.5 136t-113.5 212t-41 276zM225 748q0 -115 24.5 -211.5t73 -168t122 -111.5t171.5 -40t172 40 t123.5 111.5t74 168t24.5 211.5q0 113 -24.5 210t-74 167.5t-123.5 110.5t-172 40t-171.5 -40t-122 -110.5t-73 -168t-24.5 -209.5zM338 743q0 80 21.5 146.5t60.5 113t92 72t119 25.5q51 0 100 -13.5t88 -33.5l-20 -174q-43 20 -82 33.5t-86 13.5q-53 0 -84 -48.5 t-31 -134.5q0 -82 31 -132t84 -50q47 0 86 14.5t82 36.5l20 -172q-39 -25 -89 -38t-99 -13q-63 0 -117.5 25.5t-93.5 71.5t-60.5 112t-21.5 145z" />
<glyph unicode="&#xaa;" horiz-adv-x="636" d="M53 1077q0 61 38 102.5t85 65t92 32.5t58 11q0 10 -8.5 23.5t-51.5 13.5q-49 0 -82.5 -11t-79.5 -20l-8 166q80 25 131.5 32t96.5 7q35 0 71.5 -11t66.5 -32.5t49 -53.5t19 -71v-219q0 -31 7.5 -40t13.5 -9h33l-4 -174h-129q-23 0 -48.5 13t-42.5 28q-35 -18 -72.5 -29.5 t-76.5 -11.5q-63 0 -110.5 41t-47.5 147zM270 1081q0 -27 6.5 -43t22.5 -16h11t18 4v127q-23 0 -40.5 -19.5t-17.5 -52.5z" />
<glyph unicode="&#xab;" horiz-adv-x="1071" d="M20 582l273 422h293l-271 -422l271 -422h-293zM479 582l271 422h294l-272 -422l272 -422h-294z" />
<glyph unicode="&#xac;" horiz-adv-x="1001" d="M86 639v192h811v-522h-197v330h-614z" />
<glyph unicode="&#xad;" horiz-adv-x="784" d="M119 471v193h547v-193h-547z" />
<glyph unicode="&#xae;" horiz-adv-x="1232" d="M70 748q0 152 41 275.5t113.5 211.5t173 136t218.5 48q119 0 219.5 -48t173 -136t113.5 -212t41 -275q0 -152 -41 -276t-113.5 -212t-173 -136t-219.5 -48t-219 48t-172.5 136t-113.5 212t-41 276zM227 748q0 -113 24.5 -210.5t73 -168t121 -110.5t170.5 -40t171 40 t122 110.5t73 168t24 210.5t-24 210t-73 166.5t-122 109.5t-171 40t-170.5 -40t-121 -109.5t-73 -167t-24.5 -209.5zM387 416v686h231q45 0 85 -10.5t70 -37t46.5 -69.5t16.5 -108q0 -59 -26 -107.5t-52 -71.5l133 -282h-189l-106 229h-33v-229h-176zM563 811h29 q45 0 55 20.5t10 49.5q0 31 -8 49t-53 18h-33v-137z" />
<glyph unicode="&#xb0;" horiz-adv-x="573" d="M53 1266q0 57 15.5 107t46 89t73.5 61.5t99 22.5q55 0 98 -22.5t73.5 -61.5t46 -89t15.5 -107t-15.5 -107.5t-46 -88.5t-73.5 -60.5t-98 -22.5t-98.5 22.5t-74 60.5t-46 88t-15.5 108zM190 1266q0 -78 26 -126t71 -48t69.5 48t24.5 126t-24.5 127t-69.5 49 q-43 0 -70 -49.5t-27 -126.5z" />
<glyph unicode="&#xb1;" horiz-adv-x="819" d="M84 61v193h651v-193h-651zM84 635v192h231v263h189v-263h231v-192h-231v-262h-189v262h-231z" />
<glyph unicode="&#xb2;" horiz-adv-x="653" d="M72 655q96 156 150 254.5t80 158.5t32 91t6 49q0 39 -9 63.5t-38 24.5q-35 0 -63.5 -19.5t-50 -44t-34 -48t-14.5 -31.5l-22 178q27 47 82 81t133 34q55 0 92 -19.5t58.5 -49t30.5 -65.5t9 -69q0 -72 -30.5 -164t-92.5 -221h146v-203h-465z" />
<glyph unicode="&#xb3;" horiz-adv-x="657" d="M90 700l47 185q10 -20 49 -34.5t80 -14.5t73 19t32 73q0 41 -18.5 57t-49.5 16h-113l13 148h65q43 0 56.5 24.5t13.5 43.5q0 31 -23.5 52t-64.5 21q-51 0 -90 -28l-25 133q23 20 68 35.5t96 15.5q98 0 158.5 -63.5t60.5 -157.5q0 -68 -33 -135q29 -33 43.5 -74t14.5 -84 q0 -53 -19.5 -105.5t-55.5 -94.5t-84 -67.5t-105 -25.5q-31 0 -62 7t-57.5 16.5t-46 19.5t-23.5 18z" />
<glyph unicode="&#xb4;" horiz-adv-x="534" d="M102 1198v152l330 186v-213z" />
<glyph unicode="&#xb5;" horiz-adv-x="1073" d="M109 -496v1520h245v-551q0 -281 156 -280q47 0 87 22.5t62 63.5v745h246v-672q0 -57 3 -90t11.5 -49t23.5 -20.5t38 -4.5h25l-17 -208h-94q-72 0 -117 28.5t-73 77.5q-16 -20 -41 -38.5t-54.5 -33t-60.5 -22.5t-55 -8q-45 0 -82 7t-58 21v-508h-245z" />
<glyph unicode="&#xb6;" horiz-adv-x="1101" d="M57 954q0 90 32 176.5t94.5 154t156.5 108.5t221 41h459v-220h-117v-1214h-184v1214h-80v-1214h-143v469q-106 8 -188.5 52t-137.5 111.5t-84 151.5t-29 170z" />
<glyph unicode="&#xb7;" horiz-adv-x="444" d="M113 436v266h219v-266h-219z" />
<glyph unicode="&#xb8;" horiz-adv-x="532" d="M215 -397l125 272l211 19l-184 -273z" />
<glyph unicode="&#xb9;" horiz-adv-x="481" d="M92 1157v152q8 0 23.5 11t32 28.5t28.5 39t12 42.5h150v-775h-186v510q-14 -4 -25.5 -6t-34.5 -2z" />
<glyph unicode="&#xba;" horiz-adv-x="681" d="M53 1194q0 59 19.5 114.5t56.5 97.5t91 67.5t122 25.5q70 0 123 -25.5t90 -67.5t55.5 -97.5t18.5 -114.5t-18.5 -114.5t-55.5 -97.5t-90 -67.5t-123 -25.5q-68 0 -122 25.5t-91 67.5t-56.5 97.5t-19.5 114.5zM260 1194q0 -57 22.5 -102t59.5 -45t58.5 45t21.5 102 t-21.5 102t-58.5 45t-59.5 -45t-22.5 -102z" />
<glyph unicode="&#xbb;" horiz-adv-x="1069" d="M27 160l270 422l-270 422h295l270 -422l-270 -422h-295zM485 160l271 422l-271 422h293l273 -422l-273 -422h-293z" />
<glyph unicode="&#xbc;" horiz-adv-x="1531" d="M176 1157v152q8 0 23.5 11t32 28.5t28.5 39t12 42.5h150v-775h-186v510q-14 -4 -25.5 -6t-34.5 -2zM205 -174l633 1608h262l-633 -1608h-262zM776 213l330 564h163v-418h86v-146h-86v-211h-184v211h-309zM1003 359h82v155z" />
<glyph unicode="&#xbd;" horiz-adv-x="1515" d="M176 1157v152q8 0 23.5 11t32 28.5t28.5 39t12 42.5h150v-775h-186v510q-14 -4 -25.5 -6t-34.5 -2zM205 -174l633 1608h262l-633 -1608h-262zM877 2q96 156 150 254.5t80 158.5t32 91t6 49q0 39 -9 63.5t-38 24.5q-35 0 -63.5 -19.5t-50 -44t-34 -48t-14.5 -31.5l-22 178 q27 47 82 81t133 34q55 0 92 -19.5t58.5 -49t30.5 -65.5t9 -69q0 -72 -30.5 -164t-92.5 -221h146v-203h-465z" />
<glyph unicode="&#xbe;" horiz-adv-x="1845" d="M176 700l47 185q10 -20 49 -34.5t80 -14.5t73 19t32 73q0 41 -18.5 57t-49.5 16h-113l13 148h65q43 0 56.5 24.5t13.5 43.5q0 31 -23.5 52t-64.5 21q-51 0 -90 -28l-25 133q23 20 68 35.5t96 15.5q98 0 158.5 -63.5t60.5 -157.5q0 -68 -33 -135q29 -33 43.5 -74t14.5 -84 q0 -53 -19.5 -105.5t-55.5 -94.5t-84 -67.5t-105 -25.5q-31 0 -62 7t-57.5 16.5t-46 19.5t-23.5 18zM510 -174l633 1608h262l-633 -1608h-262zM1090 213l330 564h163v-418h86v-146h-86v-211h-184v211h-309zM1317 359h82v155z" />
<glyph unicode="&#xbf;" horiz-adv-x="780" d="M49 -123q0 92 41 174t89 164t89 172t41 201v26h168q2 -66 3 -84t1 -24q0 -96 -31.5 -175t-68.5 -150.5t-68.5 -144.5t-31.5 -159q0 -96 43 -142t114 -46q72 0 122 40t91 93l51 -189q-47 -76 -123.5 -110.5t-162.5 -34.5q-94 0 -163 38t-114 95t-67.5 126t-22.5 130z M272 770v254h244v-254h-244z" />
<glyph unicode="&#xc0;" horiz-adv-x="1097" d="M-2 0l436 1434h230l438 -1434h-260l-101 346h-383l-100 -346h-260zM385 1733v213l330 -186v-152zM446 600h207l-104 420z" />
<glyph unicode="&#xc1;" horiz-adv-x="1097" d="M-2 0l436 1434h230l438 -1434h-260l-101 346h-383l-100 -346h-260zM385 1608v152l330 186v-213zM446 600h207l-104 420z" />
<glyph unicode="&#xc2;" horiz-adv-x="1097" d="M-2 0l436 1434h230l438 -1434h-260l-101 346h-383l-100 -346h-260zM289 1608v152l258 186l260 -186v-152l-260 145zM446 600h207l-104 420z" />
<glyph unicode="&#xc3;" horiz-adv-x="1097" d="M-2 0l436 1434h230l438 -1434h-260l-101 346h-383l-100 -346h-260zM205 1667q2 51 23.5 90t55 66t74.5 40t84 13q45 0 71 -13t43 -29.5t33.5 -30t43.5 -13.5q41 0 66.5 33t25.5 64l166 -41q-4 -39 -19.5 -76t-43 -66.5t-66.5 -48t-88 -18.5q-41 0 -71 13t-54.5 29.5 t-46 30t-47.5 13.5q-35 0 -50.5 -33t-17.5 -63zM446 600h207l-104 420z" />
<glyph unicode="&#xc4;" horiz-adv-x="1097" d="M-2 0l436 1434h230l438 -1434h-260l-101 346h-383l-100 -346h-260zM330 1627v217h190v-217h-190zM446 600h207l-104 420zM575 1627v217h191v-217h-191z" />
<glyph unicode="&#xc5;" horiz-adv-x="1097" d="M-2 0l436 1434h230l438 -1434h-260l-101 346h-383l-100 -346h-260zM365 1772q0 76 50 130t132 54q86 0 135 -54t49 -130t-50 -129t-134 -53q-82 0 -132 53t-50 129zM446 600h207l-104 420zM484 1772q0 -39 17 -61.5t46 -22.5q31 0 48.5 22.5t17.5 61.5q0 37 -18.5 60.5 t-47.5 23.5t-46 -23.5t-17 -60.5z" />
<glyph unicode="&#xc6;" horiz-adv-x="1525" d="M-27 0l600 1434h879v-254h-510v-306h391v-253h-391v-367h524v-254h-768v346h-325l-135 -346h-265zM487 600h211v574z" />
<glyph unicode="&#xc7;" horiz-adv-x="1073" d="M61 717q0 168 45.5 306t126 235.5t191.5 150.5t242 53q98 0 191 -22.5t163 -61.5l-29 -250q-78 35 -152.5 58.5t-172.5 23.5q-84 0 -145.5 -36.5t-102.5 -102t-61.5 -157t-20.5 -197.5q0 -109 20.5 -199t61.5 -155.5t102.5 -102.5t143.5 -37q98 0 173.5 23.5t153.5 58.5 l29 -250q-68 -39 -163 -61.5t-193 -22.5q-131 0 -242 53.5t-190.5 150.5t-125 234.5t-45.5 307.5zM367 -397l125 272l211 19l-184 -273z" />
<glyph unicode="&#xc8;" horiz-adv-x="962" d="M135 0v1434h805v-254h-547v-306h420v-253h-420v-367h565v-254h-823zM317 1733v213l330 -186v-152z" />
<glyph unicode="&#xc9;" horiz-adv-x="962" d="M135 0v1434h805v-254h-547v-306h420v-253h-420v-367h565v-254h-823zM317 1608v152l330 186v-213z" />
<glyph unicode="&#xca;" horiz-adv-x="962" d="M135 0v1434h805v-254h-547v-306h420v-253h-420v-367h565v-254h-823zM221 1608v152l258 186l260 -186v-152l-260 145z" />
<glyph unicode="&#xcb;" horiz-adv-x="962" d="M135 0v1434h805v-254h-547v-306h420v-253h-420v-367h565v-254h-823zM263 1627v217h190v-217h-190zM508 1627v217h191v-217h-191z" />
<glyph unicode="&#xcc;" horiz-adv-x="495" d="M86 1733v213l330 -186v-152zM123 0v1434h250v-1434h-250z" />
<glyph unicode="&#xcd;" horiz-adv-x="495" d="M86 1608v152l330 186v-213zM123 0v1434h250v-1434h-250z" />
<glyph unicode="&#xce;" horiz-adv-x="495" d="M-8 1608v152l258 186l260 -186v-152l-260 145zM123 0v1434h250v-1434h-250z" />
<glyph unicode="&#xcf;" horiz-adv-x="495" d="M33 1627v217h190v-217h-190zM123 0v1434h250v-1434h-250zM278 1627v217h191v-217h-191z" />
<glyph unicode="&#xd0;" horiz-adv-x="1288" d="M-8 612v193h158v629h466q131 0 243 -49.5t193 -141.5t127 -225t46 -301q0 -170 -46 -303t-127 -225.5t-192.5 -140.5t-243.5 -48h-466v612h-158zM403 252h213q166 0 249 124t83 341t-83 341t-249 124h-213v-377h207v-193h-207v-360z" />
<glyph unicode="&#xd1;" horiz-adv-x="1251" d="M135 0v1434h240l491 -926v926h250v-1434h-203l-528 983v-983h-250zM283 1667q2 51 23.5 90t55 66t74.5 40t84 13q45 0 71 -13t43 -29.5t33.5 -30t43.5 -13.5q41 0 66.5 33t25.5 64l166 -41q-4 -39 -19.5 -76t-43 -66.5t-66.5 -48t-88 -18.5q-41 0 -71 13t-54.5 29.5 t-46 30t-47.5 13.5q-35 0 -50.5 -33t-17.5 -63z" />
<glyph unicode="&#xd2;" horiz-adv-x="1337" d="M61 717q0 168 45.5 306t127 235.5t192.5 150.5t244 53q131 0 242.5 -53t192.5 -150.5t126 -235.5t45 -306q0 -170 -45 -307.5t-126 -234.5t-192.5 -150.5t-242.5 -53.5q-133 0 -244 53.5t-192.5 150.5t-127 234.5t-45.5 307.5zM336 717q0 -109 21.5 -199t62.5 -155.5 t103.5 -102.5t146.5 -37q82 0 145.5 37t104.5 102.5t62.5 155.5t21.5 199q0 106 -21.5 197.5t-62.5 157t-104.5 102t-145.5 36.5q-84 0 -146.5 -36.5t-103.5 -102t-62.5 -157t-21.5 -197.5zM503 1733v213l330 -186v-152z" />
<glyph unicode="&#xd3;" horiz-adv-x="1337" d="M61 717q0 168 45.5 306t127 235.5t192.5 150.5t244 53q131 0 242.5 -53t192.5 -150.5t126 -235.5t45 -306q0 -170 -45 -307.5t-126 -234.5t-192.5 -150.5t-242.5 -53.5q-133 0 -244 53.5t-192.5 150.5t-127 234.5t-45.5 307.5zM336 717q0 -109 21.5 -199t62.5 -155.5 t103.5 -102.5t146.5 -37q82 0 145.5 37t104.5 102.5t62.5 155.5t21.5 199q0 106 -21.5 197.5t-62.5 157t-104.5 102t-145.5 36.5q-84 0 -146.5 -36.5t-103.5 -102t-62.5 -157t-21.5 -197.5zM503 1608v152l330 186v-213z" />
<glyph unicode="&#xd4;" horiz-adv-x="1337" d="M61 717q0 168 45.5 306t127 235.5t192.5 150.5t244 53q131 0 242.5 -53t192.5 -150.5t126 -235.5t45 -306q0 -170 -45 -307.5t-126 -234.5t-192.5 -150.5t-242.5 -53.5q-133 0 -244 53.5t-192.5 150.5t-127 234.5t-45.5 307.5zM336 717q0 -109 21.5 -199t62.5 -155.5 t103.5 -102.5t146.5 -37q82 0 145.5 37t104.5 102.5t62.5 155.5t21.5 199q0 106 -21.5 197.5t-62.5 157t-104.5 102t-145.5 36.5q-84 0 -146.5 -36.5t-103.5 -102t-62.5 -157t-21.5 -197.5zM409 1608v152l258 186l260 -186v-152l-260 145z" />
<glyph unicode="&#xd5;" horiz-adv-x="1337" d="M61 717q0 168 45.5 306t127 235.5t192.5 150.5t244 53q131 0 242.5 -53t192.5 -150.5t126 -235.5t45 -306q0 -170 -45 -307.5t-126 -234.5t-192.5 -150.5t-242.5 -53.5q-133 0 -244 53.5t-192.5 150.5t-127 234.5t-45.5 307.5zM328 1667q2 51 23.5 90t55 66t74.5 40 t84 13q45 0 71 -13t43 -29.5t33.5 -30t43.5 -13.5q41 0 66.5 33t25.5 64l166 -41q-4 -39 -19.5 -76t-43 -66.5t-66.5 -48t-88 -18.5q-41 0 -71 13t-54.5 29.5t-46 30t-47.5 13.5q-35 0 -50.5 -33t-17.5 -63zM336 717q0 -109 21.5 -199t62.5 -155.5t103.5 -102.5t146.5 -37 q82 0 145.5 37t104.5 102.5t62.5 155.5t21.5 199q0 106 -21.5 197.5t-62.5 157t-104.5 102t-145.5 36.5q-84 0 -146.5 -36.5t-103.5 -102t-62.5 -157t-21.5 -197.5z" />
<glyph unicode="&#xd6;" horiz-adv-x="1337" d="M61 717q0 168 45.5 306t127 235.5t192.5 150.5t244 53q131 0 242.5 -53t192.5 -150.5t126 -235.5t45 -306q0 -170 -45 -307.5t-126 -234.5t-192.5 -150.5t-242.5 -53.5q-133 0 -244 53.5t-192.5 150.5t-127 234.5t-45.5 307.5zM336 717q0 -109 21.5 -199t62.5 -155.5 t103.5 -102.5t146.5 -37q82 0 145.5 37t104.5 102.5t62.5 155.5t21.5 199q0 106 -21.5 197.5t-62.5 157t-104.5 102t-145.5 36.5q-84 0 -146.5 -36.5t-103.5 -102t-62.5 -157t-21.5 -197.5zM451 1627v217h190v-217h-190zM696 1627v217h191v-217h-191z" />
<glyph unicode="&#xd7;" horiz-adv-x="757" d="M76 348l176 219l-176 219l127 125l176 -219l176 219l127 -125l-176 -219l176 -219l-127 -125l-176 219l-176 -219z" />
<glyph unicode="&#xd8;" horiz-adv-x="1337" d="M61 717q0 168 45.5 306t127 235.5t192.5 150.5t244 53q74 0 141.5 -17.5t120.5 -51.5l39 73h268l-127 -206q76 -98 120 -235.5t44 -307.5t-45 -307.5t-126 -234.5t-192.5 -150.5t-242.5 -53.5q-78 0 -148.5 19.5t-124.5 54.5l-59 -108h-266l149 241q-74 98 -117 234.5 t-43 304.5zM332 717q0 -88 12 -165t33 -138l414 764q-16 16 -49 24t-72 8q-84 0 -147.5 -36.5t-105.5 -102t-63.5 -157t-21.5 -197.5zM539 258q18 -16 53 -25.5t78 -9.5q82 0 145.5 37t105.5 102.5t63.5 155.5t21.5 199q0 92 -13.5 170t-36.5 141z" />
<glyph unicode="&#xd9;" horiz-adv-x="1263" d="M121 614v820h250v-732q0 -100 10 -187t40 -151.5t80 -102.5t130 -38t131 38t79.5 102.5t39 151.5t10.5 187v732h252v-820q0 -145 -31 -264t-94.5 -203t-159.5 -130t-227 -46q-129 0 -225.5 46t-160 130t-94 203t-30.5 264zM467 1733v213l330 -186v-152z" />
<glyph unicode="&#xda;" horiz-adv-x="1263" d="M121 614v820h250v-732q0 -100 10 -187t40 -151.5t80 -102.5t130 -38t131 38t79.5 102.5t39 151.5t10.5 187v732h252v-820q0 -145 -31 -264t-94.5 -203t-159.5 -130t-227 -46q-129 0 -225.5 46t-160 130t-94 203t-30.5 264zM467 1608v152l330 186v-213z" />
<glyph unicode="&#xdb;" horiz-adv-x="1263" d="M121 614v820h250v-732q0 -100 10 -187t40 -151.5t80 -102.5t130 -38t131 38t79.5 102.5t39 151.5t10.5 187v732h252v-820q0 -145 -31 -264t-94.5 -203t-159.5 -130t-227 -46q-129 0 -225.5 46t-160 130t-94 203t-30.5 264zM373 1608v152l258 186l260 -186v-152l-260 145z " />
<glyph unicode="&#xdc;" horiz-adv-x="1263" d="M121 614v820h250v-732q0 -100 10 -187t40 -151.5t80 -102.5t130 -38t131 38t79.5 102.5t39 151.5t10.5 187v732h252v-820q0 -145 -31 -264t-94.5 -203t-159.5 -130t-227 -46q-129 0 -225.5 46t-160 130t-94 203t-30.5 264zM414 1627v217h190v-217h-190zM659 1627v217h191 v-217h-191z" />
<glyph unicode="&#xdd;" horiz-adv-x="1011" d="M-39 1434h266l289 -566l287 566h266l-430 -799v-635h-248v635zM340 1608v152l330 186v-213z" />
<glyph unicode="&#xde;" horiz-adv-x="1062" d="M123 0v1434h246v-238h84q145 0 252.5 -15.5t178 -64.5t104.5 -138t34 -237q0 -154 -46 -253t-113.5 -155.5t-146.5 -78t-147 -21.5h-200v-233h-246zM369 479h172q119 0 174 57.5t55 202.5q0 61 -9 106.5t-34 74t-67 43t-107 14.5h-184v-498z" />
<glyph unicode="&#xdf;" horiz-adv-x="999" d="M37 815l18 209h97v113q0 92 29.5 165.5t79.5 126t113.5 80t131.5 27.5q63 0 126.5 -21.5t114 -67.5t81 -119t30.5 -177q0 -84 -18.5 -148.5t-40 -112.5t-40 -82t-18.5 -56q0 -31 34 -63t75 -79t74.5 -116.5t33.5 -176.5q0 -94 -30.5 -158.5t-83.5 -104.5t-123 -57 t-150 -17q-20 0 -49.5 2t-62.5 8v198q63 0 110 2.5t78 14.5t46.5 38.5t15.5 75.5q0 82 -35 137.5t-76 100.5t-76 86t-35 94q0 43 22.5 82t48.5 85t48.5 102.5t22.5 132.5q0 100 -41 142t-84 42q-51 0 -80 -50t-29 -126v-1426h-243v1094h-115z" />
<glyph unicode="&#xe0;" horiz-adv-x="874" d="M25 287q0 109 56 178.5t134 110t160 58t135 19.5q-4 88 -34 128t-111 40q-66 0 -121.5 -18.5t-126.5 -59.5l-17 207q92 45 172 67.5t160 22.5q70 0 130.5 -22.5t103.5 -71.5t67.5 -128t24.5 -189v-277q0 -57 3 -90t11 -49t21.5 -20.5t31.5 -4.5h33l-16 -208h-109 q-55 0 -108.5 32.5t-77.5 85.5q-41 -57 -118 -87.5t-155 -30.5q-49 0 -94 20t-79.5 60t-55 96.5t-20.5 130.5zM272 1323v213l330 -186v-152zM283 297q0 -63 23.5 -93t86.5 -30q14 0 50 17.5t69 56.5v233q-25 -2 -63.5 -14t-75.5 -34.5t-63.5 -56.5t-26.5 -79z" />
<glyph unicode="&#xe1;" horiz-adv-x="874" d="M25 287q0 109 56 178.5t134 110t160 58t135 19.5q-4 88 -34 128t-111 40q-66 0 -121.5 -18.5t-126.5 -59.5l-17 207q92 45 172 67.5t160 22.5q70 0 130.5 -22.5t103.5 -71.5t67.5 -128t24.5 -189v-277q0 -57 3 -90t11 -49t21.5 -20.5t31.5 -4.5h33l-16 -208h-109 q-55 0 -108.5 32.5t-77.5 85.5q-41 -57 -118 -87.5t-155 -30.5q-49 0 -94 20t-79.5 60t-55 96.5t-20.5 130.5zM272 1198v152l330 186v-213zM283 297q0 -63 23.5 -93t86.5 -30q14 0 50 17.5t69 56.5v233q-25 -2 -63.5 -14t-75.5 -34.5t-63.5 -56.5t-26.5 -79z" />
<glyph unicode="&#xe2;" horiz-adv-x="874" d="M25 287q0 109 56 178.5t134 110t160 58t135 19.5q-4 88 -34 128t-111 40q-66 0 -121.5 -18.5t-126.5 -59.5l-17 207q92 45 172 67.5t160 22.5q70 0 130.5 -22.5t103.5 -71.5t67.5 -128t24.5 -189v-277q0 -57 3 -90t11 -49t21.5 -20.5t31.5 -4.5h33l-16 -208h-109 q-55 0 -108.5 32.5t-77.5 85.5q-41 -57 -118 -87.5t-155 -30.5q-49 0 -94 20t-79.5 60t-55 96.5t-20.5 130.5zM180 1198v152l258 186l260 -186v-152l-260 145zM283 297q0 -63 23.5 -93t86.5 -30q14 0 50 17.5t69 56.5v233q-25 -2 -63.5 -14t-75.5 -34.5t-63.5 -56.5 t-26.5 -79z" />
<glyph unicode="&#xe3;" horiz-adv-x="874" d="M25 287q0 109 56 178.5t134 110t160 58t135 19.5q-4 88 -34 128t-111 40q-66 0 -121.5 -18.5t-126.5 -59.5l-17 207q92 45 172 67.5t160 22.5q70 0 130.5 -22.5t103.5 -71.5t67.5 -128t24.5 -189v-277q0 -57 3 -90t11 -49t21.5 -20.5t31.5 -4.5h33l-16 -208h-109 q-55 0 -108.5 32.5t-77.5 85.5q-41 -57 -118 -87.5t-155 -30.5q-49 0 -94 20t-79.5 60t-55 96.5t-20.5 130.5zM94 1257q2 51 23.5 90t55 66t74.5 40t84 13q45 0 71 -13t43 -29.5t33.5 -30t43.5 -13.5q41 0 66.5 33t25.5 64l166 -41q-4 -39 -19.5 -76t-43 -66.5t-66.5 -48 t-88 -18.5q-41 0 -71 13t-54.5 29.5t-46 30t-47.5 13.5q-35 0 -50.5 -33t-17.5 -63zM283 297q0 -63 23.5 -93t86.5 -30q14 0 50 17.5t69 56.5v233q-25 -2 -63.5 -14t-75.5 -34.5t-63.5 -56.5t-26.5 -79z" />
<glyph unicode="&#xe4;" horiz-adv-x="874" d="M25 287q0 109 56 178.5t134 110t160 58t135 19.5q-4 88 -34 128t-111 40q-66 0 -121.5 -18.5t-126.5 -59.5l-17 207q92 45 172 67.5t160 22.5q70 0 130.5 -22.5t103.5 -71.5t67.5 -128t24.5 -189v-277q0 -57 3 -90t11 -49t21.5 -20.5t31.5 -4.5h33l-16 -208h-109 q-55 0 -108.5 32.5t-77.5 85.5q-41 -57 -118 -87.5t-155 -30.5q-49 0 -94 20t-79.5 60t-55 96.5t-20.5 130.5zM222 1217v217h190v-217h-190zM283 297q0 -63 23.5 -93t86.5 -30q14 0 50 17.5t69 56.5v233q-25 -2 -63.5 -14t-75.5 -34.5t-63.5 -56.5t-26.5 -79zM467 1217v217 h191v-217h-191z" />
<glyph unicode="&#xe5;" horiz-adv-x="874" d="M25 287q0 109 56 178.5t134 110t160 58t135 19.5q-4 88 -34 128t-111 40q-66 0 -121.5 -18.5t-126.5 -59.5l-17 207q92 45 172 67.5t160 22.5q70 0 130.5 -22.5t103.5 -71.5t67.5 -128t24.5 -189v-277q0 -57 3 -90t11 -49t21.5 -20.5t31.5 -4.5h33l-16 -208h-109 q-55 0 -108.5 32.5t-77.5 85.5q-41 -57 -118 -87.5t-155 -30.5q-49 0 -94 20t-79.5 60t-55 96.5t-20.5 130.5zM256 1362q0 76 50 130t132 54q86 0 135 -54t49 -130t-50 -129t-134 -53q-82 0 -132 53t-50 129zM283 297q0 -63 23.5 -93t86.5 -30q14 0 50 17.5t69 56.5v233 q-25 -2 -63.5 -14t-75.5 -34.5t-63.5 -56.5t-26.5 -79zM375 1362q0 -39 17 -61.5t46 -22.5q31 0 48.5 22.5t17.5 61.5q0 37 -18.5 60.5t-47.5 23.5t-46 -23.5t-17 -60.5z" />
<glyph unicode="&#xe6;" horiz-adv-x="1398" d="M35 260q0 78 24.5 136.5t65.5 100.5t92 69.5t104.5 43t104.5 23.5t90 10q0 94 -27.5 136t-111.5 42q-61 0 -118.5 -18.5t-133.5 -59.5l-23 207q164 90 338 90q59 0 100.5 -8t71 -29.5t50 -56.5t38.5 -88q6 33 31 65.5t64 58.5t90 42t110 16q76 0 141.5 -30.5t112.5 -88 t74 -139.5t27 -182q0 -39 -4.5 -72.5t-14.5 -70.5h-543q27 -143 95.5 -206t138.5 -63q31 0 71 7.5t80.5 18.5t77.5 26.5t60 31.5v-215q-43 -31 -121 -54t-172 -23q-139 0 -227.5 53t-124.5 139q-31 -43 -64 -80t-71.5 -64.5t-87 -43t-109.5 -15.5q-141 0 -220 78t-79 213z M293 283q0 -53 27.5 -85t64.5 -32q25 0 50.5 15.5t47 47t35.5 77.5t14 108v28.5t-2 28.5q-37 0 -78.5 -11t-76.5 -34t-58.5 -57.5t-23.5 -85.5zM788 629h347q0 35 -6.5 70.5t-21.5 65.5t-45 48t-75 18q-78 0 -133 -56t-66 -146z" />
<glyph unicode="&#xe7;" horiz-adv-x="788" d="M49 510q0 106 27.5 203.5t81 169t134.5 114.5t185 43q55 0 94 -6t70 -16t54.5 -24.5t45.5 -28.5l-18 -217q-55 41 -108.5 62t-118.5 21q-90 0 -143.5 -89t-53.5 -232t53.5 -232.5t143.5 -89.5q66 0 119 21.5t108 62.5l18 -217q-45 -31 -101.5 -53t-162.5 -22 q-104 0 -185 43t-134.5 114.5t-81 167.5t-27.5 205zM276 -397l125 272l211 19l-184 -273z" />
<glyph unicode="&#xe8;" horiz-adv-x="907" d="M45 512q0 106 27.5 201.5t82 168t132.5 115.5t178 43q86 0 158.5 -31.5t126 -89t83 -138.5t29.5 -181q0 -39 -4 -72.5t-12 -70.5h-545q8 -72 32.5 -123t58.5 -83t73 -47.5t80 -15.5q27 0 64.5 7.5t76.5 18.5t75 26.5t62 31.5v-215q-51 -31 -126.5 -54t-170.5 -23 q-121 0 -212 43t-150.5 115.5t-89 168.5t-29.5 205zM288 1323v213l330 -186v-152zM301 629h313q0 33 -6 69.5t-21.5 65.5t-42 48t-67.5 19q-72 0 -118 -57t-58 -145z" />
<glyph unicode="&#xe9;" horiz-adv-x="907" d="M45 512q0 106 27.5 201.5t82 168t132.5 115.5t178 43q86 0 158.5 -31.5t126 -89t83 -138.5t29.5 -181q0 -39 -4 -72.5t-12 -70.5h-545q8 -72 32.5 -123t58.5 -83t73 -47.5t80 -15.5q27 0 64.5 7.5t76.5 18.5t75 26.5t62 31.5v-215q-51 -31 -126.5 -54t-170.5 -23 q-121 0 -212 43t-150.5 115.5t-89 168.5t-29.5 205zM288 1198v152l330 186v-213zM301 629h313q0 33 -6 69.5t-21.5 65.5t-42 48t-67.5 19q-72 0 -118 -57t-58 -145z" />
<glyph unicode="&#xea;" horiz-adv-x="907" d="M45 512q0 106 27.5 201.5t82 168t132.5 115.5t178 43q86 0 158.5 -31.5t126 -89t83 -138.5t29.5 -181q0 -39 -4 -72.5t-12 -70.5h-545q8 -72 32.5 -123t58.5 -83t73 -47.5t80 -15.5q27 0 64.5 7.5t76.5 18.5t75 26.5t62 31.5v-215q-51 -31 -126.5 -54t-170.5 -23 q-121 0 -212 43t-150.5 115.5t-89 168.5t-29.5 205zM194 1198v152l258 186l260 -186v-152l-260 145zM301 629h313q0 33 -6 69.5t-21.5 65.5t-42 48t-67.5 19q-72 0 -118 -57t-58 -145z" />
<glyph unicode="&#xeb;" horiz-adv-x="907" d="M45 512q0 106 27.5 201.5t82 168t132.5 115.5t178 43q86 0 158.5 -31.5t126 -89t83 -138.5t29.5 -181q0 -39 -4 -72.5t-12 -70.5h-545q8 -72 32.5 -123t58.5 -83t73 -47.5t80 -15.5q27 0 64.5 7.5t76.5 18.5t75 26.5t62 31.5v-215q-51 -31 -126.5 -54t-170.5 -23 q-121 0 -212 43t-150.5 115.5t-89 168.5t-29.5 205zM234 1217v217h190v-217h-190zM301 629h313q0 33 -6 69.5t-21.5 65.5t-42 48t-67.5 19q-72 0 -118 -57t-58 -145zM479 1217v217h191v-217h-191z" />
<glyph unicode="&#xec;" horiz-adv-x="423" d="M49 1323v213l330 -186v-152zM90 0v1024h244v-1024h-244z" />
<glyph unicode="&#xed;" horiz-adv-x="423" d="M49 1198v152l330 186v-213zM90 0v1024h244v-1024h-244z" />
<glyph unicode="&#xee;" horiz-adv-x="423" d="M-45 1198v152l258 186l260 -186v-152l-260 145zM90 0v1024h244v-1024h-244z" />
<glyph unicode="&#xef;" horiz-adv-x="423" d="M-4 1217v217h190v-217h-190zM90 0v1024h244v-1024h-244zM241 1217v217h191v-217h-191z" />
<glyph unicode="&#xf0;" horiz-adv-x="903" d="M37 420q0 82 24.5 164t71.5 145.5t116.5 103t162.5 39.5q66 0 109.5 -23.5t82.5 -55.5q-2 29 -11 73.5t-24.5 92t-34 87t-36.5 56.5q-49 -47 -109.5 -78t-130.5 -39l-74 150q43 0 99.5 24.5t105.5 65.5q-45 47 -98 69.5t-109 32.5l80 109q139 -2 252 -107 q27 31 53.5 62.5t42.5 64.5l135 -33q-31 -53 -61.5 -101t-60.5 -91q94 -125 155.5 -306.5t61.5 -396.5q0 -164 -37 -271t-94.5 -169.5t-129 -88.5t-141.5 -26q-86 0 -158.5 33t-127 92.5t-85 141.5t-30.5 180zM258 451q0 -53 10.5 -101.5t32 -86.5t56 -60.5t83.5 -22.5 q31 0 64 13.5t58.5 43t43 75.5t17.5 112q0 117 -46.5 183.5t-144.5 66.5q-47 0 -80 -20.5t-53 -53.5t-30.5 -72t-10.5 -77z" />
<glyph unicode="&#xf1;" d="M102 0v1024h240l-2 -61q23 33 66 55t88 22q106 0 180 -35.5t119 -100t65.5 -155t20.5 -198.5v-551h-244v551q0 143 -37 211.5t-117 68.5q-47 0 -76.5 -23.5t-58.5 -64.5v-743h-244zM144 1257q2 51 23.5 90t55 66t74.5 40t84 13q45 0 71 -13t43 -29.5t33.5 -30t43.5 -13.5 q41 0 66.5 33t25.5 64l166 -41q-4 -39 -19.5 -76t-43 -66.5t-66.5 -48t-88 -18.5q-41 0 -71 13t-54.5 29.5t-46 30t-47.5 13.5q-35 0 -50.5 -33t-17.5 -63z" />
<glyph unicode="&#xf2;" horiz-adv-x="1005" d="M49 510q0 106 31 203.5t88 169t141 114.5t193 43q106 0 191 -43t143.5 -114.5t89 -169t30.5 -203.5q0 -109 -30.5 -205t-89 -167.5t-143.5 -114.5t-191 -43q-109 0 -193 43t-141 114.5t-88 167.5t-31 205zM299 510q0 -143 53.5 -232.5t149.5 -89.5q98 0 150.5 89.5 t52.5 232.5t-52.5 232t-150.5 89q-96 0 -149.5 -89t-53.5 -232zM338 1323v213l330 -186v-152z" />
<glyph unicode="&#xf3;" horiz-adv-x="1005" d="M49 510q0 106 31 203.5t88 169t141 114.5t193 43q106 0 191 -43t143.5 -114.5t89 -169t30.5 -203.5q0 -109 -30.5 -205t-89 -167.5t-143.5 -114.5t-191 -43q-109 0 -193 43t-141 114.5t-88 167.5t-31 205zM299 510q0 -143 53.5 -232.5t149.5 -89.5q98 0 150.5 89.5 t52.5 232.5t-52.5 232t-150.5 89q-96 0 -149.5 -89t-53.5 -232zM338 1198v152l330 186v-213z" />
<glyph unicode="&#xf4;" horiz-adv-x="1005" d="M49 510q0 106 31 203.5t88 169t141 114.5t193 43q106 0 191 -43t143.5 -114.5t89 -169t30.5 -203.5q0 -109 -30.5 -205t-89 -167.5t-143.5 -114.5t-191 -43q-109 0 -193 43t-141 114.5t-88 167.5t-31 205zM244 1198v152l258 186l260 -186v-152l-260 145zM299 510 q0 -143 53.5 -232.5t149.5 -89.5q98 0 150.5 89.5t52.5 232.5t-52.5 232t-150.5 89q-96 0 -149.5 -89t-53.5 -232z" />
<glyph unicode="&#xf5;" horiz-adv-x="1005" d="M49 510q0 106 31 203.5t88 169t141 114.5t193 43q106 0 191 -43t143.5 -114.5t89 -169t30.5 -203.5q0 -109 -30.5 -205t-89 -167.5t-143.5 -114.5t-191 -43q-109 0 -193 43t-141 114.5t-88 167.5t-31 205zM160 1257q2 51 23.5 90t55 66t74.5 40t84 13q45 0 71 -13 t43 -29.5t33.5 -30t43.5 -13.5q41 0 66.5 33t25.5 64l166 -41q-4 -39 -19.5 -76t-43 -66.5t-66.5 -48t-88 -18.5q-41 0 -71 13t-54.5 29.5t-46 30t-47.5 13.5q-35 0 -50.5 -33t-17.5 -63zM299 510q0 -143 53.5 -232.5t149.5 -89.5q98 0 150.5 89.5t52.5 232.5t-52.5 232 t-150.5 89q-96 0 -149.5 -89t-53.5 -232z" />
<glyph unicode="&#xf6;" horiz-adv-x="1005" d="M49 510q0 106 31 203.5t88 169t141 114.5t193 43q106 0 191 -43t143.5 -114.5t89 -169t30.5 -203.5q0 -109 -30.5 -205t-89 -167.5t-143.5 -114.5t-191 -43q-109 0 -193 43t-141 114.5t-88 167.5t-31 205zM285 1217v217h190v-217h-190zM299 510q0 -143 53.5 -232.5 t149.5 -89.5q98 0 150.5 89.5t52.5 232.5t-52.5 232t-150.5 89q-96 0 -149.5 -89t-53.5 -232zM530 1217v217h191v-217h-191z" />
<glyph unicode="&#xf7;" horiz-adv-x="966" d="M78 471v193h811v-193h-811zM354 41v266h244v-266h-244zM354 827v267h244v-267h-244z" />
<glyph unicode="&#xf8;" horiz-adv-x="989" d="M49 510q0 106 30 203.5t87 169t140 114.5t190 43q66 0 104 -16l27 70h219l-68 -154q76 -74 119 -186.5t43 -243.5q0 -109 -29.5 -205t-87 -167.5t-140.5 -114.5t-187 -43q-68 0 -113 16l-25 -70h-213l66 154q-78 72 -120 185.5t-42 244.5zM293 508q0 -59 8 -110.5 t18 -92.5l187 522q0 4 -10 4q-94 0 -148.5 -90t-54.5 -233zM477 193q2 -4 17 -5q96 0 148 89.5t52 232.5q0 59 -7 111.5t-17 93.5z" />
<glyph unicode="&#xf9;" d="M94 473v551h244v-551q0 -143 39 -211.5t125 -68.5q53 0 87 22.5t64 63.5v745h244v-1024h-231l2 61q-37 -35 -88.5 -58t-87.5 -23q-115 0 -192 36.5t-123 102t-64.5 156t-18.5 198.5zM321 1323v213l330 -186v-152z" />
<glyph unicode="&#xfa;" d="M94 473v551h244v-551q0 -143 39 -211.5t125 -68.5q53 0 87 22.5t64 63.5v745h244v-1024h-231l2 61q-37 -35 -88.5 -58t-87.5 -23q-115 0 -192 36.5t-123 102t-64.5 156t-18.5 198.5zM321 1198v152l330 186v-213z" />
<glyph unicode="&#xfb;" d="M94 473v551h244v-551q0 -143 39 -211.5t125 -68.5q53 0 87 22.5t64 63.5v745h244v-1024h-231l2 61q-37 -35 -88.5 -58t-87.5 -23q-115 0 -192 36.5t-123 102t-64.5 156t-18.5 198.5zM227 1198v152l258 186l260 -186v-152l-260 145z" />
<glyph unicode="&#xfc;" d="M94 473v551h244v-551q0 -143 39 -211.5t125 -68.5q53 0 87 22.5t64 63.5v745h244v-1024h-231l2 61q-37 -35 -88.5 -58t-87.5 -23q-115 0 -192 36.5t-123 102t-64.5 156t-18.5 198.5zM269 1217v217h190v-217h-190zM514 1217v217h191v-217h-191z" />
<glyph unicode="&#xfd;" horiz-adv-x="944" d="M-16 1024h272l207 -659l221 659h272l-561 -1520h-235l192 564zM309 1198v152l330 186v-213z" />
<glyph unicode="&#xfe;" horiz-adv-x="1007" d="M102 -496v2032h244v-563q37 33 75 50t101 17q109 0 190 -43t135 -114.5t81.5 -169t27.5 -203.5q0 -109 -27.5 -205t-81.5 -167.5t-134.5 -114.5t-186.5 -43q-59 0 -97 17t-83 52v-545h-244zM336 510q0 -143 43 -232.5t133 -89.5q92 0 143.5 89.5t51.5 232.5t-51.5 232 t-143.5 89q-90 0 -133 -89t-43 -232z" />
<glyph unicode="&#xff;" horiz-adv-x="944" d="M-16 1024h272l207 -659l221 659h272l-561 -1520h-235l192 564zM254 1217v217h190v-217h-190zM499 1217v217h191v-217h-191z" />
<glyph unicode="&#x152;" horiz-adv-x="1871" d="M61 717q0 168 46.5 306t127 235.5t193.5 150.5t246 53q111 0 203 -36.5t147 -104.5v113h772v-254h-510v-306h393v-253h-393v-367h526v-254h-788v113q-55 -68 -147.5 -105t-202.5 -37q-133 0 -246 53.5t-193.5 150.5t-127 234.5t-46.5 307.5zM338 717q0 -109 21.5 -199 t63.5 -155.5t104.5 -102.5t146.5 -37t147.5 37t105.5 102.5t63.5 155.5t21.5 199q0 106 -21.5 197.5t-63.5 157t-105.5 102t-147.5 36.5t-146.5 -36.5t-104.5 -102t-63.5 -157t-21.5 -197.5z" />
<glyph unicode="&#x153;" horiz-adv-x="1574" d="M49 510q0 106 31 203.5t88 169t140 114.5t190 43q111 0 186.5 -44t140.5 -117q57 74 129 117.5t183 43.5q82 0 153.5 -31.5t124.5 -89t83 -140.5t30 -183q0 -35 -4 -68.5t-13 -70.5h-553q27 -143 94.5 -206t159.5 -63q29 0 66 7.5t75 18.5t73.5 26.5t64.5 31.5v-215 q-51 -31 -129 -54t-176 -23q-104 0 -196.5 44t-162.5 121q-66 -78 -142.5 -121.5t-184.5 -43.5q-109 0 -192 43t-141 114.5t-88 167.5t-30 205zM299 510q0 -143 53.5 -232.5t145.5 -89.5t147 89.5t55 232.5t-53 232t-149 89q-92 0 -145.5 -89t-53.5 -232zM965 629h315 q0 35 -5 70.5t-18.5 65.5t-40 48t-69.5 18q-82 0 -126 -57t-56 -145z" />
<glyph unicode="&#x178;" horiz-adv-x="1011" d="M-39 1434h266l289 -566l287 566h266l-430 -799v-635h-248v635zM289 1627v217h190v-217h-190zM534 1627v217h191v-217h-191z" />
<glyph unicode="&#x2c6;" horiz-adv-x="784" d="M133 1198v152l258 186l260 -186v-152l-260 145z" />
<glyph unicode="&#x2dc;" horiz-adv-x="929" d="M121 1257q2 51 23.5 90t55 66t74.5 40t84 13q45 0 71 -13t43 -29.5t33.5 -30t43.5 -13.5q41 0 66.5 33t25.5 64l166 -41q-4 -39 -19.5 -76t-43 -66.5t-66.5 -48t-88 -18.5q-41 0 -71 13t-54.5 29.5t-46 30t-47.5 13.5q-35 0 -50.5 -33t-17.5 -63z" />
<glyph unicode="&#x2000;" horiz-adv-x="978" />
<glyph unicode="&#x2001;" horiz-adv-x="1956" />
<glyph unicode="&#x2002;" horiz-adv-x="978" />
<glyph unicode="&#x2003;" horiz-adv-x="1956" />
<glyph unicode="&#x2004;" horiz-adv-x="652" />
<glyph unicode="&#x2005;" horiz-adv-x="489" />
<glyph unicode="&#x2006;" horiz-adv-x="326" />
<glyph unicode="&#x2007;" horiz-adv-x="326" />
<glyph unicode="&#x2008;" horiz-adv-x="244" />
<glyph unicode="&#x2009;" horiz-adv-x="391" />
<glyph unicode="&#x200a;" horiz-adv-x="108" />
<glyph unicode="&#x2010;" horiz-adv-x="718" d="M86 471v193h547v-193h-547z" />
<glyph unicode="&#x2011;" horiz-adv-x="718" d="M86 471v193h547v-193h-547z" />
<glyph unicode="&#x2012;" horiz-adv-x="718" d="M86 471v193h547v-193h-547z" />
<glyph unicode="&#x2013;" horiz-adv-x="856" d="M86 471v193h684v-193h-684z" />
<glyph unicode="&#x2014;" horiz-adv-x="1017" d="M86 471v193h846v-193h-846z" />
<glyph unicode="&#x2018;" horiz-adv-x="417" d="M90 1044v267l189 225l47 -29l-56 -176l58 -20v-267h-238z" />
<glyph unicode="&#x2019;" horiz-adv-x="415" d="M88 1073l57 176l-57 21v266h238v-266l-189 -226z" />
<glyph unicode="&#x201a;" horiz-adv-x="415" d="M88 0v266h238v-266l-189 -225l-49 28l57 177z" />
<glyph unicode="&#x201c;" horiz-adv-x="788" d="M90 1044v267l189 225l47 -29l-56 -176l58 -20v-267h-238zM461 1044v267l186 225l49 -29l-57 -176l57 -20v-267h-235z" />
<glyph unicode="&#x201d;" horiz-adv-x="786" d="M88 1073l57 176l-57 21v266h238v-266l-189 -226zM459 1073l57 176l-57 21v266h235v-266l-188 -226z" />
<glyph unicode="&#x201e;" horiz-adv-x="800" d="M88 0v266h238v-266l-189 -225l-49 28l57 177zM494 0v266h235v-266l-186 -225l-49 28l57 177z" />
<glyph unicode="&#x2022;" horiz-adv-x="522" d="M70 569q0 45 15 86t41 72t60.5 48.5t75.5 17.5q39 0 74 -17.5t60.5 -48.5t41 -72t15.5 -86q0 -47 -15.5 -87t-41 -70.5t-60.5 -48t-74 -17.5q-41 0 -75.5 17.5t-60.5 48t-41 70.5t-15 87z" />
<glyph unicode="&#x2026;" horiz-adv-x="1247" d="M84 0v266h244v-266h-244zM500 0v266h243v-266h-243zM915 0v266h244v-266h-244z" />
<glyph unicode="&#x202f;" horiz-adv-x="391" />
<glyph unicode="&#x2039;" horiz-adv-x="612" d="M20 582l263 422h288l-262 -422l262 -422h-288z" />
<glyph unicode="&#x203a;" horiz-adv-x="612" d="M41 160l262 422l-262 422h289l262 -422l-262 -422h-289z" />
<glyph unicode="&#x205f;" horiz-adv-x="489" />
<glyph unicode="&#x20ac;" horiz-adv-x="1228" d="M49 428l57 176h158q-4 25 -5 64t-1 65h-164l60 178h127q23 113 71.5 203t119.5 153.5t159 97.5t188 34q86 0 170 -18.5t152 -57.5l-25 -231q-74 35 -142.5 58.5t-154.5 23.5q-121 0 -192.5 -71t-100.5 -192h437l-62 -178h-399q0 -29 1 -67.5t5 -61.5h422l-58 -176h-311 q35 -80 98.5 -124t159.5 -44q86 0 154.5 23.5t142.5 58.5l25 -231q-68 -39 -152 -57.5t-170 -18.5q-180 0 -316 103.5t-198 289.5h-256z" />
<glyph unicode="&#x2122;" horiz-adv-x="1298" d="M55 1274v160h512l-20 -160h-162v-584h-162v584h-168zM537 690l88 744h104l150 -304l147 304h107l88 -744h-168l-43 434l-121 -254h-23l-118 254l-43 -434h-168z" />
<glyph unicode="&#x25fc;" horiz-adv-x="1024" d="M0 0v1024h1024v-1024h-1024z" />
</font>
</defs>
</svg>
