<?xml version="1.0" standalone="no"?>
<!DOCTYPE svg PUBLIC "-//W3C//DTD SVG 1.1//EN" "http://www.w3.org/Graphics/SVG/1.1/DTD/svg11.dtd" >
<svg xmlns="http://www.w3.org/2000/svg" xmlns:xlink="http://www.w3.org/1999/xlink" version="1.1">
<metadata></metadata>
<defs>
<font id="cabinsemibold" horiz-adv-x="1277" >
<font-face units-per-em="2048" ascent="1638" descent="-410" />
<missing-glyph horiz-adv-x="460" />
<glyph horiz-adv-x="0" />
<glyph horiz-adv-x="682" />
<glyph unicode=" "  horiz-adv-x="460" />
<glyph unicode="&#x09;" horiz-adv-x="460" />
<glyph unicode="&#xa0;" horiz-adv-x="460" />
<glyph unicode="!" horiz-adv-x="507" d="M127 1536h254l-47 -1126h-160zM139 0v229h230v-229h-230z" />
<glyph unicode="&#x22;" horiz-adv-x="817" d="M78 1536h235l-41 -614h-153zM506 1536h233l-41 -614h-151z" />
<glyph unicode="#" horiz-adv-x="1441" d="M61 436l84 191h232l86 227h-250l63 190h261l151 390h184l-149 -390h242l149 390h186l-147 -390h227l-65 -190h-236l-86 -227h258l-88 -191h-243l-175 -459h-184l170 459h-239l-177 -459h-184l174 459h-244zM561 627h242l90 227h-242z" />
<glyph unicode="$" horiz-adv-x="1064" d="M82 971q0 59 21.5 113.5t67.5 98.5t117.5 72.5t170.5 38.5l-33 238h207l-33 -238q213 -12 328 -77l-21 -222q-209 104 -350 105q-236 0 -235 -105q0 -51 50 -80.5t123.5 -52t161.5 -46t162 -63.5t124 -103.5t50 -166.5q0 -47 -16 -99t-59.5 -96t-120 -78t-197.5 -44 l33 -232h-207l33 230q-242 12 -359 80l31 248q139 -125 383 -125q215 0 215 114q0 55 -48 89t-120 59.5t-155.5 50.5t-155.5 60.5t-120 90t-48 140.5z" />
<glyph unicode="%" horiz-adv-x="1720" d="M68 1057q0 90 24.5 161.5t67.5 121t100 76t123 26.5t121 -25.5t96 -73t64.5 -116t23.5 -154.5q0 -90 -23.5 -161.5t-64.5 -123t-99 -78t-128 -26.5q-135 0 -220 100.5t-85 272.5zM217 1057q0 -121 46 -177.5t112 -56.5q72 0 119 60.5t47 189.5q0 119 -49.5 177.5 t-110.5 58.5q-63 0 -113.5 -62.5t-50.5 -189.5zM309 -25l862 1459h195l-862 -1459h-195zM1032 350q0 90 24.5 162t67.5 121t100.5 75.5t123.5 26.5t121 -25.5t96 -72.5t64.5 -115.5t23.5 -154.5q0 -90 -23.5 -162t-64.5 -123t-99.5 -78t-128.5 -27q-137 0 -221 99.5 t-84 273.5zM1182 350q0 -121 46 -177t111 -56q72 0 119 60.5t47 189.5q0 119 -49 177t-110 58q-63 0 -113.5 -62.5t-50.5 -189.5z" />
<glyph unicode="&#x26;" horiz-adv-x="1271" d="M68 340q0 223 251 412q-154 190 -153 348q0 78 32.5 141.5t90 107.5t131.5 67.5t158 23.5q154 0 234.5 -77t80.5 -206q0 -61 -20.5 -114.5t-59.5 -101.5t-95 -95t-130 -96l317 -351q35 102 41 322h219q-6 -297 -110 -488l202 -233h-262l-71 78q-152 -127 -379 -127 q-119 0 -208 29.5t-149.5 82t-90 123t-29.5 154.5zM305 360q0 -100 61.5 -165.5t202.5 -65.5q152 0 238 86l-377 408q-125 -113 -125 -263zM389 1092q0 -98 100 -224q104 78 152.5 132.5t48.5 125.5q0 129 -129 129q-76 0 -124 -42t-48 -121z" />
<glyph unicode="'" horiz-adv-x="397" d="M80 1536h237l-38 -614h-160z" />
<glyph unicode="(" horiz-adv-x="557" d="M84 629q0 156 13.5 282.5t41 235t67.5 203t95 186.5h209q-238 -410 -238 -907q0 -498 238 -908h-209q-55 94 -96 189.5t-67.5 203t-40 233.5t-13.5 282z" />
<glyph unicode=")" horiz-adv-x="557" d="M47 -279q238 410 238 908t-238 907h209q55 -92 95 -186.5t67.5 -203t41 -235.5t13.5 -282q0 -154 -13.5 -281t-40 -234.5t-67.5 -204t-96 -188.5h-209z" />
<glyph unicode="*" horiz-adv-x="903" d="M68 1278l79 141l283 -207l-57 322h162l-62 -322l285 207l80 -143l-324 -111l240 -200l-115 -111l-184 276l-185 -282l-114 110l239 203z" />
<glyph unicode="+" horiz-adv-x="946" d="M94 475v189h287v262h184v-262h287v-189h-287v-266h-184v266h-287z" />
<glyph unicode="," horiz-adv-x="464" d="M113 0v238h239v-238l-188 -225l-51 28l67 177z" />
<glyph unicode="-" horiz-adv-x="860" d="M113 475v189h635v-189h-635z" />
<glyph unicode="." horiz-adv-x="458" d="M113 0v238h233v-238h-233z" />
<glyph unicode="/" horiz-adv-x="1114" d="M37 -174l756 1608h254l-756 -1608h-254z" />
<glyph unicode="0" horiz-adv-x="1449" d="M123 694q0 168 47 308.5t130 243t194.5 159.5t242.5 57q129 0 236.5 -55t186.5 -152.5t123 -231.5t44 -294q0 -168 -44 -307t-124 -239.5t-193.5 -156t-252.5 -55.5q-133 0 -242 52.5t-186.5 147.5t-119.5 228t-42 295zM369 694q0 -254 94 -380t254 -126q168 0 268 134.5 t100 406.5q0 123 -27.5 220.5t-74.5 163t-111.5 100t-138.5 34.5t-140.5 -35.5t-116.5 -106.5t-78.5 -174.5t-28.5 -236.5z" />
<glyph unicode="1" horiz-adv-x="747" d="M86 1210q37 8 79 32t80 54.5t69.5 66.5t47.5 71h185v-1434h-246v1092q-94 -70 -190 -91z" />
<glyph unicode="2" horiz-adv-x="1083" d="M98 0q184 266 299 441t178.5 290t85 185.5t21.5 125.5q0 100 -57.5 156.5t-157.5 56.5q-186 0 -330 -211l-31 218q18 33 56.5 68.5t92.5 65t120.5 48t144.5 18.5q102 0 176 -31.5t122 -85t71.5 -124t23.5 -146.5q0 -74 -21.5 -154.5t-68.5 -181t-122.5 -225.5 t-182.5 -285h449v-229h-869z" />
<glyph unicode="3" horiz-adv-x="1112" d="M78 82l59 221q137 -104 320 -104q123 0 204.5 54t81.5 181q0 57 -14 104.5t-47 80t-88 50t-137 17.5h-174l22 188h88q295 0 295 203q0 178 -221 178q-172 0 -260 -73l-39 186q18 18 50 34.5t75 30t94 21.5t107 8q131 0 217 -34.5t136 -90t69.5 -122t19.5 -130.5 q0 -182 -152 -290q203 -102 203 -353q0 -113 -42 -200.5t-113.5 -147t-166 -91.5t-200.5 -32q-59 0 -121.5 11.5t-118 28t-95.5 36t-52 35.5z" />
<glyph unicode="4" horiz-adv-x="1179" d="M25 389l659 1045h203v-844h174v-201h-174v-389h-246v389h-616zM365 590h276v459z" />
<glyph unicode="5" horiz-adv-x="1105" d="M102 76l58 221q131 -100 303 -100q61 0 115.5 17t94.5 52t63.5 85t23.5 116q0 55 -19.5 97t-63.5 72t-117 44t-177 14h-205l88 740h656l-23 -230h-448l-37 -305q309 -2 447 -103.5t138 -318.5q0 -117 -43 -210t-115.5 -158.5t-169 -100.5t-202.5 -35q-55 0 -115.5 11.5 t-114 27t-91 32.5t-46.5 32z" />
<glyph unicode="6" horiz-adv-x="1157" d="M123 510q0 131 30.5 251t82 223t116 186t133 141.5t134 90.5t118.5 32l160 -95q-63 -12 -145 -65t-159 -132t-135.5 -177.5t-74.5 -198.5q74 96 254 96q94 0 173 -27.5t136.5 -80t90 -130t32.5 -175.5t-36 -185.5t-102.5 -152t-158.5 -102.5t-203 -38q-100 0 -183 32 t-141.5 98.5t-90 168t-31.5 240.5zM362 414q0 -55 19.5 -97.5t51.5 -72t74 -45t89 -15.5q57 0 102 21.5t77 58.5t49.5 84t17.5 101q0 43 -14.5 81.5t-42 68.5t-70 47.5t-97.5 17.5q-111 0 -183.5 -66t-72.5 -184z" />
<glyph unicode="7" horiz-adv-x="1042" d="M86 1204v230h938l-606 -1434h-252l508 1204h-588z" />
<glyph unicode="8" horiz-adv-x="1236" d="M117 381q0 233 237 391q-156 123 -155 330q0 76 23.5 142.5t75.5 114.5t133 75.5t196 27.5q109 0 187.5 -24.5t128.5 -69.5t74.5 -105.5t24.5 -129.5q0 -104 -46 -183.5t-150 -158.5q274 -115 274 -377q0 -84 -33.5 -163t-99 -141.5t-163 -100.5t-224.5 -38 q-121 0 -211 33t-150.5 88t-91 130t-30.5 159zM354 395q0 -111 67.5 -168t186.5 -57q123 0 197 64.5t74 175.5q0 106 -71.5 176.5t-182.5 97.5q-115 -20 -193 -94t-78 -195zM412 1081q0 -154 194 -213q209 57 209 228q0 76 -49.5 123t-149.5 47q-104 0 -154 -49.5 t-50 -135.5z" />
<glyph unicode="9" horiz-adv-x="1159" d="M88 981q0 102 36 190.5t102.5 153t158.5 101t203 36.5q100 0 183 -31.5t141.5 -97t91 -167t32.5 -240.5q0 -203 -60.5 -373t-151.5 -293t-197.5 -191.5t-200.5 -68.5l-162 94q61 12 145.5 58.5t163 121t138 173t71.5 215.5q-18 -23 -51 -39.5t-70.5 -27.5t-75.5 -17.5 t-65 -6.5q-199 0 -315.5 103.5t-116.5 306.5zM326 991q0 -45 13 -85t40 -70.5t68 -48t96 -17.5q111 0 184.5 65.5t73.5 184.5q0 117 -68.5 173t-163.5 56q-57 0 -102 -21.5t-77 -57t-48 -83t-16 -96.5z" />
<glyph unicode=":" horiz-adv-x="458" d="M113 0v238h233v-238h-233zM113 664v237h233v-237h-233z" />
<glyph unicode=";" horiz-adv-x="487" d="M117 0v238h239v-238l-188 -225l-51 28l67 177zM117 664v237h258v-237h-258z" />
<glyph unicode="&#x3c;" horiz-adv-x="882" d="M59 582l437 422h268l-436 -422l436 -422h-268z" />
<glyph unicode="=" horiz-adv-x="1019" d="M131 313v183h758v-183h-758zM131 639v182h758v-182h-758z" />
<glyph unicode="&#x3e;" horiz-adv-x="884" d="M121 160l436 422l-436 422h268l436 -422l-436 -422h-268z" />
<glyph unicode="?" horiz-adv-x="905" d="M61 1393q45 70 133.5 106.5t194.5 36.5q100 0 180 -35t135.5 -90t84 -124.5t28.5 -137.5q0 -96 -51 -179t-112.5 -166t-113 -170t-51.5 -190v-34h-155q-6 80 -6 104q0 96 43 174t93 149.5t93 145.5t43 164q0 104 -63.5 156.5t-161.5 52.5q-86 0 -153.5 -40t-104.5 -95z M297 0v229h231v-229h-231z" />
<glyph unicode="@" horiz-adv-x="1472" d="M94 348q0 164 61.5 307.5t168 249t246 167t296.5 61.5q119 0 214.5 -37t161 -104.5t100 -164t34.5 -215.5q0 -53 -5 -110.5t-21.5 -109.5t-50 -95t-91.5 -70q-80 -35 -135 -34q-76 0 -76 108q0 27 10.5 76t27 111.5t36 136t39.5 151.5q-104 109 -250 109 q-94 0 -187 -51.5t-167 -132t-120 -184t-46 -208.5q0 -98 45 -162.5t150 -64.5q43 0 94 17.5t100 49t93 74.5t73 96q0 -2 -1 -11t-2 -19t-2 -20.5t-1 -12.5q0 -66 26.5 -118t85.5 -52q31 0 68 11.5t74 29.5t71.5 42t59.5 48q-49 -88 -121 -160.5t-160 -125t-187 -81 t-204 -28.5q-117 0 -211 36t-160.5 103.5t-101.5 165.5t-35 221zM504 348q0 80 34.5 155t89 131t117 91t117.5 35q96 0 111 -45q-12 -80 -54 -167t-97.5 -161t-116 -122t-111.5 -48q-45 0 -67.5 37t-22.5 94z" />
<glyph unicode="A" d="M10 0l510 1434h236l512 -1434h-252l-127 358h-500l-127 -358h-252zM469 588h338l-170 477z" />
<glyph unicode="B" horiz-adv-x="1263" d="M160 0v1434h366q129 0 230.5 -14.5t172 -54.5t107.5 -111.5t37 -184.5q0 -100 -26.5 -172t-94.5 -131q131 -51 189.5 -132t58.5 -210q0 -125 -44 -207t-115.5 -130t-163 -67.5t-185.5 -19.5h-532zM399 209h242q154 0 231.5 47t77.5 172q0 227 -268 227h-283v-446z M399 852h252q190 0 191 186q0 111 -56.5 149t-169.5 38h-217v-373z" />
<glyph unicode="C" horiz-adv-x="1255" d="M76 717q0 168 53 305t147.5 235.5t224.5 151.5t285 53q225 0 404 -84l-27 -227q-229 84 -377 84q-109 0 -191.5 -38t-140 -106.5t-86 -164t-28.5 -209.5q0 -115 28.5 -210t86 -164t140.5 -106.5t191 -37.5q156 0 377 84l27 -228q-175 -84 -404 -84q-156 0 -285.5 53.5 t-224 151.5t-147.5 235.5t-53 305.5z" />
<glyph unicode="D" horiz-adv-x="1480" d="M160 0v1434h534q158 0 288 -50.5t224 -143.5t145.5 -225t51.5 -298t-51.5 -298t-145.5 -225.5t-224 -143.5t-288 -50h-534zM401 227h293q217 0 331 130t114 360q0 229 -114 359t-331 130h-293v-979z" />
<glyph unicode="E" horiz-adv-x="1155" d="M160 0v1434h903v-230h-657v-342h514v-229h-514v-404h677v-229h-923z" />
<glyph unicode="F" horiz-adv-x="1075" d="M160 0v1434h880v-230h-639v-342h494v-229h-494v-633h-241z" />
<glyph unicode="G" horiz-adv-x="1368" d="M76 719q0 168 53 305t148.5 234.5t226.5 150.5t289 53q51 0 110.5 -6t117.5 -17.5t110.5 -26.5t89.5 -34l-25 -225q-207 82 -397 82q-115 0 -200 -38t-143.5 -105.5t-87 -161.5t-28.5 -209q0 -117 30.5 -213t91 -165t149.5 -106.5t206 -37.5q104 0 209 28v287h-178v205 h420v-639q-39 -23 -98.5 -42.5t-127 -34.5t-138.5 -23.5t-128 -8.5q-152 0 -280.5 53.5t-222 151.5t-145.5 236.5t-52 306.5z" />
<glyph unicode="H" horiz-adv-x="1519" d="M160 0v1434h241v-570h717v570h242v-1434h-242v633h-717v-633h-241z" />
<glyph unicode="I" horiz-adv-x="561" d="M160 0v1434h241v-1434h-241z" />
<glyph unicode="J" horiz-adv-x="559" d="M-16 -180h41q76 0 105.5 43t29.5 141v1430h239v-1487q0 -147 -85.5 -223t-247.5 -76h-62z" />
<glyph unicode="K" horiz-adv-x="1245" d="M160 0v1434h241v-1434h-241zM461 758l510 676h266l-508 -676l508 -758h-266z" />
<glyph unicode="L" horiz-adv-x="1028" d="M160 0v1434h241v-1205h611v-229h-852z" />
<glyph unicode="M" horiz-adv-x="1691" d="M92 0l197 1434h200l359 -672l354 672h201l196 -1434h-251l-127 999l-373 -686l-377 684l-127 -997h-252z" />
<glyph unicode="N" horiz-adv-x="1445" d="M160 0v1434h243l641 -971v971h242v-1434h-199l-686 1030v-1030h-241z" />
<glyph unicode="O" horiz-adv-x="1564" d="M76 717q0 168 52 305t146.5 235.5t224.5 151.5t283 53q156 0 285 -54t223 -152.5t146.5 -235.5t52.5 -303q0 -336 -199 -541q-197 -205 -508 -205q-154 0 -283.5 53.5t-224 151.5t-146.5 235.5t-52 305.5zM340 717q0 -115 28.5 -209t85 -164t138.5 -107.5t190 -37.5 q106 0 189.5 37.5t139.5 107.5t85 164t29 209q0 230 -115 375q-113 143 -328 143q-109 0 -190.5 -38t-138 -107.5t-85 -165t-28.5 -207.5z" />
<glyph unicode="P" horiz-adv-x="1206" d="M160 0v1434h422q137 0 244.5 -16.5t182 -65.5t113.5 -138.5t39 -232.5q0 -145 -45 -240.5t-115.5 -154t-156.5 -82t-166 -23.5h-275v-481h-243zM403 705h238q147 0 209.5 62t62.5 210q0 68 -14 116t-48 78.5t-90 44t-140 13.5h-218v-524z" />
<glyph unicode="Q" horiz-adv-x="1564" d="M76 717q0 168 52 305t146.5 235.5t224.5 151.5t283 53q156 0 285 -54t223 -152.5t146.5 -235.5t52.5 -303q0 -264 -135 -463l127 -102l-138 -164l-139 114q-180 -131 -422 -131q-154 0 -283.5 53.5t-224 151.5t-146.5 235.5t-52 305.5zM340 717q0 -115 28.5 -209t85 -164 t138.5 -107.5t190 -37.5q141 0 238 59l-184 154l135 163l192 -163q68 123 68 305q0 113 -30 208t-86 164.5t-140 107.5t-193 38t-190.5 -38t-138 -107.5t-85 -165t-28.5 -207.5z" />
<glyph unicode="R" horiz-adv-x="1267" d="M160 0v1434h506q493 0 493 -414q0 -274 -248 -416l326 -604h-252l-303 541h-279v-541h-243zM403 768h230q274 0 274 238q0 113 -64 170t-218 57h-222v-465z" />
<glyph unicode="S" horiz-adv-x="1193" d="M80 1036q0 72 26.5 148t87 137t160 101t244.5 40q66 0 133.5 -9t129 -24.5t111.5 -35t81 -37.5l-25 -250q-244 129 -418 129q-53 0 -103 -9t-89 -29.5t-63.5 -53.5t-24.5 -78q0 -63 40 -100t110.5 -65t166.5 -56.5t209 -77.5q43 -16 91 -46t89 -74t67.5 -103.5 t26.5 -136.5q0 -61 -15 -137t-71.5 -143t-167 -111t-303.5 -44q-154 0 -278.5 29t-194.5 72l31 276q70 -63 185.5 -106t263.5 -43q282 0 282 175q0 67 -40 112.5t-95 76.5t-113.5 48.5t-95.5 29.5q-80 25 -158.5 53.5t-141 71.5t-100.5 107.5t-38 162.5z" />
<glyph unicode="T" horiz-adv-x="1134" d="M37 1204v230h1061v-230h-410v-1204h-242v1204h-409z" />
<glyph unicode="U" horiz-adv-x="1474" d="M143 612v822h242v-732q0 -106 14.5 -198t53.5 -160t107.5 -106.5t176.5 -38.5q109 0 177.5 38.5t107.5 107.5t53.5 161t14.5 196v732h241v-822q0 -301 -149.5 -471t-444.5 -170t-444.5 170t-149.5 471z" />
<glyph unicode="V" horiz-adv-x="1341" d="M4 1434h252l416 -1127l409 1127h252l-518 -1434h-285z" />
<glyph unicode="W" horiz-adv-x="1980" d="M25 1434h251l295 -1080l332 1071h180l342 -1050l287 1059h252l-420 -1434h-227l-324 1024l-327 -1024h-238z" />
<glyph unicode="X" horiz-adv-x="1269" d="M6 0l498 715l-484 719h279l344 -521l332 521h272l-483 -693l504 -741h-273l-368 545l-351 -545h-270z" />
<glyph unicode="Y" horiz-adv-x="1206" d="M-12 1434h256l358 -576l359 576h256l-492 -791v-643h-244v643z" />
<glyph unicode="Z" horiz-adv-x="1126" d="M18 0l695 1204h-602v230h999l-694 -1205h602v-229h-1000z" />
<glyph unicode="[" horiz-adv-x="684" d="M139 -279v1815h527v-197h-314v-1419h314v-199h-527z" />
<glyph unicode="\" horiz-adv-x="1110" d="M68 1434h249l756 -1608h-250z" />
<glyph unicode="]" horiz-adv-x="684" d="M18 -86h314v1419h-314v199h527v-1815h-527v197z" />
<glyph unicode="^" horiz-adv-x="1046" d="M100 844v274l422 436l422 -436v-274l-422 436z" />
<glyph unicode="_" horiz-adv-x="1150" d="M2 -74h1147v-188h-1147v188z" />
<glyph unicode="`" horiz-adv-x="620" d="M119 1331v193l383 -189v-131z" />
<glyph unicode="a" horiz-adv-x="1009" d="M45 283q0 104 60.5 172.5t148.5 110.5t189.5 59.5t185.5 19.5q-2 104 -47 146.5t-150 42.5q-125 0 -274 -82l-25 188q176 96 363 96q184 0 275 -101t91 -333v-254q0 -57 3 -92t13.5 -54.5t30 -25.5t52.5 -6h26l-22 -190h-70q-172 0 -238 126q-110 -126 -308 -126h-3 q-66 0 -121 21.5t-95 61t-62.5 96t-22.5 124.5zM287 293q0 -133 143 -133q49 0 104.5 24.5t94.5 67.5v235q-154 -6 -248 -54t-94 -140z" />
<glyph unicode="b" horiz-adv-x="1165" d="M123 0v1536h231v-588q100 88 262 88q111 0 201 -41t153.5 -111.5t98.5 -168t35 -207.5q0 -111 -34 -207t-97.5 -168t-153.5 -112.5t-203 -40.5q-158 0 -270 100l-8 -80h-215zM344 508q0 -160 67.5 -247t186.5 -87q123 0 195.5 93t72.5 241q0 147 -71.5 239.5t-196.5 92.5 q-119 0 -186.5 -88t-67.5 -244z" />
<glyph unicode="c" horiz-adv-x="921" d="M61 508q0 113 34 210t97.5 167.5t155.5 110.5t211 40q188 0 307 -71l-24 -201q-125 76 -262 76q-135 0 -208 -89t-73 -243t72.5 -244t208.5 -90q137 0 264 76l22 -195q-114 -75 -307 -75q-119 0 -211 40.5t-155.5 111.5t-97.5 167t-34 209z" />
<glyph unicode="d" horiz-adv-x="1165" d="M61 508q0 111 35 208t98.5 167.5t153.5 111.5t201 41q160 0 260 -88v588h233v-1536h-217l-8 80q-113 -100 -268 -100q-113 0 -203 40.5t-153.5 112.5t-97.5 168t-34 207zM299 508q0 -147 71.5 -240.5t194.5 -93.5q119 0 189.5 88t70.5 244q0 154 -70.5 244t-189.5 90 q-123 0 -194.5 -91.5t-71.5 -240.5z" />
<glyph unicode="e" horiz-adv-x="1052" d="M59 510q0 111 34 206t98.5 166.5t154.5 112.5t205 41q96 0 177 -31.5t140.5 -89t93 -138.5t33.5 -179q0 -25 -3 -56.5t-11 -70.5h-682q20 -154 111.5 -225.5t216.5 -71.5q158 0 307 76l16 -193q-158 -77 -335 -77h-5q-131 0 -233.5 39.5t-173 111.5t-107.5 168t-37 211z M309 629h449q0 88 -49.5 149.5t-153.5 61.5q-201 0 -246 -211z" />
<glyph unicode="f" horiz-adv-x="694" d="M29 829l24 189h131v246q0 57 16.5 107t47.5 87t76 57.5t102 20.5q51 0 106.5 -4t116.5 -12l-22 -195q-47 12 -115 12q-31 0 -49.5 -7t-29.5 -27.5t-14 -57.5t-3 -94v-133h239v-189h-239v-829h-232v829h-155z" />
<glyph unicode="g" horiz-adv-x="1024" d="M51 -209q0 150 172 227q-96 53 -96 142q0 92 106 143q-161 112 -161 327q0 89 28.5 163.5t82 128t130 84t172.5 30.5q137 0 240 -65q98 49 227 49h52l-19 -150h-78q-35 0 -78 -6q72 -100 72 -229q0 -82 -27.5 -154.5t-81 -128t-130 -87.5t-173.5 -32q-63 0 -118 13 q-31 -16 -31 -41q0 -18 13.5 -30.5t44 -23t82.5 -19.5t132 -19q68 -10 139.5 -26.5t131 -49.5t98.5 -86t43 -137q0 -147 -129 -236.5t-365 -89.5q-119 0 -209 24.5t-149 66.5t-90 96.5t-31 115.5zM252 -190q0 -70 71.5 -112t200.5 -42t208 41t79 106q0 59 -69.5 89.5 t-200.5 48.5l-142 20q-66 -20 -106.5 -59t-40.5 -92zM283 633q0 -104 53 -165.5t151 -61.5t150.5 62t52.5 167q0 104 -53.5 164.5t-151.5 60.5t-150 -61.5t-52 -165.5z" />
<glyph unicode="h" horiz-adv-x="1126" d="M123 0v1536h231v-590q106 90 238 90q424 0 424 -489v-547h-232v547q0 154 -49 223.5t-166 69.5q-139 0 -215 -101v-739h-231z" />
<glyph unicode="i" horiz-adv-x="479" d="M123 0v1018h233v-1018h-233zM123 1194v240h233v-240h-233z" />
<glyph unicode="j" horiz-adv-x="479" d="M-8 -307q43 2 69.5 7t40 22.5t17.5 52.5t4 94v1149h233v-1243q0 -123 -70.5 -193t-189.5 -74h-82zM123 1194v240h233v-240h-233z" />
<glyph unicode="k" horiz-adv-x="976" d="M123 0v1536h233v-948l338 430h269l-388 -483l390 -535h-267l-342 471v-471h-233z" />
<glyph unicode="l" horiz-adv-x="528" d="M121 240v1296h233v-1192q0 -61 4 -96t17.5 -52.5t40 -21.5t71.5 -4l-22 -190h-82q-131 0 -196.5 73.5t-65.5 186.5z" />
<glyph unicode="m" horiz-adv-x="1783" d="M123 0v1018h188l17 -88q121 106 274 106q213 0 322 -170q37 70 128 120t220 50q199 0 300 -125t101 -348v-563h-233v563q0 143 -47 210t-158 67q-221 0 -221 -224v-616h-232v551q0 166 -51 227.5t-164 61.5q-143 0 -213 -99v-741h-231z" />
<glyph unicode="n" horiz-adv-x="1136" d="M123 0v1018h209l8 -76q119 94 258 94q428 0 428 -485v-551h-231v551q0 150 -52.5 219.5t-169.5 69.5q-143 0 -219 -101v-739h-231z" />
<glyph unicode="o" horiz-adv-x="1142" d="M59 508q0 111 36 208t102.5 167.5t162 111.5t211.5 41q117 0 211.5 -41t161 -112.5t103 -168t36.5 -206.5q0 -111 -35.5 -207t-102 -168t-162 -112.5t-212.5 -40.5q-119 0 -213 40.5t-160.5 111.5t-102.5 167t-36 209zM297 508q0 -154 72.5 -244t201.5 -90t202 90t73 244 t-73 243t-202 89t-201.5 -89t-72.5 -243z" />
<glyph unicode="p" horiz-adv-x="1165" d="M123 -496v1514h196l21 -86q119 104 278 104q113 0 202 -41t152.5 -112.5t97.5 -168t34 -206.5q0 -111 -33 -208t-94.5 -168t-151.5 -111.5t-207 -40.5q-156 0 -264 94v-570h-231zM344 508q0 -160 68.5 -247t187.5 -87q123 0 194.5 93t71.5 241q0 150 -71.5 241t-194.5 91 q-119 0 -187.5 -88t-68.5 -244z" />
<glyph unicode="q" horiz-adv-x="1165" d="M61 508q0 113 34 209t97.5 166.5t153.5 111.5t201 41q158 0 278 -104l21 86h196v-1514h-233v570q-106 -94 -262 -94q-117 0 -207 39.5t-151.5 110.5t-94.5 168t-33 210zM299 508q0 -147 71.5 -240.5t194.5 -93.5q119 0 187.5 87t68.5 247q0 156 -68.5 244t-187.5 88 q-123 0 -194.5 -91.5t-71.5 -240.5z" />
<glyph unicode="r" horiz-adv-x="692" d="M123 0v1018h211l12 -127q134 149 291 149h2h51l-45 -227h-86q-61 0 -117.5 -32.5t-81.5 -78.5v-702h-237z" />
<glyph unicode="s" horiz-adv-x="862" d="M66 59l22 205q25 -18 60.5 -36.5t77.5 -33t88 -23.5t89 -9q88 0 129 32.5t41 84.5q0 49 -44 81.5t-106.5 57t-130 46t-112.5 48.5q-100 59 -100 205q0 61 21.5 119.5t67.5 102.5t116.5 70.5t169.5 26.5q186 0 307 -73l-23 -201q-115 102 -270 102q-78 0 -128 -28.5 t-50 -90.5q0 -41 19.5 -65.5t52 -40.5t74.5 -26.5t87 -22.5q283 -72 283 -309q0 -49 -14.5 -101.5t-57.5 -97.5t-120.5 -73.5t-202.5 -28.5q-227 0 -346 79z" />
<glyph unicode="t" horiz-adv-x="700" d="M33 829l20 189h133v231l232 25v-256h237v-189h-237v-483q0 -63 4 -99t20.5 -52.5t51 -20.5t96.5 -4h63l-20 -190h-176q-68 0 -119 20t-85 55t-50.5 82t-16.5 103v589h-153z" />
<glyph unicode="u" horiz-adv-x="1114" d="M111 457v561h231v-545q0 -154 51 -224.5t162 -70.5q135 0 205 94v746h231v-1018h-213l-10 76q-102 -96 -244 -96q-414 0 -413 477z" />
<glyph unicode="v" horiz-adv-x="1017" d="M12 1018h236l260 -737l260 737h238l-390 -1018h-215z" />
<glyph unicode="w" horiz-adv-x="1484" d="M20 1018h240l180 -742l199 717h207l196 -717l185 742h237l-301 -1018h-211l-209 690l-211 -690h-210z" />
<glyph unicode="x" horiz-adv-x="997" d="M20 0l338 508l-333 510h272l207 -324l190 324h277l-332 -504l336 -514h-275l-206 322l-199 -322h-275z" />
<glyph unicode="y" horiz-adv-x="1085" d="M8 1018h258l279 -686l272 686h258l-633 -1514h-239l229 557z" />
<glyph unicode="z" horiz-adv-x="972" d="M47 0l477 817h-456v201h858l-480 -817h461v-201h-860z" />
<glyph unicode="{" horiz-adv-x="647" d="M35 629q45 25 75.5 52.5t50 62t28 78.5t8.5 102q0 18 -3.5 59t-6.5 86t-5 85t-2 54q0 162 101.5 244t343.5 84v-199q-98 0 -150.5 -13t-77 -48t-28.5 -94.5t-4 -151.5q0 -10 1 -34.5t2 -50t2 -50.5t1 -35q0 -76 -24.5 -131t-100.5 -100q76 -45 100.5 -93.5t24.5 -121.5 q0 -12 -1 -37t-2 -53.5t-2 -54t-1 -40.5v-114q0 -53 10 -91t38.5 -60.5t79 -33t132.5 -10.5v-199q-240 2 -342.5 82t-102.5 246q0 14 2 54t5 86.5t6.5 87t3.5 59.5q0 111 -35 176.5t-127 116.5z" />
<glyph unicode="|" horiz-adv-x="475" d="M139 -430v1966h197v-1966h-197z" />
<glyph unicode="}" horiz-adv-x="647" d="M23 -80q94 0 146 12.5t76.5 46t30 94t5.5 156.5q0 14 -1 40t-2.5 54.5t-2.5 53t-1 37.5q0 74 25 122t100 93q-76 45 -100.5 100t-24.5 131q0 10 1 35t2.5 50.5t2.5 50t1 34.5q0 88 -3.5 147.5t-27 95.5t-75.5 50t-152 14v199q121 0 204.5 -21.5t136 -62.5t76 -102.5 t23.5 -141.5q0 -14 -2 -54t-4 -85t-4 -86t-2 -59q0 -57 8 -101.5t27.5 -79t50 -62.5t75.5 -52q-92 -51 -126.5 -117t-34.5 -176q0 -18 2 -59t4 -87.5t4 -86.5t2 -54q0 -166 -101.5 -245.5t-338.5 -82.5v199z" />
<glyph unicode="~" horiz-adv-x="948" d="M98 391q14 94 85 147.5t157 53.5q25 0 63.5 -14.5t76.5 -31t71 -30.5t45 -14q45 0 78 28.5t47 69.5l129 -35q-18 -86 -81 -144.5t-155 -58.5q-23 0 -61.5 14.5t-79.5 32t-74.5 32t-46.5 14.5q-84 0 -114 -99z" />
<glyph unicode="&#xa1;" horiz-adv-x="495" d="M121 -512l47 1126h160l47 -1126h-254zM133 795v229h229v-229h-229z" />
<glyph unicode="&#xa2;" horiz-adv-x="972" d="M68 711q0 100 27.5 189t80.5 159.5t130 118t177 61.5l-32 293h206l-32 -289q92 -6 146 -24.5t101 -47.5l-20 -198q-127 78 -254 78q-72 0 -126 -26t-91 -71t-55.5 -106.5t-18.5 -134.5q0 -152 75 -245t216 -93q127 0 254 78l20 -199q-41 -27 -94 -47.5t-145 -26.5 l24 -246h-206l32 250q-98 14 -175 59.5t-130 115t-81.5 159.5t-28.5 193z" />
<glyph unicode="&#xa3;" horiz-adv-x="1062" d="M68 0q115 143 165 291.5t66 333.5h-184l43 200h153v205q0 78 13.5 152.5t53.5 134t112.5 96.5t189.5 37q127 0 217 -46t117 -140l-150 -123q-27 61 -63.5 87.5t-98.5 26.5q-57 0 -88.5 -16t-47 -50t-18.5 -84t-3 -118v-162h383l-43 -200h-353q-4 -63 -8 -111.5t-13 -91.5 t-23.5 -89t-38.5 -104h495v-229h-876z" />
<glyph unicode="&#xa4;" horiz-adv-x="1290" d="M121 131l149 203q-143 150 -143 379q0 227 145 379l-151 202l102 86l154 -204q129 63 268 63q141 0 268 -65l156 206l102 -86l-151 -204q143 -150 143 -377q0 -223 -145 -381l153 -201l-102 -86l-156 205q-125 -63 -268 -64q-70 0 -138.5 15.5t-129.5 48.5l-154 -205z M365 713q0 -154 73.5 -249t206.5 -95q68 0 120 25.5t88 71.5t54.5 108.5t18.5 138.5q0 154 -76 248q-74 96 -205 96q-66 0 -118 -25.5t-88 -71t-55 -109t-19 -138.5z" />
<glyph unicode="&#xa5;" horiz-adv-x="1423" d="M57 1434h246l410 -586l409 586h246l-508 -758h322l-52 -131h-296v-125h348l-52 -133h-296v-287h-242v287h-346l49 133h297v125h-346l47 131h272z" />
<glyph unicode="&#xa6;" horiz-adv-x="462" d="M141 373h181v-803h-181v803zM141 596v940h181v-940h-181z" />
<glyph unicode="&#xa7;" horiz-adv-x="942" d="M80 678q0 231 188 303q-100 76 -100 215q0 70 19.5 132.5t62.5 108.5t108.5 72.5t157.5 26.5q39 0 83 -7t85 -18.5t75 -27t52 -31.5l-20 -188q-139 98 -267 98q-82 0 -135 -35t-53 -102q0 -59 39 -93t97 -59.5t127 -52.5t127 -68t97 -104.5t39 -167.5q0 -219 -188 -297 q55 -45 76.5 -96t21.5 -127q0 -68 -19.5 -128.5t-62.5 -106.5t-108.5 -72.5t-157.5 -26.5q-39 0 -83 7t-84 18.5t-73.5 27t-52.5 31.5l23 188q137 -98 264 -98q193 0 192 135q0 61 -39 96t-98 60.5t-128 50.5t-128 64.5t-98 103t-39 168.5zM258 717q0 -156 287 -230 q25 2 49 17.5t43.5 38t33 49t13.5 53.5q0 49 -25.5 84t-65.5 58.5t-88 39t-95 27.5q-23 0 -48.5 -9t-49 -27.5t-39 -44t-15.5 -56.5z" />
<glyph unicode="&#xa8;" horiz-adv-x="864" d="M178 1221v213h182v-213h-182zM504 1221v213h182v-213h-182z" />
<glyph unicode="&#xa9;" horiz-adv-x="1435" d="M82 748q0 152 48 275.5t133 211.5t202 136t254 48t254 -49t202 -137t132 -212t47 -273q0 -150 -47 -273t-131 -212t-201 -138t-256 -49t-256 49t-202 138t-132 212t-47 273zM223 748q0 -121 32 -222.5t95.5 -173t155.5 -111.5t213 -40t213 40t154.5 112.5t94 173 t31.5 221.5q0 241 -127 393t-366 151q-121 0 -213 -40t-154.5 -111.5t-95.5 -172t-33 -220.5zM403 743q0 80 26 144.5t70 110.5t104.5 72t131.5 26q104 0 203 -45l-18 -158q-111 45 -185 45q-76 0 -118 -51t-42 -144q0 -88 42 -141t118 -53q80 0 185 49l18 -156 q-90 -49 -203 -49q-74 0 -134 24.5t-104 71t-69 111t-25 143.5z" />
<glyph unicode="&#xaa;" horiz-adv-x="735" d="M66 1073q0 59 38.5 99t93 64t109.5 34t90 12q-16 53 -90 53q-35 0 -178 -35l-12 154q127 41 243 41q98 0 165 -48t67 -136v-203q0 -39 9 -50t30 -9h28l-10 -160h-100q-12 0 -29.5 4t-35 11t-33 15.5t-23.5 16.5q-51 -47 -190 -47q-72 0 -122 46t-50 138zM270 1077 q0 -49 72 -49q26 0 57 10v119q-129 -29 -129 -80z" />
<glyph unicode="&#xab;" horiz-adv-x="1216" d="M27 582l307 422h270l-307 -422l307 -422h-270zM559 582l307 422h273l-310 -422l310 -422h-273z" />
<glyph unicode="&#xac;" horiz-adv-x="1212" d="M127 662v169h942v-522h-168v353h-774z" />
<glyph unicode="&#xad;" horiz-adv-x="860" d="M113 471v193h635v-193h-635z" />
<glyph unicode="&#xae;" horiz-adv-x="1435" d="M82 748q0 152 48 275.5t133 211.5t202 136t254 48t254 -49t202 -137t132 -212t47 -273q0 -150 -47 -273t-131 -212t-201 -138t-256 -49t-256 49t-202 138t-132 212t-47 273zM225 748q0 -121 32 -220.5t94.5 -172t154.5 -112.5t213 -40q119 0 211 40t154.5 112.5t94 172 t31.5 220.5q0 119 -31.5 218t-93 171.5t-153.5 112.5t-213 40t-213 -40t-154.5 -111.5t-94.5 -171.5t-32 -219zM467 420v678h254q117 0 178.5 -48.5t61.5 -170.5q0 -113 -103 -179l150 -280h-170l-129 233h-78v-233h-164zM631 803h59q57 0 79 20.5t22 59.5t-20 58.5 t-77 19.5h-63v-158z" />
<glyph unicode="&#xb0;" horiz-adv-x="673" d="M66 1266q0 59 19 110t54 89t85 59.5t112 21.5q61 0 112.5 -21.5t86 -59.5t54 -89t19.5 -110t-19.5 -110.5t-54 -88.5t-86 -58.5t-112.5 -21.5t-111.5 21.5t-85.5 58.5t-54 88t-19 111zM190 1266q0 -86 39 -138.5t107 -52.5q72 0 108.5 52.5t36.5 138.5t-37.5 139 t-107.5 53q-68 0 -107 -53t-39 -139z" />
<glyph unicode="&#xb1;" horiz-adv-x="1007" d="M125 70v174h758v-174h-758zM125 645v176h293v269h172v-269h293v-176h-293v-272h-172v272h-293z" />
<glyph unicode="&#xb2;" horiz-adv-x="632" d="M41 655q113 156 178.5 255.5t98 159.5t41 91t8.5 49q0 94 -88 95q-113 0 -189 -138l-22 166q27 47 89 80t154 33q59 0 101.5 -17.5t70 -45t41 -65.5t13.5 -77q0 -135 -181 -401h209v-185h-524z" />
<glyph unicode="&#xb3;" horiz-adv-x="628" d="M37 700l45 170q2 -10 19.5 -19t42 -15.5t52 -10.5t50.5 -4q143 0 143 66q0 121 -108 121h-127l14 137h65q63 0 92 23.5t29 50.5q0 33 -24.5 58.5t-81.5 25.5q-94 0 -133 -33l-25 125q53 51 182 51q74 0 124 -18.5t81 -48t44.5 -68.5t13.5 -78q0 -55 -17.5 -96t-36.5 -52 q23 -23 53.5 -65.5t30.5 -120.5q0 -61 -24.5 -109.5t-66.5 -82t-97.5 -51t-118.5 -17.5q-35 0 -70.5 6t-67.5 15.5t-54.5 19.5t-28.5 20z" />
<glyph unicode="&#xb4;" horiz-adv-x="620" d="M119 1204v131l383 189v-193z" />
<glyph unicode="&#xb5;" horiz-adv-x="1249" d="M150 -496v1514h231v-545q0 -154 50 -225.5t167 -71.5q123 0 207 96v746h231v-668q0 -55 4 -90t14.5 -55.5t28 -27.5t45.5 -7h35l-24 -190h-80q-156 0 -221 120q-111 -119 -260 -118q-115 0 -197 45v-523h-231z" />
<glyph unicode="&#xb6;" d="M68 958q0 94 38.5 181.5t114.5 152t184.5 103.5t249.5 39h533v-195h-146v-1239h-153v1239h-154v-1239h-123v477q-131 8 -232 50t-171 107.5t-105.5 148.5t-35.5 175z" />
<glyph unicode="&#xb7;" horiz-adv-x="479" d="M113 436v266h254v-266h-254z" />
<glyph unicode="&#xb8;" horiz-adv-x="620" d="M274 -395l142 270l188 16l-196 -272z" />
<glyph unicode="&#xb9;" horiz-adv-x="450" d="M53 1309q14 0 35 12t41.5 29.5t36.5 39t20 40.5h144v-775h-183v519q-14 -4 -36.5 -5.5t-51.5 -3.5z" />
<glyph unicode="&#xba;" horiz-adv-x="768" d="M61 1192q0 61 24 116.5t66 96.5t101 65.5t133 24.5t133.5 -24.5t101.5 -66.5t64.5 -96.5t22.5 -115.5q-1 -127 -89 -215q-86 -88 -233 -88q-74 0 -133 23.5t-102.5 64.5t-66 96t-22.5 119zM258 1192q0 -63 35 -109.5t92 -46.5t91 47t34 109q0 64 -35 111q-35 45 -90 45 q-57 0 -92 -46.5t-35 -109.5z" />
<glyph unicode="&#xbb;" horiz-adv-x="1216" d="M80 160l309 422l-309 422h272l307 -422l-307 -422h-272zM612 160l308 422l-308 422h271l309 -422l-309 -422h-271z" />
<glyph unicode="&#xbc;" horiz-adv-x="1497" d="M84 1309q14 0 35 12t41.5 29.5t36.5 39t20 40.5h144v-775h-183v519q-14 -4 -36.5 -5.5t-51.5 -3.5zM123 -174l756 1608h254l-756 -1608h-254zM786 213l383 564h160v-426h100v-138h-100v-211h-184v211h-359zM1022 351h123v176z" />
<glyph unicode="&#xbd;" horiz-adv-x="1501" d="M78 1309q14 0 35 12t41.5 29.5t36.5 39t20 40.5h144v-775h-183v519q-14 -4 -36.5 -5.5t-51.5 -3.5zM117 -174l756 1608h254l-756 -1608h-254zM905 2q113 156 178.5 255.5t98 159.5t41 91t8.5 49q0 94 -88 95q-113 0 -189 -138l-22 166q27 47 89 80t154 33 q59 0 101.5 -17.5t70 -45t41 -65.5t13.5 -77q0 -135 -181 -401h209v-185h-524z" />
<glyph unicode="&#xbe;" horiz-adv-x="1839" d="M64 700l45 170q2 -10 19.5 -19t42 -15.5t52 -10.5t50.5 -4q143 0 143 66q0 121 -108 121h-127l14 137h65q63 0 92 23.5t29 50.5q0 33 -24.5 58.5t-81.5 25.5q-94 0 -133 -33l-25 125q53 51 182 51q74 0 124 -18.5t81 -48t44.5 -68.5t13.5 -78q0 -55 -17.5 -96t-36.5 -52 q23 -23 53.5 -65.5t30.5 -120.5q0 -61 -24.5 -109.5t-66.5 -82t-97.5 -51t-118.5 -17.5q-35 0 -70.5 6t-67.5 15.5t-54.5 19.5t-28.5 20zM461 -174l756 1608h254l-756 -1608h-254zM1126 213l383 564h160v-426h100v-138h-100v-211h-184v211h-359zM1362 351h123v176z" />
<glyph unicode="&#xbf;" horiz-adv-x="905" d="M102 -125q0 94 51.5 178t113 167t112.5 170t51 190v34h156q6 -80 6 -104q0 -96 -43 -173t-93 -148.5t-93.5 -146.5t-43.5 -165q0 -104 63.5 -156.5t162.5 -52.5q86 0 153.5 40t104.5 95l55 -172q-45 -70 -133 -106.5t-195 -36.5q-109 0 -189.5 38t-133.5 94t-79 125 t-26 130zM391 795v229h232v-229h-232z" />
<glyph unicode="&#xc0;" d="M10 0l510 1434h236l512 -1434h-252l-127 358h-500l-127 -358h-252zM447 1747v193l383 -189v-131zM469 588h338l-170 477z" />
<glyph unicode="&#xc1;" d="M10 0l510 1434h236l512 -1434h-252l-127 358h-500l-127 -358h-252zM447 1620v131l383 189v-193zM469 588h338l-170 477z" />
<glyph unicode="&#xc2;" d="M10 0l510 1434h236l512 -1434h-252l-127 358h-500l-127 -358h-252zM338 1626v127l301 195l301 -195v-127l-301 152zM469 588h338l-170 477z" />
<glyph unicode="&#xc3;" d="M10 0l510 1434h236l512 -1434h-252l-127 358h-500l-127 -358h-252zM262 1671q14 94 85 147.5t157 53.5q25 0 63.5 -14.5t76.5 -30.5t70.5 -30.5t45.5 -14.5q45 0 77.5 28.5t46.5 69.5l130 -32q-18 -86 -81 -145.5t-155 -59.5q-23 0 -61.5 14t-79.5 31.5t-75 32t-46 14.5 q-84 0 -115 -98zM469 588h338l-170 477z" />
<glyph unicode="&#xc4;" d="M10 0l510 1434h236l512 -1434h-252l-127 358h-500l-127 -358h-252zM385 1637v213h182v-213h-182zM469 588h338l-170 477zM711 1637v213h182v-213h-182z" />
<glyph unicode="&#xc5;" d="M10 0l510 1434h236l512 -1434h-252l-127 358h-500l-127 -358h-252zM428 1778q0 82 61.5 133t165.5 51q47 0 84 -16.5t62.5 -43t39 -60t13.5 -68.5q0 -74 -56.5 -126t-156.5 -52q-98 0 -155.5 52t-57.5 130zM469 588h338l-170 477zM541 1770q0 -43 30.5 -64.5t69.5 -21.5 q37 0 68.5 21.5t31.5 64.5q0 45 -26.5 74.5t-73.5 29.5q-41 0 -70.5 -27.5t-29.5 -68.5v-8z" />
<glyph unicode="&#xc6;" horiz-adv-x="1777" d="M-18 0l698 1434h1006v-230h-617v-342h475v-229h-475v-404h635v-229h-893v352h-410l-174 -352h-245zM512 586h299v612z" />
<glyph unicode="&#xc7;" horiz-adv-x="1255" d="M76 717q0 168 53 305t147.5 235.5t224.5 151.5t285 53q225 0 404 -84l-27 -227q-229 84 -377 84q-109 0 -191.5 -38t-140 -106.5t-86 -164t-28.5 -209.5q0 -115 28.5 -210t86 -164t140.5 -106.5t191 -37.5q156 0 377 84l27 -228q-175 -84 -404 -84q-156 0 -285.5 53.5 t-224 151.5t-147.5 235.5t-53 305.5zM460 -395l142 270l188 16l-196 -272z" />
<glyph unicode="&#xc8;" horiz-adv-x="1155" d="M160 0v1434h903v-230h-657v-342h514v-229h-514v-404h677v-229h-923zM371 1747v193l383 -189v-131z" />
<glyph unicode="&#xc9;" horiz-adv-x="1155" d="M160 0v1434h903v-230h-657v-342h514v-229h-514v-404h677v-229h-923zM371 1620v131l383 189v-193z" />
<glyph unicode="&#xca;" horiz-adv-x="1155" d="M160 0v1434h903v-230h-657v-342h514v-229h-514v-404h677v-229h-923zM260 1626v127l301 195l301 -195v-127l-301 152z" />
<glyph unicode="&#xcb;" horiz-adv-x="1155" d="M160 0v1434h903v-230h-657v-342h514v-229h-514v-404h677v-229h-923zM307 1637v213h182v-213h-182zM633 1637v213h182v-213h-182z" />
<glyph unicode="&#xcc;" horiz-adv-x="561" d="M92 1747v193l383 -189v-131zM160 0v1434h241v-1434h-241z" />
<glyph unicode="&#xcd;" horiz-adv-x="561" d="M92 1620v131l383 189v-193zM160 0v1434h241v-1434h-241z" />
<glyph unicode="&#xce;" horiz-adv-x="561" d="M-18 1626v127l301 195l301 -195v-127l-301 152zM160 0v1434h241v-1434h-241z" />
<glyph unicode="&#xcf;" horiz-adv-x="561" d="M28 1637v213h182v-213h-182zM160 0v1434h241v-1434h-241zM354 1637v213h182v-213h-182z" />
<glyph unicode="&#xd0;" horiz-adv-x="1499" d="M-10 621v174h192v639h533q156 0 285.5 -50.5t223 -143.5t145.5 -225t52 -298t-52 -299t-145.5 -225.5t-223 -142.5t-285.5 -50h-533v621h-192zM420 229h295q217 0 330.5 129t113.5 359q0 229 -113.5 359t-330.5 130h-295v-411h256v-174h-256v-392z" />
<glyph unicode="&#xd1;" horiz-adv-x="1445" d="M160 0v1434h243l641 -971v971h242v-1434h-199l-686 1030v-1030h-241zM346 1671q14 94 85 147.5t157 53.5q25 0 63.5 -14.5t76.5 -30.5t70.5 -30.5t45.5 -14.5q45 0 77.5 28.5t46.5 69.5l130 -32q-18 -86 -81 -145.5t-155 -59.5q-23 0 -61.5 14t-79.5 31.5t-75 32 t-46 14.5q-84 0 -115 -98z" />
<glyph unicode="&#xd2;" horiz-adv-x="1564" d="M76 717q0 168 52 305t146.5 235.5t224.5 151.5t283 53q156 0 285 -54t223 -152.5t146.5 -235.5t52.5 -303q0 -336 -199 -541q-197 -205 -508 -205q-154 0 -283.5 53.5t-224 151.5t-146.5 235.5t-52 305.5zM340 717q0 -115 28.5 -209t85 -164t138.5 -107.5t190 -37.5 q106 0 189.5 37.5t139.5 107.5t85 164t29 209q0 230 -115 375q-113 143 -328 143q-109 0 -190.5 -38t-138 -107.5t-85 -165t-28.5 -207.5zM590 1747v193l383 -189v-131z" />
<glyph unicode="&#xd3;" horiz-adv-x="1564" d="M76 717q0 168 52 305t146.5 235.5t224.5 151.5t283 53q156 0 285 -54t223 -152.5t146.5 -235.5t52.5 -303q0 -336 -199 -541q-197 -205 -508 -205q-154 0 -283.5 53.5t-224 151.5t-146.5 235.5t-52 305.5zM340 717q0 -115 28.5 -209t85 -164t138.5 -107.5t190 -37.5 q106 0 189.5 37.5t139.5 107.5t85 164t29 209q0 230 -115 375q-113 143 -328 143q-109 0 -190.5 -38t-138 -107.5t-85 -165t-28.5 -207.5zM590 1620v131l383 189v-193z" />
<glyph unicode="&#xd4;" horiz-adv-x="1564" d="M76 717q0 168 52 305t146.5 235.5t224.5 151.5t283 53q156 0 285 -54t223 -152.5t146.5 -235.5t52.5 -303q0 -336 -199 -541q-197 -205 -508 -205q-154 0 -283.5 53.5t-224 151.5t-146.5 235.5t-52 305.5zM340 717q0 -115 28.5 -209t85 -164t138.5 -107.5t190 -37.5 q106 0 189.5 37.5t139.5 107.5t85 164t29 209q0 230 -115 375q-113 143 -328 143q-109 0 -190.5 -38t-138 -107.5t-85 -165t-28.5 -207.5zM482 1626v127l301 195l301 -195v-127l-301 152z" />
<glyph unicode="&#xd5;" horiz-adv-x="1564" d="M76 717q0 168 52 305t146.5 235.5t224.5 151.5t283 53q156 0 285 -54t223 -152.5t146.5 -235.5t52.5 -303q0 -336 -199 -541q-197 -205 -508 -205q-154 0 -283.5 53.5t-224 151.5t-146.5 235.5t-52 305.5zM340 717q0 -115 28.5 -209t85 -164t138.5 -107.5t190 -37.5 q106 0 189.5 37.5t139.5 107.5t85 164t29 209q0 230 -115 375q-113 143 -328 143q-109 0 -190.5 -38t-138 -107.5t-85 -165t-28.5 -207.5zM408 1671q14 94 85 147.5t157 53.5q25 0 63.5 -14.5t76.5 -30.5t70.5 -30.5t45.5 -14.5q45 0 77.5 28.5t46.5 69.5l130 -32 q-18 -86 -81 -145.5t-155 -59.5q-23 0 -61.5 14t-79.5 31.5t-75 32t-46 14.5q-84 0 -115 -98z" />
<glyph unicode="&#xd6;" horiz-adv-x="1564" d="M76 717q0 168 52 305t146.5 235.5t224.5 151.5t283 53q156 0 285 -54t223 -152.5t146.5 -235.5t52.5 -303q0 -336 -199 -541q-197 -205 -508 -205q-154 0 -283.5 53.5t-224 151.5t-146.5 235.5t-52 305.5zM340 717q0 -115 28.5 -209t85 -164t138.5 -107.5t190 -37.5 q106 0 189.5 37.5t139.5 107.5t85 164t29 209q0 230 -115 375q-113 143 -328 143q-109 0 -190.5 -38t-138 -107.5t-85 -165t-28.5 -207.5zM528 1637v213h182v-213h-182zM854 1637v213h182v-213h-182z" />
<glyph unicode="&#xd7;" horiz-adv-x="913" d="M119 338l229 229l-229 230l108 108l230 -229l229 229l109 -108l-230 -230l230 -229l-109 -109l-229 230l-230 -230z" />
<glyph unicode="&#xd8;" horiz-adv-x="1564" d="M76 717q0 168 52 305t146.5 235.5t224.5 151.5t283 53q172 0 330 -73l55 77h248l-137 -198q211 -211 211 -551q0 -166 -52.5 -303.5t-146.5 -234.5t-223 -151.5t-285 -54.5q-180 0 -340 78l-77 -114h-248l159 233q-201 219 -200 547zM342 717q0 -186 84 -332l551 807 q-105 41 -195 41q-106 0 -188 -38t-138.5 -105.5t-85 -163t-28.5 -209.5zM578 244q98 -41 204 -41t189.5 38t138.5 106.5t84 163.5t29 208q0 211 -90 338z" />
<glyph unicode="&#xd9;" horiz-adv-x="1474" d="M143 612v822h242v-732q0 -106 14.5 -198t53.5 -160t107.5 -106.5t176.5 -38.5q109 0 177.5 38.5t107.5 107.5t53.5 161t14.5 196v732h241v-822q0 -301 -149.5 -471t-444.5 -170t-444.5 170t-149.5 471zM545 1747v193l383 -189v-131z" />
<glyph unicode="&#xda;" horiz-adv-x="1474" d="M143 612v822h242v-732q0 -106 14.5 -198t53.5 -160t107.5 -106.5t176.5 -38.5q109 0 177.5 38.5t107.5 107.5t53.5 161t14.5 196v732h241v-822q0 -301 -149.5 -471t-444.5 -170t-444.5 170t-149.5 471zM545 1620v131l383 189v-193z" />
<glyph unicode="&#xdb;" horiz-adv-x="1474" d="M143 612v822h242v-732q0 -106 14.5 -198t53.5 -160t107.5 -106.5t176.5 -38.5q109 0 177.5 38.5t107.5 107.5t53.5 161t14.5 196v732h241v-822q0 -301 -149.5 -471t-444.5 -170t-444.5 170t-149.5 471zM437 1626v127l301 195l301 -195v-127l-301 152z" />
<glyph unicode="&#xdc;" horiz-adv-x="1474" d="M143 612v822h242v-732q0 -106 14.5 -198t53.5 -160t107.5 -106.5t176.5 -38.5q109 0 177.5 38.5t107.5 107.5t53.5 161t14.5 196v732h241v-822q0 -301 -149.5 -471t-444.5 -170t-444.5 170t-149.5 471zM483 1637v213h182v-213h-182zM809 1637v213h182v-213h-182z" />
<glyph unicode="&#xdd;" horiz-adv-x="1206" d="M-12 1434h256l358 -576l359 576h256l-492 -791v-643h-244v643zM418 1620v131l383 189v-193z" />
<glyph unicode="&#xde;" horiz-adv-x="1161" d="M160 0v1434h243v-240h179q133 0 240.5 -15.5t182 -63.5t115.5 -137t41 -237q0 -150 -47 -247t-119.5 -153t-157.5 -78.5t-159 -22.5h-275v-240h-243zM403 465h238q147 0 209.5 62.5t62.5 209.5q0 66 -13 114t-47 79t-90 45t-142 14h-218v-524z" />
<glyph unicode="&#xdf;" horiz-adv-x="1155" d="M35 829l22 189h131v133q0 90 33 161.5t89.5 121t130 76t155.5 26.5q74 0 145.5 -20.5t127 -65.5t90 -114.5t34.5 -170.5q0 -86 -26.5 -152.5t-57 -115.5t-57.5 -83t-27 -56q0 -29 46.5 -62.5t100.5 -84t100 -123t46 -179.5q0 -90 -37 -153.5t-100 -102.5t-145 -56 t-172 -17q-29 0 -56.5 2t-60.5 6v186q82 0 144.5 2t104.5 15.5t63.5 41t21.5 78.5q0 55 -22.5 99.5t-56.5 81t-74 67.5t-73.5 60.5t-56.5 59.5t-23 64q0 41 30 82t67 88.5t66.5 106.5t29.5 137q0 51 -14.5 86t-39 55.5t-56 29.5t-64.5 9q-174 0 -174 -198v-1418h-232v1108 h-153z" />
<glyph unicode="&#xe0;" horiz-adv-x="1009" d="M45 283q0 104 60.5 172.5t148.5 110.5t189.5 59.5t185.5 19.5q-2 104 -47 146.5t-150 42.5q-125 0 -274 -82l-25 188q176 96 363 96q184 0 275 -101t91 -333v-254q0 -57 3 -92t13.5 -54.5t30 -25.5t52.5 -6h26l-22 -190h-70q-172 0 -238 126q-111 -127 -311 -126 q-66 0 -121 21.5t-95 61t-62.5 96t-22.5 124.5zM287 293q0 -133 143 -133q49 0 104.5 24.5t94.5 67.5v235q-154 -6 -248 -54t-94 -140zM312 1331v193l383 -189v-131z" />
<glyph unicode="&#xe1;" horiz-adv-x="1009" d="M45 283q0 104 60.5 172.5t148.5 110.5t189.5 59.5t185.5 19.5q-2 104 -47 146.5t-150 42.5q-125 0 -274 -82l-25 188q176 96 363 96q184 0 275 -101t91 -333v-254q0 -57 3 -92t13.5 -54.5t30 -25.5t52.5 -6h26l-22 -190h-70q-172 0 -238 126q-111 -127 -311 -126 q-66 0 -121 21.5t-95 61t-62.5 96t-22.5 124.5zM287 293q0 -133 143 -133q49 0 104.5 24.5t94.5 67.5v235q-154 -6 -248 -54t-94 -140zM312 1204v131l383 189v-193z" />
<glyph unicode="&#xe2;" horiz-adv-x="1009" d="M45 283q0 104 60.5 172.5t148.5 110.5t189.5 59.5t185.5 19.5q-2 104 -47 146.5t-150 42.5q-125 0 -274 -82l-25 188q176 96 363 96q184 0 275 -101t91 -333v-254q0 -57 3 -92t13.5 -54.5t30 -25.5t52.5 -6h26l-22 -190h-70q-172 0 -238 126q-111 -127 -311 -126 q-66 0 -121 21.5t-95 61t-62.5 96t-22.5 124.5zM205 1210v127l301 195l301 -195v-127l-301 152zM287 293q0 -133 143 -133q49 0 104.5 24.5t94.5 67.5v235q-154 -6 -248 -54t-94 -140z" />
<glyph unicode="&#xe3;" horiz-adv-x="1009" d="M45 283q0 104 60.5 172.5t148.5 110.5t189.5 59.5t185.5 19.5q-2 104 -47 146.5t-150 42.5q-125 0 -274 -82l-25 188q176 96 363 96q184 0 275 -101t91 -333v-254q0 -57 3 -92t13.5 -54.5t30 -25.5t52.5 -6h26l-22 -190h-70q-172 0 -238 126q-111 -127 -311 -126 q-66 0 -121 21.5t-95 61t-62.5 96t-22.5 124.5zM125 1255q14 94 85 147.5t157 53.5q25 0 63.5 -14.5t76.5 -30.5t70.5 -30.5t45.5 -14.5q45 0 77.5 28.5t46.5 69.5l130 -32q-18 -86 -81 -145.5t-155 -59.5q-23 0 -61.5 14t-79.5 31.5t-75 32t-46 14.5q-84 0 -115 -98z M287 293q0 -133 143 -133q49 0 104.5 24.5t94.5 67.5v235q-154 -6 -248 -54t-94 -140z" />
<glyph unicode="&#xe4;" horiz-adv-x="1009" d="M45 283q0 104 60.5 172.5t148.5 110.5t189.5 59.5t185.5 19.5q-2 104 -47 146.5t-150 42.5q-125 0 -274 -82l-25 188q176 96 363 96q184 0 275 -101t91 -333v-254q0 -57 3 -92t13.5 -54.5t30 -25.5t52.5 -6h26l-22 -190h-70q-172 0 -238 126q-111 -127 -311 -126 q-66 0 -121 21.5t-95 61t-62.5 96t-22.5 124.5zM252 1221v213h182v-213h-182zM287 293q0 -133 143 -133q49 0 104.5 24.5t94.5 67.5v235q-154 -6 -248 -54t-94 -140zM578 1221v213h182v-213h-182z" />
<glyph unicode="&#xe5;" horiz-adv-x="1009" d="M45 283q0 104 60.5 172.5t148.5 110.5t189.5 59.5t185.5 19.5q-2 104 -47 146.5t-150 42.5q-125 0 -274 -82l-25 188q176 96 363 96q184 0 275 -101t91 -333v-254q0 -57 3 -92t13.5 -54.5t30 -25.5t52.5 -6h26l-22 -190h-70q-172 0 -238 126q-111 -127 -311 -126 q-66 0 -121 21.5t-95 61t-62.5 96t-22.5 124.5zM287 293q0 -133 143 -133q49 0 104.5 24.5t94.5 67.5v235q-154 -6 -248 -54t-94 -140zM293 1362q0 82 61.5 133t165.5 51q47 0 84 -16.5t62.5 -43t39 -60t13.5 -68.5q0 -74 -56.5 -126t-156.5 -52q-98 0 -155.5 52t-57.5 130z M406 1354q0 -43 30.5 -64.5t69.5 -21.5q37 0 68.5 21.5t31.5 64.5q0 45 -26.5 74.5t-73.5 29.5q-41 0 -70.5 -27.5t-29.5 -68.5v-8z" />
<glyph unicode="&#xe6;" horiz-adv-x="1632" d="M45 254q0 82 29.5 141.5t79 100.5t112 67.5t128 43t129 23.5t112.5 9q-10 104 -55 149.5t-148 45.5q-119 0 -272 -72l-21 186q184 88 355 88q256 0 315 -202q14 43 50 80.5t84 64.5t107.5 42t120.5 15q90 0 164 -30.5t127.5 -87t82 -136.5t28.5 -178q0 -61 -14 -133h-662 q14 -150 99 -225.5t208 -75.5q139 0 303 80l19 -191q-158 -80 -338 -79q-303 0 -410 204q-139 -215 -405 -215q-160 0 -244 75t-84 210zM287 274q0 -57 37.5 -88.5t97.5 -31.5q43 0 85 17t74.5 50t52 81t19.5 110v37.5t-2 31.5q-59 -2 -122.5 -13t-118 -35.5t-89 -62.5 t-34.5 -96zM907 629h455q0 92 -49.5 151.5t-149.5 59.5q-98 0 -165.5 -55.5t-90.5 -155.5z" />
<glyph unicode="&#xe7;" horiz-adv-x="921" d="M61 508q0 113 34 210t97.5 167.5t155.5 110.5t211 40q188 0 307 -71l-24 -201q-125 76 -262 76q-135 0 -208 -89t-73 -243t72.5 -244t208.5 -90q137 0 264 76l22 -195q-114 -75 -307 -75q-119 0 -211 40.5t-155.5 111.5t-97.5 167t-34 209zM358 -395l142 270l188 16 l-196 -272z" />
<glyph unicode="&#xe8;" horiz-adv-x="1052" d="M59 510q0 111 34 206t98.5 166.5t154.5 112.5t205 41q96 0 177 -31.5t140.5 -89t93 -138.5t33.5 -179q0 -25 -3 -56.5t-11 -70.5h-682q20 -154 111.5 -225.5t216.5 -71.5q158 0 307 76l16 -193q-160 -78 -340 -77q-131 0 -233.5 39.5t-173 111.5t-107.5 168t-37 211z M309 629h449q0 88 -49.5 149.5t-153.5 61.5q-201 0 -246 -211zM334 1331v193l383 -189v-131z" />
<glyph unicode="&#xe9;" horiz-adv-x="1052" d="M59 510q0 111 34 206t98.5 166.5t154.5 112.5t205 41q96 0 177 -31.5t140.5 -89t93 -138.5t33.5 -179q0 -25 -3 -56.5t-11 -70.5h-682q20 -154 111.5 -225.5t216.5 -71.5q158 0 307 76l16 -193q-160 -78 -340 -77q-131 0 -233.5 39.5t-173 111.5t-107.5 168t-37 211z M309 629h449q0 88 -49.5 149.5t-153.5 61.5q-201 0 -246 -211zM334 1204v131l383 189v-193z" />
<glyph unicode="&#xea;" horiz-adv-x="1052" d="M59 510q0 111 34 206t98.5 166.5t154.5 112.5t205 41q96 0 177 -31.5t140.5 -89t93 -138.5t33.5 -179q0 -25 -3 -56.5t-11 -70.5h-682q20 -154 111.5 -225.5t216.5 -71.5q158 0 307 76l16 -193q-160 -78 -340 -77q-131 0 -233.5 39.5t-173 111.5t-107.5 168t-37 211z M224 1210v127l301 195l301 -195v-127l-301 152zM309 629h449q0 88 -49.5 149.5t-153.5 61.5q-201 0 -246 -211z" />
<glyph unicode="&#xeb;" horiz-adv-x="1052" d="M59 510q0 111 34 206t98.5 166.5t154.5 112.5t205 41q96 0 177 -31.5t140.5 -89t93 -138.5t33.5 -179q0 -25 -3 -56.5t-11 -70.5h-682q20 -154 111.5 -225.5t216.5 -71.5q158 0 307 76l16 -193q-160 -78 -340 -77q-131 0 -233.5 39.5t-173 111.5t-107.5 168t-37 211z M270 1221v213h182v-213h-182zM309 629h449q0 88 -49.5 149.5t-153.5 61.5q-201 0 -246 -211zM596 1221v213h182v-213h-182z" />
<glyph unicode="&#xec;" horiz-adv-x="479" d="M51 1331v193l383 -189v-131zM123 0v1018h233v-1018h-233z" />
<glyph unicode="&#xed;" horiz-adv-x="479" d="M51 1204v131l383 189v-193zM123 0v1018h233v-1018h-233z" />
<glyph unicode="&#xee;" horiz-adv-x="479" d="M-59 1210v127l301 195l301 -195v-127l-301 152zM123 0v1018h233v-1018h-233z" />
<glyph unicode="&#xef;" horiz-adv-x="479" d="M-12 1221v213h182v-213h-182zM123 0v1018h233v-1018h-233zM314 1221v213h182v-213h-182z" />
<glyph unicode="&#xf0;" horiz-adv-x="1058" d="M43 418q0 88 28.5 170t84 145.5t135.5 101t184 37.5q150 0 252 -90q-4 37 -18.5 86.5t-36 97.5t-46 89t-51.5 61q-139 -102 -282 -121l-74 140q104 2 250 94q-121 104 -244 104l80 103q150 -2 299 -109q70 63 117 129l123 -31q-35 -53 -71 -100t-71 -86 q125 -129 200 -315.5t75 -395.5q0 -158 -42 -263t-109.5 -170.5t-152.5 -93.5t-171 -28q-98 0 -182 33t-145.5 92.5t-96.5 141.5t-35 178zM272 444q0 -117 62.5 -195.5t173.5 -78.5q98 0 162.5 65.5t64.5 188.5t-60 190.5t-171 67.5q-55 0 -98.5 -19.5t-73 -52t-45 -75.5 t-15.5 -91z" />
<glyph unicode="&#xf1;" horiz-adv-x="1136" d="M123 0v1018h209l8 -76q119 94 258 94q428 0 428 -485v-551h-231v551q0 150 -52.5 219.5t-169.5 69.5q-143 0 -219 -101v-739h-231zM197 1255q14 94 85 147.5t157 53.5q25 0 63.5 -14.5t76.5 -30.5t70.5 -30.5t45.5 -14.5q45 0 77.5 28.5t46.5 69.5l130 -32 q-18 -86 -81 -145.5t-155 -59.5q-23 0 -61.5 14t-79.5 31.5t-75 32t-46 14.5q-84 0 -115 -98z" />
<glyph unicode="&#xf2;" horiz-adv-x="1142" d="M59 508q0 111 36 208t102.5 167.5t162 111.5t211.5 41q117 0 211.5 -41t161 -112.5t103 -168t36.5 -206.5q0 -111 -35.5 -207t-102 -168t-162 -112.5t-212.5 -40.5q-119 0 -213 40.5t-160.5 111.5t-102.5 167t-36 209zM297 508q0 -154 72.5 -244t201.5 -90t202 90t73 244 t-73 243t-202 89t-201.5 -89t-72.5 -243zM379 1331v193l383 -189v-131z" />
<glyph unicode="&#xf3;" horiz-adv-x="1142" d="M59 508q0 111 36 208t102.5 167.5t162 111.5t211.5 41q117 0 211.5 -41t161 -112.5t103 -168t36.5 -206.5q0 -111 -35.5 -207t-102 -168t-162 -112.5t-212.5 -40.5q-119 0 -213 40.5t-160.5 111.5t-102.5 167t-36 209zM297 508q0 -154 72.5 -244t201.5 -90t202 90t73 244 t-73 243t-202 89t-201.5 -89t-72.5 -243zM379 1204v131l383 189v-193z" />
<glyph unicode="&#xf4;" horiz-adv-x="1142" d="M59 508q0 111 36 208t102.5 167.5t162 111.5t211.5 41q117 0 211.5 -41t161 -112.5t103 -168t36.5 -206.5q0 -111 -35.5 -207t-102 -168t-162 -112.5t-212.5 -40.5q-119 0 -213 40.5t-160.5 111.5t-102.5 167t-36 209zM271 1210v127l301 195l301 -195v-127l-301 152z M297 508q0 -154 72.5 -244t201.5 -90t202 90t73 244t-73 243t-202 89t-201.5 -89t-72.5 -243z" />
<glyph unicode="&#xf5;" horiz-adv-x="1142" d="M59 508q0 111 36 208t102.5 167.5t162 111.5t211.5 41q117 0 211.5 -41t161 -112.5t103 -168t36.5 -206.5q0 -111 -35.5 -207t-102 -168t-162 -112.5t-212.5 -40.5q-119 0 -213 40.5t-160.5 111.5t-102.5 167t-36 209zM197 1255q14 94 85 147.5t157 53.5q25 0 63.5 -14.5 t76.5 -30.5t70.5 -30.5t45.5 -14.5q45 0 77.5 28.5t46.5 69.5l130 -32q-18 -86 -81 -145.5t-155 -59.5q-23 0 -61.5 14t-79.5 31.5t-75 32t-46 14.5q-84 0 -115 -98zM297 508q0 -154 72.5 -244t201.5 -90t202 90t73 244t-73 243t-202 89t-201.5 -89t-72.5 -243z" />
<glyph unicode="&#xf6;" horiz-adv-x="1142" d="M59 508q0 111 36 208t102.5 167.5t162 111.5t211.5 41q117 0 211.5 -41t161 -112.5t103 -168t36.5 -206.5q0 -111 -35.5 -207t-102 -168t-162 -112.5t-212.5 -40.5q-119 0 -213 40.5t-160.5 111.5t-102.5 167t-36 209zM297 508q0 -154 72.5 -244t201.5 -90t202 90t73 244 t-73 243t-202 89t-201.5 -89t-72.5 -243zM317 1221v213h182v-213h-182zM643 1221v213h182v-213h-182z" />
<glyph unicode="&#xf7;" horiz-adv-x="1175" d="M117 481v178h942v-178h-942zM463 41v244h231v-244h-231zM463 850v244h231v-244h-231z" />
<glyph unicode="&#xf8;" horiz-adv-x="1153" d="M59 510q0 113 37 210t105.5 167.5t164 110.5t212.5 40q68 0 147 -18l35 74h201l-74 -148q209 -160 209 -436q0 -111 -36 -207t-103.5 -168t-163.5 -112.5t-215 -40.5q-72 0 -154 18l-35 -74h-194l71 150q-207 152 -207 434zM301 510q0 -129 61 -236l277 570q-31 6 -64 6 q-129 0 -201.5 -93t-72.5 -247zM510 176q49 -6 68 -6q131 0 203.5 93t72.5 247q0 159 -63 235z" />
<glyph unicode="&#xf9;" horiz-adv-x="1114" d="M111 457v561h231v-545q0 -154 51 -224.5t162 -70.5q135 0 205 94v746h231v-1018h-213l-10 76q-102 -96 -244 -96q-414 0 -413 477zM373 1331v193l383 -189v-131z" />
<glyph unicode="&#xfa;" horiz-adv-x="1114" d="M111 457v561h231v-545q0 -154 51 -224.5t162 -70.5q135 0 205 94v746h231v-1018h-213l-10 76q-102 -96 -244 -96q-414 0 -413 477zM373 1204v131l383 189v-193z" />
<glyph unicode="&#xfb;" horiz-adv-x="1114" d="M111 457v561h231v-545q0 -154 51 -224.5t162 -70.5q135 0 205 94v746h231v-1018h-213l-10 76q-102 -96 -244 -96q-414 0 -413 477zM267 1210v127l301 195l301 -195v-127l-301 152z" />
<glyph unicode="&#xfc;" horiz-adv-x="1114" d="M111 457v561h231v-545q0 -154 51 -224.5t162 -70.5q135 0 205 94v746h231v-1018h-213l-10 76q-102 -96 -244 -96q-414 0 -413 477zM313 1221v213h182v-213h-182zM639 1221v213h182v-213h-182z" />
<glyph unicode="&#xfd;" horiz-adv-x="1085" d="M8 1018h258l279 -686l272 686h258l-633 -1514h-239l229 557zM350 1204v131l383 189v-193z" />
<glyph unicode="&#xfe;" horiz-adv-x="1181" d="M123 -496v2032h231v-588q113 88 267 88q115 0 208 -41t157.5 -112.5t99 -168t34.5 -206.5q0 -111 -33.5 -207t-98 -168t-159 -112.5t-213.5 -40.5q-160 0 -262 90v-566h-231zM342 508q0 -156 63.5 -247t194.5 -91q135 0 209 92t74 246t-74 243t-209 89q-131 0 -194.5 -89 t-63.5 -243z" />
<glyph unicode="&#xff;" horiz-adv-x="1085" d="M8 1018h258l279 -686l272 686h258l-633 -1514h-239l229 557zM287 1221v213h182v-213h-182zM613 1221v213h182v-213h-182z" />
<glyph unicode="&#x152;" horiz-adv-x="2185" d="M76 717q0 166 51 303t144.5 235.5t222.5 152.5t284 54q248 0 457 -159v131h858v-230h-614v-342h473v-229h-473v-404h632v-229h-876v131q-209 -160 -457 -160q-156 0 -284.5 54.5t-222 152.5t-144.5 235.5t-51 303.5zM338 717q0 -115 28.5 -210t84 -164t137.5 -106.5 t190 -37.5q106 0 188.5 37.5t138.5 107.5t85 164t29 209q0 230 -115 375q-113 143 -326 143q-109 0 -190.5 -38t-137 -107.5t-84 -165t-28.5 -207.5z" />
<glyph unicode="&#x153;" horiz-adv-x="1837" d="M59 510q0 111 36 207t103.5 166.5t163 111.5t213.5 41q123 0 225.5 -46t162.5 -132q61 86 157.5 132t212.5 46q98 0 180 -30.5t141.5 -88t92.5 -138.5t33 -179q-1 -70 -15 -129h-673q8 -80 36.5 -137.5t70.5 -94t95.5 -53t108.5 -16.5q158 0 315 80l15 -197 q-145 -74 -332 -73q-299 0 -432 182q-59 -86 -163 -134t-233 -48q-121 0 -216 40.5t-160.5 113.5t-101.5 169t-36 207zM297 508q0 -154 71.5 -244t206.5 -90q131 0 203 93t72 243t-73 240t-202 90q-131 0 -204.5 -89t-73.5 -243zM1098 629h446q-4 92 -55.5 151.5 t-149.5 59.5q-199 0 -241 -211z" />
<glyph unicode="&#x178;" horiz-adv-x="1206" d="M-12 1434h256l358 -576l359 576h256l-492 -791v-643h-244v643zM356 1637v213h182v-213h-182zM682 1637v213h182v-213h-182z" />
<glyph unicode="&#x2c6;" horiz-adv-x="913" d="M156 1210v127l301 195l301 -195v-127l-301 152z" />
<glyph unicode="&#x2dc;" horiz-adv-x="1081" d="M166 1255q14 94 85 147.5t157 53.5q25 0 63.5 -14.5t76.5 -30.5t70.5 -30.5t45.5 -14.5q45 0 77.5 28.5t46.5 69.5l130 -32q-18 -86 -81 -145.5t-155 -59.5q-23 0 -61.5 14t-79.5 31.5t-75 32t-46 14.5q-84 0 -115 -98z" />
<glyph unicode="&#x2000;" horiz-adv-x="981" />
<glyph unicode="&#x2001;" horiz-adv-x="1962" />
<glyph unicode="&#x2002;" horiz-adv-x="981" />
<glyph unicode="&#x2003;" horiz-adv-x="1962" />
<glyph unicode="&#x2004;" horiz-adv-x="654" />
<glyph unicode="&#x2005;" horiz-adv-x="490" />
<glyph unicode="&#x2006;" horiz-adv-x="327" />
<glyph unicode="&#x2007;" horiz-adv-x="327" />
<glyph unicode="&#x2008;" horiz-adv-x="245" />
<glyph unicode="&#x2009;" horiz-adv-x="392" />
<glyph unicode="&#x200a;" horiz-adv-x="109" />
<glyph unicode="&#x2010;" horiz-adv-x="860" d="M113 475v189h635v-189h-635z" />
<glyph unicode="&#x2011;" horiz-adv-x="860" d="M113 475v189h635v-189h-635z" />
<glyph unicode="&#x2012;" horiz-adv-x="860" d="M113 475v189h635v-189h-635z" />
<glyph unicode="&#x2013;" horiz-adv-x="1019" d="M113 475v189h794v-189h-794z" />
<glyph unicode="&#x2014;" horiz-adv-x="1208" d="M113 475v189h983v-189h-983z" />
<glyph unicode="&#x2018;" horiz-adv-x="413" d="M88 1073v238l188 225l52 -29l-70 -176l68 -20v-238h-238z" />
<glyph unicode="&#x2019;" horiz-adv-x="378" d="M84 1102l68 176l-68 20v238h240v-238l-189 -225z" />
<glyph unicode="&#x201a;" horiz-adv-x="464" d="M113 0v238h239v-238l-188 -225l-51 28l67 177z" />
<glyph unicode="&#x201c;" horiz-adv-x="843" d="M88 1073v238l188 225l52 -29l-70 -176l68 -20v-238h-238zM518 1073v238l189 225l51 -29l-70 -176l68 -20v-238h-238z" />
<glyph unicode="&#x201d;" horiz-adv-x="808" d="M84 1102l68 176l-68 20v238h240v-238l-189 -225zM514 1102l68 176l-68 20v238h240v-238l-189 -225z" />
<glyph unicode="&#x201e;" horiz-adv-x="935" d="M113 0v238h239v-238l-188 -225l-51 28l67 177zM584 0v238h239v-238l-188 -225l-51 28l67 177z" />
<glyph unicode="&#x2022;" horiz-adv-x="618" d="M86 569q0 45 18.5 85t49 71t70.5 49.5t85 18.5t85 -18.5t71 -49.5t49 -71t18 -85q0 -43 -16 -83.5t-49 -73.5q-35 -35 -75 -50.5t-83 -15.5q-45 0 -85 18.5t-70.5 49t-49 70.5t-18.5 85z" />
<glyph unicode="&#x2026;" horiz-adv-x="1425" d="M113 0v238h233v-238h-233zM596 0v238h233v-238h-233zM1079 0v238h234v-238h-234z" />
<glyph unicode="&#x202f;" horiz-adv-x="392" />
<glyph unicode="&#x2039;" horiz-adv-x="694" d="M25 582l315 422h276l-315 -422l315 -422h-276z" />
<glyph unicode="&#x203a;" horiz-adv-x="696" d="M80 160l315 422l-315 422h276l316 -422l-316 -422h-276z" />
<glyph unicode="&#x205f;" horiz-adv-x="490" />
<glyph unicode="&#x20ac;" horiz-adv-x="1441" d="M66 432l57 166h192q-4 29 -5 68t-1 73h-188l59 168h150q29 115 87 206t140 154.5t184.5 97.5t219.5 34q98 0 194 -18.5t174 -55.5l-29 -221q-82 35 -161.5 57.5t-177.5 22.5q-147 0 -237.5 -74t-129.5 -203h518l-61 -168h-484v-34.5t1 -40t3 -38t7 -28.5h493l-57 -166 h-383q104 -182 330 -182q98 0 178 22.5t161 57.5l29 -221q-78 -37 -174 -55.5t-194 -18.5q-209 0 -368 104.5t-235 292.5h-292z" />
<glyph unicode="&#x2122;" horiz-adv-x="1505" d="M63 1292v142h562l-17 -142h-196v-602h-146v602h-203zM625 690l100 744h88l197 -324l192 324h90l101 -744h-152l-57 469l-166 -276h-21l-163 278l-60 -471h-149z" />
<glyph unicode="&#x25fc;" horiz-adv-x="1013" d="M0 0v1014h1014v-1014h-1014z" />
</font>
</defs>
</svg>
