<?xml version="1.0" standalone="no"?>
<!DOCTYPE svg PUBLIC "-//W3C//DTD SVG 1.1//EN" "http://www.w3.org/Graphics/SVG/1.1/DTD/svg11.dtd" >
<svg xmlns="http://www.w3.org/2000/svg" xmlns:xlink="http://www.w3.org/1999/xlink" version="1.1">
<metadata></metadata>
<defs>
<font id="cabinmedium" horiz-adv-x="1054" >
<font-face units-per-em="2048" ascent="1638" descent="-410" />
<missing-glyph horiz-adv-x="460" />
<glyph horiz-adv-x="0" />
<glyph horiz-adv-x="682" />
<glyph unicode=" "  horiz-adv-x="460" />
<glyph unicode="&#x09;" horiz-adv-x="460" />
<glyph unicode="&#xa0;" horiz-adv-x="460" />
<glyph unicode="!" horiz-adv-x="499" d="M123 1536h254l-55 -1126h-144zM150 0v203h200v-203h-200z" />
<glyph unicode="&#x22;" horiz-adv-x="821" d="M80 1536h213l-41 -614h-131zM530 1536h211l-41 -614h-129z" />
<glyph unicode="#" horiz-adv-x="1443" d="M66 438l79 183h234l92 239h-254l62 182h262l151 392h174l-151 -392h258l153 392h174l-151 -392h231l-63 -182h-236l-94 -239h260l-82 -183h-245l-177 -461h-174l174 461h-258l-176 -461h-174l174 461h-243zM553 621h258l94 239h-258z" />
<glyph unicode="$" horiz-adv-x="1056" d="M84 973q0 57 22.5 111.5t68.5 98.5t118 72.5t170 38.5l-35 238h197l-33 -238q213 -12 328 -77l-19 -209q-215 102 -346 102q-242 0 -242 -113q0 -55 50.5 -85.5t124 -54t161.5 -47.5t162 -62.5t124 -101t50 -165.5q0 -47 -15.5 -98t-58.5 -95t-119.5 -78t-199.5 -44 l33 -232h-197l35 230q-242 12 -361 80l29 235q147 -123 383 -123q219 0 219 123q0 57 -48 93t-119.5 61.5t-156.5 50.5t-157 59.5t-120 89t-48 140.5z" />
<glyph unicode="%" horiz-adv-x="1718" d="M70 1055q0 92 24.5 164.5t67.5 122t99 76t120 26.5q63 0 118.5 -24.5t96.5 -73t63.5 -117t22.5 -156.5q0 -186 -87 -287.5t-224 -101.5q-135 0 -218 97.5t-83 273.5zM201 1055q0 -121 50 -185.5t122 -64.5q78 0 128 69.5t50 198.5q0 119 -52 184.5t-120 65.5 q-72 0 -125 -69.5t-53 -198.5zM319 -25l863 1459h172l-860 -1459h-175zM1036 346q0 92 24.5 165t67.5 122t99.5 75.5t120.5 26.5q63 0 118.5 -24.5t96.5 -72.5t63.5 -116.5t22.5 -156.5q0 -186 -87.5 -288t-224.5 -102q-135 0 -218 97.5t-83 273.5zM1167 346 q0 -121 50.5 -185.5t121.5 -64.5q78 0 128.5 70t50.5 199q0 119 -52 184t-120 65q-72 0 -125.5 -69.5t-53.5 -198.5z" />
<glyph unicode="&#x26;" horiz-adv-x="1259" d="M70 336q0 231 256 414q-154 186 -154 350q0 78 33 141.5t88 107.5t129 67.5t153 23.5q150 0 228 -74t78 -197q0 -131 -87 -231t-235 -199l354 -374q53 96 60 354h192q-6 -301 -121 -500l191 -219h-225l-80 86q-162 -133 -383 -133q-121 0 -210 28.5t-148.5 79t-89 121 t-29.5 154.5zM276 352q0 -104 69 -172.5t216 -68.5q166 0 262 104l-401 418q-145 -117 -146 -281zM367 1094q0 -119 106 -244l96 76q70 53 101.5 103t31.5 108q0 70 -38.5 105.5t-108.5 35.5q-80 0 -134 -48t-54 -136z" />
<glyph unicode="'" horiz-adv-x="385" d="M82 1536h221l-39 -614h-143z" />
<glyph unicode="(" horiz-adv-x="544" d="M82 629q0 156 14.5 282.5t43 235t70.5 203t99 186.5h187q-246 -410 -246 -907q0 -500 246 -908h-187q-57 92 -100 187.5t-70.5 204t-42 235.5t-14.5 281z" />
<glyph unicode=")" horiz-adv-x="544" d="M49 -279q246 408 246 908q0 498 -246 907h187q57 -92 99 -186.5t70.5 -203t43 -235.5t14.5 -282q0 -154 -14.5 -281t-42 -235.5t-70.5 -204t-100 -187.5h-187z" />
<glyph unicode="*" horiz-adv-x="884" d="M66 1292l63 113l293 -191l-43 320h129l-47 -320l295 191l63 -115l-323 -119l235 -219l-92 -88l-195 275l-194 -281l-92 88l231 221z" />
<glyph unicode="+" horiz-adv-x="944" d="M92 481v183h293v262h172v-262h293v-183h-293v-272h-172v272h-293z" />
<glyph unicode="," horiz-adv-x="452" d="M115 -197l69 179l-67 18v207h221v-207l-174 -223z" />
<glyph unicode="-" horiz-adv-x="864" d="M115 481v183h635v-183h-635z" />
<glyph unicode="." horiz-adv-x="438" d="M115 0v207h209v-207h-209z" />
<glyph unicode="/" horiz-adv-x="1097" d="M37 -174l764 1608h229l-766 -1608h-227z" />
<glyph unicode="0" horiz-adv-x="1454" d="M125 692q0 170 47 312.5t130 244t195.5 157.5t241.5 56q127 0 234.5 -54t186.5 -151.5t124 -231.5t45 -294q0 -172 -44 -312t-125 -239.5t-194.5 -154t-250.5 -54.5q-133 0 -241.5 51.5t-186.5 146.5t-120 227t-42 296zM350 692q0 -260 100.5 -392t268.5 -132 q178 0 283.5 140.5t105.5 422.5q0 129 -29.5 228.5t-80 168t-119 104.5t-144.5 36q-80 0 -149.5 -39t-121.5 -113t-83 -180.5t-31 -243.5z" />
<glyph unicode="1" horiz-adv-x="735" d="M78 1210q39 12 82 36t83 53.5t72.5 64.5t51.5 70h165v-1434h-223v1122q-53 -41 -104 -67.5t-99 -40.5z" />
<glyph unicode="2" horiz-adv-x="1077" d="M104 1262q16 31 52.5 65.5t89.5 65t120.5 50t147.5 19.5q113 0 189.5 -35.5t122.5 -92t65.5 -126t19.5 -137.5q0 -74 -22.5 -155.5t-72.5 -185t-130 -232.5t-192 -295h471v-203h-859q125 178 217.5 315.5t158 242t107.5 179t65.5 132t32.5 98.5t9 77q0 106 -62.5 165 t-168.5 59q-182 0 -334 -201z" />
<glyph unicode="3" horiz-adv-x="1116" d="M80 80l53 203q174 -109 332 -109q61 0 115.5 14.5t94.5 45t62.5 79.5t22.5 121q0 57 -15.5 105.5t-52.5 83t-96 53t-147 18.5h-162l20 172h82q172 0 245 56.5t73 162.5q0 184 -232 185q-174 0 -268 -78l-37 176q35 35 121 64.5t209 29.5q131 0 216 -34.5t134 -90 t68.5 -121t19.5 -126.5q0 -174 -170 -295q221 -90 221 -355q0 -113 -42 -199.5t-113.5 -147t-167 -91.5t-199.5 -31q-59 0 -121.5 11.5t-117 29t-94.5 36t-54 32.5z" />
<glyph unicode="4" horiz-adv-x="1161" d="M27 389l659 1045h182v-856h174v-189h-174v-389h-225v389h-616zM348 578h295v489z" />
<glyph unicode="5" horiz-adv-x="1107" d="M104 63l52 201q137 -92 299 -92q66 0 124 21.5t101 60.5t68.5 94t25.5 123q0 119 -92 179.5t-311 60.5h-191l88 723h654l-23 -203h-461l-39 -330q319 -2 460.5 -103.5t141.5 -318.5q0 -115 -44 -208t-118.5 -159.5t-172.5 -103.5t-207 -37q-51 0 -109.5 9.5t-110 23.5 t-89 30.5t-46.5 28.5z" />
<glyph unicode="6" horiz-adv-x="1159" d="M125 500q0 197 64.5 367.5t158.5 296.5t200.5 198t190.5 72l148 -86q-68 -23 -148 -72t-153.5 -123t-133 -175t-85.5 -228q86 111 270 110q92 0 172 -26.5t138.5 -79t91 -130t32.5 -178.5q0 -98 -36 -185t-101.5 -151.5t-157.5 -101.5t-203 -37q-102 0 -184 31 t-141.5 95.5t-91 164.5t-31.5 238zM346 414q0 -61 20.5 -107.5t54.5 -78t80 -48t97 -16.5q59 0 107.5 22.5t82 60.5t52 88t18.5 107q0 47 -13.5 90t-43 75t-74.5 51.5t-106 19.5q-59 0 -109.5 -18.5t-87.5 -53.5t-57.5 -83t-20.5 -109z" />
<glyph unicode="7" horiz-adv-x="1034" d="M82 1231v203h932l-613 -1434h-229l526 1231h-616z" />
<glyph unicode="8" horiz-adv-x="1241" d="M119 385q0 233 256 385q-174 137 -174 334q0 74 23.5 139.5t74.5 113.5t133 75.5t197 27.5q109 0 186.5 -24.5t128.5 -68.5t74.5 -103.5t23.5 -128.5q0 -53 -11 -97.5t-37.5 -84.5t-67.5 -78.5t-101 -81.5q297 -113 297 -383q0 -82 -32.5 -161t-98 -140.5t-163 -99.5 t-226.5 -38q-121 0 -211 33t-150.5 90.5t-91 132t-30.5 158.5zM344 391q0 -113 69.5 -172t198.5 -59q125 0 205 68.5t80 179.5q0 106 -76.5 178.5t-195.5 101.5q-123 -23 -202 -98.5t-79 -198.5zM397 1087q0 -70 53.5 -128t157.5 -95q117 33 170 97.5t53 144.5q0 78 -53 124 t-160 46q-106 0 -163.5 -51.5t-57.5 -137.5z" />
<glyph unicode="9" horiz-adv-x="1163" d="M90 983q0 100 36 188.5t101.5 153t157.5 101t203 36.5q98 0 180 -29.5t141.5 -94t93 -164t33.5 -238.5q0 -209 -60.5 -382t-150.5 -296t-195.5 -190.5t-195.5 -67.5l-155 86q72 25 156.5 74t160.5 122.5t131 172t70 219.5q-18 -25 -50 -44.5t-69 -31.5t-77 -19.5 t-77 -7.5q-203 0 -318.5 103.5t-115.5 308.5zM309 993q0 -49 13.5 -92t42 -74.5t74 -51t106.5 -19.5q57 0 107 18.5t87 53t57.5 84t20.5 110.5t-19.5 107.5t-53 78t-80 47t-97.5 15.5q-59 0 -107 -21.5t-82 -59.5t-51.5 -88t-17.5 -108z" />
<glyph unicode=":" horiz-adv-x="438" d="M115 0v207h209v-207h-209zM115 694v207h209v-207h-209z" />
<glyph unicode=";" horiz-adv-x="460" d="M115 -197l69 179l-67 18v207h221v-209l-174 -221zM117 694v207h229v-207h-229z" />
<glyph unicode="&#x3c;" horiz-adv-x="851" d="M61 582l441 422h231l-440 -422l440 -422h-231z" />
<glyph unicode="=" horiz-adv-x="1024" d="M133 322v167h758v-167h-758zM133 645v168h758v-168h-758z" />
<glyph unicode="&#x3e;" horiz-adv-x="854" d="M121 160l440 422l-440 422h231l441 -422l-441 -422h-231z" />
<glyph unicode="?" horiz-adv-x="901" d="M59 1397q41 63 130.5 101t195.5 38q98 0 177 -35t135.5 -90t86 -123.5t29.5 -136.5q0 -63 -24.5 -123.5t-62.5 -118t-82 -114t-82 -112.5t-62.5 -112.5t-24.5 -115.5v-45h-139q-4 45 -5 70.5t-1 27.5q0 96 45 174t99 149.5t99 147.5t45 168q0 113 -70.5 172t-170.5 59 q-43 0 -85 -12t-77 -31.5t-61.5 -44t-40.5 -49.5zM303 0v203h209v-203h-209z" />
<glyph unicode="@" horiz-adv-x="1472" d="M96 348q0 164 61.5 307.5t168 249t246 167t296.5 61.5q119 0 214.5 -37t161 -104.5t100 -164t34.5 -215.5q0 -53 -5 -110.5t-21.5 -109.5t-50 -95t-91.5 -70q-80 -35 -135 -34q-76 0 -76 108q0 27 10.5 76t27 111.5t36 136t39.5 151.5q-104 109 -250 109 q-94 0 -187 -51.5t-167 -132t-120 -184t-46 -208.5q0 -98 45 -162.5t150 -64.5q43 0 94 17.5t100 49t93 74.5t73 96q0 -2 -1 -11t-2 -19t-2 -20.5t-1 -12.5q0 -66 26.5 -118t86.5 -52q31 0 67.5 11.5t73.5 29.5t71.5 42t59.5 48q-49 -88 -121 -160.5t-160 -125t-187 -81 t-204 -28.5q-117 0 -211 36t-160.5 103.5t-101.5 165.5t-35 221zM506 348q0 80 34.5 155t89 131t117 91t117.5 35q96 0 111 -45q-12 -80 -54 -167t-97.5 -161t-116 -122t-111.5 -48q-45 0 -67.5 37t-22.5 94z" />
<glyph unicode="A" horiz-adv-x="1269" d="M12 0l512 1434h219l514 -1434h-229l-131 373h-524l-133 -373h-228zM444 575h381l-190 537z" />
<glyph unicode="B" horiz-adv-x="1243" d="M162 0v1434h346q133 0 234.5 -14.5t170 -54.5t103.5 -109.5t35 -180.5q0 -102 -23.5 -171.5t-95.5 -139.5q131 -49 187.5 -130t56.5 -210q0 -424 -502 -424h-512zM379 193h221q178 0 264 45t86 182q0 237 -278 237h-293v-464zM379 844h248q39 0 75.5 6t66.5 27.5 t48.5 62.5t18.5 111q0 117 -63.5 154.5t-192.5 37.5h-201v-399z" />
<glyph unicode="C" horiz-adv-x="1257" d="M76 717q0 166 52 303t147.5 235.5t225.5 152.5t287 54q227 0 402 -84l-23 -204q-231 86 -379 86q-113 0 -200.5 -40t-149 -113t-93.5 -172t-32 -218t32 -218.5t93.5 -172t150.5 -112.5t204 -40q147 0 374 84l23 -205q-178 -82 -399 -82q-158 0 -289 54.5t-225.5 152.5 t-147.5 235.5t-53 303.5z" />
<glyph unicode="D" horiz-adv-x="1484" d="M162 0v1434h532q156 0 287 -49.5t225 -141.5t146.5 -225t52.5 -301q0 -166 -52.5 -299t-145.5 -226.5t-224 -142.5t-289 -49h-532zM379 203h315q229 0 351 137t122 377t-122 377t-351 137h-315v-1028z" />
<glyph unicode="E" horiz-adv-x="1144" d="M162 0v1434h889v-203h-670v-381h528v-203h-528v-444h690v-203h-909z" />
<glyph unicode="F" horiz-adv-x="1071" d="M162 0v1434h876v-203h-659v-381h510v-203h-510v-647h-217z" />
<glyph unicode="G" horiz-adv-x="1372" d="M78 719q0 168 53 305t148.5 234.5t226.5 150.5t289 53q246 0 428 -82l-23 -198q-209 78 -399 78q-119 0 -210 -40t-152.5 -112t-92.5 -171t-31 -218q0 -123 33 -223.5t97.5 -172t160.5 -110.5t221 -39q129 0 226 33v321h-203v191h420v-639q-39 -23 -99.5 -42.5 t-128 -33.5t-136.5 -23.5t-126 -9.5q-152 0 -280.5 54.5t-223 152.5t-146.5 235.5t-52 305.5z" />
<glyph unicode="H" horiz-adv-x="1523" d="M162 0v1434h217v-580h766v580h217v-1434h-217v645h-766v-645h-217z" />
<glyph unicode="I" horiz-adv-x="542" d="M162 0v1434h219v-1434h-219z" />
<glyph unicode="J" horiz-adv-x="540" d="M-25 -209h23q94 0 129 47t35 160v1436h217v-1493q0 -293 -336 -293h-47z" />
<glyph unicode="K" horiz-adv-x="1212" d="M162 0v1434h217v-1434h-217zM449 760l520 674h235l-520 -674l520 -760h-235z" />
<glyph unicode="L" horiz-adv-x="1026" d="M162 0v1434h217v-1231h635v-203h-852z" />
<glyph unicode="M" horiz-adv-x="1675" d="M94 0l195 1434h182l367 -691l364 691h184l195 -1434h-229l-131 1040l-381 -714l-387 714l-131 -1040h-228z" />
<glyph unicode="N" horiz-adv-x="1443" d="M162 0v1434h227l674 -1022v1022h219v-1434h-182l-721 1081v-1081h-217z" />
<glyph unicode="O" horiz-adv-x="1568" d="M78 717q0 168 52 305t146.5 235.5t224.5 151.5t283 53q156 0 285 -54t223 -152.5t146.5 -235.5t52.5 -303q0 -336 -199 -541q-197 -205 -508 -205q-154 0 -283.5 53.5t-224 151.5t-146.5 235.5t-52 305.5zM315 717q0 -121 31 -220.5t91.5 -171t147.5 -111.5t199 -40 q113 0 201 41t147.5 112.5t90 172t30.5 217.5q0 239 -123 391q-121 152 -346 152q-113 0 -199.5 -40t-147 -113t-91.5 -172t-31 -218z" />
<glyph unicode="P" horiz-adv-x="1189" d="M162 0v1434h442q115 0 213 -15.5t171 -63.5t114 -136.5t41 -233.5q0 -139 -43 -234.5t-110.5 -152.5t-149.5 -81.5t-160 -24.5h-293v-492h-225zM387 690h256q147 0 211 70.5t64 218.5q0 74 -15.5 124t-52.5 80.5t-97.5 45t-148.5 14.5h-217v-553z" />
<glyph unicode="Q" horiz-adv-x="1568" d="M78 717q0 168 52 305t146.5 235.5t224.5 151.5t283 53q156 0 285 -54t223 -152.5t146.5 -235.5t52.5 -303q0 -264 -143 -475l125 -103l-119 -141l-137 113q-193 -139 -433 -140q-154 0 -283.5 53.5t-224 151.5t-146.5 235.5t-52 305.5zM315 717q0 -121 30 -220.5 t89.5 -171t147 -111.5t202.5 -40q172 0 273 70l-197 162l119 145l203 -176q84 139 84 342q0 119 -33 218t-94.5 171t-150.5 113t-204 41t-201.5 -40t-146 -113t-90.5 -172t-31 -218z" />
<glyph unicode="R" horiz-adv-x="1249" d="M162 0v1434h485q236 0 365 -96.5t129 -321.5q0 -274 -256 -408l332 -608h-232l-311 551h-289v-551h-223zM385 758h270q119 0 188.5 61.5t69.5 192.5q0 243 -288 243h-240v-497z" />
<glyph unicode="S" horiz-adv-x="1196" d="M80 1022q0 78 25.5 156.5t86 141t160 102.5t246.5 40q63 0 131 -9t129.5 -23.5t111.5 -33t81 -36.5l-23 -227q-250 129 -414 129q-57 0 -111 -11.5t-96 -34t-68 -59.5t-26 -86q0 -63 33 -99t96.5 -63.5t158.5 -56.5t220 -80q55 -23 110.5 -51.5t99.5 -73.5t73 -110.5 t29 -159.5q0 -66 -20.5 -137.5t-81 -131t-170.5 -98.5t-286 -39q-301 0 -471 97l27 251q182 -145 449 -145q141 0 227 47t86 152q0 47 -20.5 84t-54.5 65.5t-78 50t-93 37.5l-227 76l-101 41q-39 16 -80.5 42t-77.5 62.5t-58.5 84t-22.5 106.5z" />
<glyph unicode="T" horiz-adv-x="1122" d="M39 1231v203h1044v-203h-413v-1231h-219v1231h-412z" />
<glyph unicode="U" horiz-adv-x="1478" d="M145 610v824h217v-732q0 -109 15.5 -205t56.5 -167.5t115 -113.5t190 -42q117 0 191 43t114.5 114.5t56 168t15.5 202.5v732h217v-824q0 -301 -149.5 -470t-444.5 -169t-444.5 169t-149.5 470z" />
<glyph unicode="V" horiz-adv-x="1329" d="M6 1434h227l433 -1168l428 1168h227l-535 -1434h-243z" />
<glyph unicode="W" horiz-adv-x="1982" d="M27 1434h227l307 -1145l346 1126h178l353 -1116l301 1135h227l-420 -1434h-221l-332 1100l-338 -1100h-227z" />
<glyph unicode="X" horiz-adv-x="1247" d="M12 0l490 715l-482 719h252l357 -541l364 541h238l-498 -693l510 -741h-239l-392 565l-360 -565h-240z" />
<glyph unicode="Y" horiz-adv-x="1181" d="M-10 1434h231l369 -586l368 586h232l-488 -781v-653h-223v653z" />
<glyph unicode="Z" horiz-adv-x="1126" d="M18 0l732 1231h-639v203h999l-733 -1231h641v-203h-1000z" />
<glyph unicode="[" horiz-adv-x="675" d="M141 -276v1812h527v-168h-336v-1477h336v-167h-527z" />
<glyph unicode="\" horiz-adv-x="1089" d="M68 1434h219l766 -1608h-219z" />
<glyph unicode="]" horiz-adv-x="675" d="M8 -109h336v1477h-336v168h527v-1812h-527v167z" />
<glyph unicode="^" horiz-adv-x="1046" d="M100 868v246l422 440l422 -440v-246l-422 441z" />
<glyph unicode="_" horiz-adv-x="1155" d="M4 -74h1147v-182h-1147v182z" />
<glyph unicode="`" horiz-adv-x="620" d="M119 1341v170l383 -190v-109z" />
<glyph unicode="a" horiz-adv-x="997" d="M49 276q0 102 57.5 171t145.5 111t191.5 59.5t195.5 19.5q-2 121 -50 165t-157 44q-131 0 -270 -84l-25 168q152 100 352 100q188 0 273.5 -104.5t85.5 -354.5v-229q0 -57 4 -95t15.5 -59.5t32 -31t54.5 -9.5h25l-27 -167h-41q-111 0 -163 32.5t-86 104.5 q-117 -137 -310 -137q-68 0 -124 21.5t-96 60t-61.5 93t-21.5 121.5zM264 287q0 -143 150 -144q135 0 227 115v238q-377 -14 -377 -209z" />
<glyph unicode="b" horiz-adv-x="1150" d="M123 0v1536h209v-614q101 108 283 108h3q109 0 196 -42t147.5 -114.5t93 -168t32.5 -201.5q0 -109 -34.5 -205t-97 -167t-150 -111.5t-189.5 -40.5q-76 0 -155.5 32.5t-132.5 89.5l-17 -102h-188zM319 504q0 -166 78 -255t201 -89q63 0 114.5 25.5t87.5 71.5t55 109.5 t19 137.5q0 76 -19 140.5t-55 109.5t-87.5 70.5t-114.5 25.5q-123 0 -201 -90t-78 -256z" />
<glyph unicode="c" horiz-adv-x="925" d="M63 506q0 113 33 209t96.5 166.5t155.5 109.5t213 39q195 0 309 -65l-26 -185q-125 70 -262 70q-150 0 -228 -91t-78 -253t78 -255t228 -93q141 0 262 69l24 -172q-119 -75 -305 -75q-119 0 -212 39.5t-156.5 110.5t-97.5 167t-34 209z" />
<glyph unicode="d" horiz-adv-x="1148" d="M63 504q0 109 33 204t94.5 166.5t148.5 113.5t196 42q180 0 284 -106v612h207v-1536h-188l-17 102q-53 -57 -132 -89.5t-154 -32.5q-104 0 -190.5 40.5t-149 111.5t-97.5 166t-35 206zM276 504q0 -74 19.5 -137.5t54.5 -109.5t86 -71.5t113 -25.5q123 0 205 87t82 253 q0 80 -22.5 145.5t-61.5 110.5t-91.5 69.5t-111.5 24.5q-61 0 -112.5 -25.5t-86.5 -70.5t-54.5 -109.5t-19.5 -140.5z" />
<glyph unicode="e" d="M63 510q0 109 35 204t98.5 165.5t154.5 110.5t204 40q96 0 177 -30.5t139.5 -87t90 -136.5t31.5 -178q0 -31 -3 -58.5t-7 -54.5h-704q33 -325 350 -325h2q158 0 297 67l20 -170q-164 -77 -334 -77h-4q-129 0 -231.5 40.5t-172 111.5t-106.5 168t-37 210zM291 629h489 q0 100 -56 160.5t-169 60.5q-213 0 -264 -221z" />
<glyph unicode="f" horiz-adv-x="686" d="M25 844l22 166h141v252q0 119 60.5 196.5t177.5 77.5q127 0 217 -23l-27 -174q-61 16 -118 17q-33 0 -52.5 -7.5t-31 -30t-14.5 -65.5t-3 -114v-129h254v-166h-254v-844h-209v844h-163z" />
<glyph unicode="g" horiz-adv-x="1021" d="M53 -209q0 158 174 227q-98 51 -98 134q0 94 113 145q-168 123 -168 330q0 86 28.5 160.5t82 128t129 84t171.5 30.5q141 0 248 -69q102 53 236 53h32l-20 -135h-61q-18 0 -43 -3.5t-56 -7.5q82 -100 82 -235q0 -80 -27.5 -152.5t-80 -128t-128 -88.5t-171.5 -33 q-63 0 -134 17q-38 -20 -38 -49q0 -22 11 -34.5t44 -22t90 -19.5t147 -25q68 -12 138.5 -29.5t130 -49t98.5 -83t43 -129.5q0 -68 -34 -126t-98.5 -101t-157.5 -67.5t-210 -24.5t-206 24.5t-148 66.5t-89 96.5t-30 115.5zM242 -199q0 -70 75.5 -113.5t210.5 -43.5t216 45 t81 108q0 105 -268 148q-25 0 -64.5 6t-97.5 16q-68 -23 -110.5 -67.5t-42.5 -98.5zM268 631q0 -113 58.5 -177.5t162.5 -64.5t162 67.5t58 178.5t-59 172t-163 61t-161.5 -65.5t-57.5 -171.5z" />
<glyph unicode="h" horiz-adv-x="1116" d="M123 0v1536h209v-614q101 108 261 108h3q410 0 410 -489v-541h-209v541q0 168 -51.5 238.5t-176.5 70.5q-162 0 -237 -117v-733h-209z" />
<glyph unicode="i" horiz-adv-x="454" d="M123 0v1010h209v-1010h-209zM123 1212v222h209v-222h-209z" />
<glyph unicode="j" horiz-adv-x="454" d="M-16 -332q45 2 71.5 10.5t42 28t20.5 55t5 97.5v1151h209v-1231q0 -125 -72.5 -191.5t-183.5 -76.5l-72 -7zM123 1212v222h209v-222h-209z" />
<glyph unicode="k" horiz-adv-x="946" d="M123 0v1536h209v-967l354 441h246l-402 -471l408 -539h-246l-360 492v-492h-209z" />
<glyph unicode="l" horiz-adv-x="501" d="M121 229v1307h207v-1200q0 -63 5 -100t20.5 -56.5t45 -26t78.5 -6.5l-26 -167h-70q-133 0 -196.5 71.5t-63.5 177.5z" />
<glyph unicode="m" horiz-adv-x="1787" d="M123 0v1010h166l18 -97q131 117 287 117q225 0 332 -186q98 186 356 186q197 0 295 -114.5t98 -337.5v-578h-207v575q0 143 -52 209t-169 66q-244 0 -243 -250v-600h-209v553q0 168 -55.5 232.5t-168.5 64.5q-168 0 -239 -115v-735h-209z" />
<glyph unicode="n" horiz-adv-x="1140" d="M123 0v1010h176l14 -90q128 110 292 110h3q420 0 420 -477v-553h-209v553q0 156 -56 226.5t-185 70.5q-176 0 -246 -117v-733h-209z" />
<glyph unicode="o" horiz-adv-x="1136" d="M63 504q0 111 35 207t100.5 166.5t159 111.5t209.5 41q117 0 210 -41t160 -112.5t101.5 -167t34.5 -205.5q0 -111 -34.5 -206t-100.5 -166t-160 -111.5t-211 -40.5q-115 0 -208 39.5t-158.5 110.5t-101.5 166t-36 208zM276 504q0 -162 75 -253t216 -91t217 92t76 252 t-78 254q-78 92 -215 92q-139 0 -215 -92t-76 -254z" />
<glyph unicode="p" horiz-adv-x="1148" d="M123 -496v1506h170l20 -113q66 68 135.5 100.5t172.5 32.5q109 0 194.5 -42t146 -114.5t92 -168t31.5 -201.5q0 -113 -30.5 -208t-90 -166t-146.5 -110.5t-200 -39.5q-76 0 -155.5 31.5t-132.5 88.5v-596h-207zM319 504q0 -166 79 -255t202 -89q61 0 112.5 25.5 t86.5 71.5t54 109.5t19 137.5q0 154 -71.5 250t-200.5 96q-61 0 -112.5 -23.5t-88.5 -68.5t-58.5 -109.5t-21.5 -144.5z" />
<glyph unicode="q" horiz-adv-x="1148" d="M63 504q0 106 32 201.5t92.5 168t146.5 114.5t194 42q102 0 172 -32.5t136 -100.5l20 113h170v-1506h-207v596q-53 -57 -134 -88.5t-157 -31.5q-111 0 -196.5 38.5t-146 108.5t-91.5 166t-31 211zM276 504q0 -74 19.5 -137.5t54.5 -109.5t86 -71.5t113 -25.5 q123 0 201.5 89t78.5 255q0 80 -21.5 144.5t-58 109.5t-88 68.5t-112.5 23.5q-129 0 -201 -96.5t-72 -249.5z" />
<glyph unicode="r" horiz-adv-x="671" d="M123 0v1010h182l17 -146q160 176 317 176h33l-43 -215h-74q-31 0 -63.5 -10t-62.5 -26.5t-53.5 -38t-35.5 -45.5v-705h-217z" />
<glyph unicode="s" horiz-adv-x="858" d="M68 63l22 191q45 -37 132 -69.5t181 -32.5q92 0 138.5 32.5t46.5 87.5q0 59 -35 87t-91 46.5t-128 40t-146 68.5q-53 35 -78.5 84t-25.5 123q0 63 22.5 120.5t68.5 98.5t116.5 65.5t169.5 24.5q164 0 289 -69l-23 -185q-115 96 -258 96q-86 0 -136 -31.5t-50 -97.5 q0 -37 21.5 -68.5t86.5 -51.5l125 -39q49 -14 99.5 -36t91.5 -56.5t67.5 -87t26.5 -125.5q0 -49 -15.5 -101.5t-58.5 -96.5t-118.5 -72.5t-196.5 -28.5q-219 0 -344 83z" />
<glyph unicode="t" horiz-adv-x="698" d="M35 844l18 166h146v241l209 21v-262h249v-166h-249v-506q0 -68 4 -105.5t23.5 -57t57 -24t105.5 -4.5h55l-16 -167h-172q-135 0 -200.5 72.5t-65.5 176.5v615h-164z" />
<glyph unicode="u" horiz-adv-x="1093" d="M113 438v572h209v-539q0 -160 53 -235.5t170 -75.5q143 0 217 104v746h209v-1010h-191l-14 94q-95 -114 -257 -114h-3q-393 0 -393 458z" />
<glyph unicode="v" horiz-adv-x="1005" d="M12 1010h221l271 -768l268 768h221l-385 -1010h-209z" />
<glyph unicode="w" horiz-adv-x="1480" d="M20 1010h228l186 -770l207 743h197l206 -743l189 770h227l-301 -1010h-209l-211 717l-211 -717h-209z" />
<glyph unicode="x" horiz-adv-x="980" d="M20 0l345 504l-338 506h239l230 -359l211 359h245l-329 -496l338 -514h-240l-232 358l-229 -358h-240z" />
<glyph unicode="y" d="M8 1010h232l297 -715l276 715h231l-624 -1506h-221l229 549z" />
<glyph unicode="z" horiz-adv-x="964" d="M45 0l506 840h-485v170h852l-506 -838h491v-172h-858z" />
<glyph unicode="{" horiz-adv-x="626" d="M35 629q84 51 118.5 118.5t34.5 182.5q0 18 -2 60t-5 88t-5 86t-2 55q0 76 23.5 134t76 98t136.5 61.5t204 23.5v-170q-94 -2 -149 -14.5t-83 -47t-35 -98t-7 -168.5q0 -12 1 -35.5t2 -51t2 -51t1 -36.5q0 -37 -6 -68.5t-22.5 -59t-45 -54.5t-73.5 -53 q90 -51 118.5 -99.5t28.5 -117.5q0 -10 -1 -36t-2 -54.5t-2 -56t-1 -44.5q0 -106 9 -170.5t38 -99.5t83 -46t144 -14v-167q-238 4 -339 81.5t-101 233.5q0 14 2 54t5 85t5 88t2 64q0 111 -33.5 179.5t-119.5 119.5z" />
<glyph unicode="|" horiz-adv-x="473" d="M141 -428v1964h191v-1964h-191z" />
<glyph unicode="}" horiz-adv-x="626" d="M12 -109q100 2 156.5 18.5t82 54.5t31 100.5t5.5 156.5q0 16 -1 44t-2 56.5t-2 54t-1 36.5q0 70 28.5 118t118.5 99q-45 27 -73.5 53.5t-45 54t-22.5 59t-6 68.5q0 12 1 36t2 51.5t2 51t1 35.5q0 111 -10.5 175.5t-39 98.5t-83 43t-142.5 11v170q121 -2 205 -23.5 t136.5 -61.5t76 -98.5t23.5 -133.5q0 -14 -2 -54.5t-5.5 -86.5t-5.5 -88t-2 -60q0 -115 35 -182.5t119 -118.5q-86 -51 -120 -120t-34 -179q0 -20 2 -63.5t5.5 -88.5t5.5 -85t2 -54q0 -156 -101.5 -233.5t-339.5 -81.5v167z" />
<glyph unicode="~" horiz-adv-x="942" d="M106 389q18 94 86 143.5t142 49.5q20 0 61 -14.5t83 -33t78 -33t48 -14.5q90 0 133 103l101 -27q-20 -88 -81 -143t-147 -55q-18 0 -58 15t-82 33.5t-78 34t-48 15.5q-98 0 -129 -98z" />
<glyph unicode="&#xa1;" horiz-adv-x="491" d="M119 -512l55 1126h143l56 -1126h-254zM145 821v203h201v-203h-201z" />
<glyph unicode="&#xa2;" horiz-adv-x="974" d="M70 709q0 100 27.5 191t81.5 162t134 118t183 61l-35 291h196l-32 -289q88 -4 144 -21.5t103 -45.5l-18 -181q-61 35 -124.5 54.5t-129.5 19.5q-78 0 -136 -27.5t-97 -75.5t-58.5 -114t-19.5 -141q0 -160 82 -257.5t233 -97.5q125 0 250 72l18 -180q-37 -25 -88 -43.5 t-159 -24.5l32 -243h-196l35 247q-96 12 -175 56.5t-134.5 113t-86 158.5t-30.5 197z" />
<glyph unicode="&#xa3;" horiz-adv-x="1044" d="M70 0q55 72 93 142.5t64.5 146.5t42 158.5t25.5 181.5h-191l37 188h166v221q0 80 13.5 155t53.5 133t110.5 94t185.5 36q135 0 218 -48t111 -134l-139 -121q-53 115 -168 115q-61 0 -95 -16.5t-50.5 -50.5t-20.5 -86t-4 -122v-176h387l-37 -188h-362q-4 -70 -9 -122 t-15.5 -98.5t-26 -94.5t-41.5 -111h516v-203h-864z" />
<glyph unicode="&#xa4;" horiz-adv-x="1284" d="M123 121l153 205q-152 164 -151 387q0 223 154 387l-156 205l80 67l157 -207q139 72 281 72q145 0 281 -74l159 209l80 -67l-155 -207q152 -164 151 -385q0 -221 -153 -389l157 -203l-82 -68l-157 207q-66 -37 -137.5 -54.5t-143.5 -17.5t-143.5 17.5t-137.5 54.5 l-157 -207zM334 713q0 -80 20.5 -147.5t59.5 -117t96 -77t131 -27.5t131 28.5t96 78t59.5 117t20.5 145.5q0 164 -82 264q-80 104 -225 104q-72 0 -128 -26.5t-96 -75.5t-61.5 -116.5t-21.5 -149.5z" />
<glyph unicode="&#xa5;" horiz-adv-x="1398" d="M57 1434h219l424 -607l424 607h219l-520 -772h344l-47 -121h-311v-127h358l-47 -121h-311v-293h-219v293h-354l45 121h309v127h-354l45 121h297z" />
<glyph unicode="&#xa6;" horiz-adv-x="466" d="M143 352h181v-782h-181v782zM143 614v922h181v-922h-181z" />
<glyph unicode="&#xa7;" horiz-adv-x="937" d="M78 678q0 231 207 303q-117 86 -117 219q0 70 20.5 131.5t61.5 107.5t105.5 71.5t154.5 25.5q88 0 170 -24.5t129 -57.5l-25 -160q-137 94 -264 95q-86 0 -140 -43t-54 -115q0 -61 40 -97t99 -63t128 -52.5t128 -66.5t99 -104.5t40 -167.5q0 -211 -201 -297 q70 -53 90.5 -103.5t20.5 -129.5q0 -63 -20.5 -122t-62.5 -103t-107.5 -70.5t-155.5 -26.5q-43 0 -87 6t-84 17.5t-71.5 25.5t-50.5 31l23 160q139 -90 268 -91q92 0 146.5 37t54.5 115q0 68 -40 104.5t-101.5 62.5t-131 48.5t-131 61t-101.5 102t-40 170.5zM236 709 q0 -162 311 -240q61 12 104 66.5t43 119.5q1 154 -280 222q-27 -2 -58.5 -13.5t-58.5 -32t-44 -51t-17 -71.5z" />
<glyph unicode="&#xa8;" horiz-adv-x="864" d="M178 1225v209h162v-209h-162zM524 1225v209h162v-209h-162z" />
<glyph unicode="&#xa9;" horiz-adv-x="1435" d="M82 748q0 152 47 275.5t132 211.5t202 136t256 48t256 -48t201 -137t131 -213t47 -273q0 -150 -47 -273t-131 -212t-201 -138t-256 -49t-257 49t-202 137t-131 212t-47 274zM207 748q0 -123 32.5 -226.5t97 -178.5t160 -117t222.5 -42q125 0 220 42t159.5 117t97.5 178.5 t33 226.5t-33 226t-97.5 177t-159.5 116t-220 42q-127 0 -222.5 -42t-160 -116t-97 -177.5t-32.5 -225.5zM410 743q0 160 90 253.5t237 93.5q100 0 193 -41l-17 -142q-104 43 -176 43q-86 0 -130 -56t-44 -151q0 -92 44 -149t130 -57q78 0 176 45l17 -140q-80 -43 -193 -43 q-72 0 -132 25t-103 70t-67.5 108.5t-24.5 140.5z" />
<glyph unicode="&#xaa;" horiz-adv-x="727" d="M68 1067q0 61 37.5 100t92 62.5t112 34t96.5 12.5q-8 70 -101 70q-63 0 -174 -37l-10 137q113 43 231 43q104 0 167 -49t63 -154v-182q0 -47 9 -60.5t36 -13.5h24l-12 -141h-78q-37 0 -74.5 16.5t-54.5 38.5q-59 -55 -190 -55q-74 0 -124 46t-50 132zM252 1073 q0 -57 76 -57q45 0 80 18v129q-18 -2 -45 -8t-51.5 -18.5t-42 -27.5t-17.5 -36z" />
<glyph unicode="&#xab;" horiz-adv-x="1185" d="M29 582l305 422h237l-303 -422l303 -422h-237zM561 582l305 422h240l-305 -422l305 -422h-240z" />
<glyph unicode="&#xac;" horiz-adv-x="1216" d="M131 684v147h942v-522h-139v375h-803z" />
<glyph unicode="&#xad;" horiz-adv-x="864" d="M115 471v193h635v-193h-635z" />
<glyph unicode="&#xae;" horiz-adv-x="1435" d="M82 748q0 152 47 275.5t132 211.5t202 136t256 48t256 -48t201 -137t131 -213t47 -273q0 -150 -47 -273t-131 -212t-201 -138t-256 -49t-257 49t-202 137t-131 212t-47 274zM205 748q0 -123 33.5 -226.5t98 -179.5t161 -118t221.5 -42t220 42t159.5 118t98.5 179.5 t34 226.5t-34 225t-98.5 178t-159.5 118t-220 42q-127 0 -222.5 -42t-161 -117t-98 -178.5t-32.5 -225.5zM475 426v666h248q111 0 171 -47.5t60 -163.5q0 -109 -106 -179l147 -276h-149l-131 236h-94v-236h-146zM621 793h69q113 0 113 92q0 45 -24 66.5t-85 21.5h-73v-180z " />
<glyph unicode="&#xb0;" horiz-adv-x="677" d="M68 1266q0 59 19 110t54 89t85 59.5t112 21.5q61 0 112.5 -21.5t86 -59.5t54 -89t19.5 -110t-19.5 -110.5t-54 -88.5t-86 -58.5t-112.5 -21.5t-111.5 21.5t-85.5 58.5t-54 88t-19 111zM174 1266q0 -86 44 -146.5t120 -60.5q80 0 122 59.5t42 147.5t-43 148.5t-121 60.5 q-76 0 -120 -60.5t-44 -148.5z" />
<glyph unicode="&#xb1;" horiz-adv-x="1011" d="M127 78v155h758v-155h-758zM127 657v156h303v277h152v-277h303v-156h-303v-282h-152v282h-303z" />
<glyph unicode="&#xb2;" horiz-adv-x="628" d="M47 655q115 154 181.5 253.5t99 160.5t41 93t8.5 50q0 47 -26.5 75t-76.5 28q-104 0 -190 -129l-21 147q23 43 87.5 78t156.5 35q59 0 102.5 -17.5t71 -46t41 -65.5t13.5 -78q0 -133 -201 -420h227v-164h-514z" />
<glyph unicode="&#xb3;" horiz-adv-x="632" d="M39 700l41 152q6 -10 24.5 -18.5t43 -15.5t52 -11t52.5 -4q152 0 151 84q0 59 -27.5 93t-103.5 34h-114l12 125h59q139 0 140 86q0 84 -113 84q-106 0 -139 -31l-25 117q20 20 73.5 35.5t110.5 15.5q74 0 123.5 -17.5t80 -47t44 -67.5t13.5 -79q0 -109 -66 -150 q96 -78 96 -188q0 -61 -24.5 -109.5t-66.5 -81t-98.5 -50t-117.5 -17.5q-33 0 -68.5 6t-66.5 15.5t-54.5 19.5t-31.5 20z" />
<glyph unicode="&#xb4;" horiz-adv-x="620" d="M119 1212v109l383 190v-170z" />
<glyph unicode="&#xb5;" horiz-adv-x="1232" d="M152 -496v1506h206v-535q0 -164 50.5 -239.5t183.5 -75.5q129 0 221 106v744h205v-660q0 -115 18.5 -159t75.5 -44h41l-31 -167h-65q-162 0 -219 135q-127 -135 -269 -135q-119 0 -213 61v-537h-204z" />
<glyph unicode="&#xb6;" horiz-adv-x="1275" d="M68 965q0 94 38.5 179t113.5 149.5t184.5 102.5t252.5 38h531v-166h-150v-1268h-127v1268h-178v-1268h-104v487q-137 8 -242.5 49.5t-176.5 106t-106.5 147t-35.5 175.5z" />
<glyph unicode="&#xb7;" horiz-adv-x="483" d="M115 436v266h254v-266h-254z" />
<glyph unicode="&#xb8;" horiz-adv-x="620" d="M285 -395l141 272l162 14l-191 -272z" />
<glyph unicode="&#xb9;" horiz-adv-x="448" d="M51 1309q16 2 39 14t44.5 29.5t37.5 38t23 39.5h131v-775h-168v543l-23 -6q-16 -4 -35.5 -9t-38.5 -7z" />
<glyph unicode="&#xba;" horiz-adv-x="765" d="M66 1190q0 63 22.5 117.5t64.5 94.5t100 63.5t130 23.5t130 -23.5t100 -63.5t64.5 -94.5t22.5 -117.5q0 -125 -86 -213t-231 -88q-72 0 -131 23.5t-100 64.5t-63.5 96t-22.5 117zM244 1190q0 -70 36.5 -118t102.5 -48q63 0 101 49t38 117t-39 119q-18 23 -44.5 35 t-55.5 12q-66 0 -102.5 -48t-36.5 -118z" />
<glyph unicode="&#xbb;" horiz-adv-x="1185" d="M82 160l307 422l-307 422h240l305 -422l-305 -422h-240zM614 160l306 422l-306 422h240l303 -422l-303 -422h-240z" />
<glyph unicode="&#xbc;" horiz-adv-x="1478" d="M80 1309q16 2 39 14t44.5 29.5t37.5 38t23 39.5h131v-775h-168v543l-23 -6q-16 -4 -35.5 -9t-38.5 -7zM123 -174l764 1608h229l-766 -1608h-227zM784 213l383 564h144v-437h100v-127h-100v-211h-168v211h-359zM1005 340h138v201z" />
<glyph unicode="&#xbd;" horiz-adv-x="1495" d="M76 1309q16 2 39 14t44.5 29.5t37.5 38t23 39.5h131v-775h-168v543l-23 -6q-16 -4 -35.5 -9t-38.5 -7zM119 -174l764 1608h229l-766 -1608h-227zM909 2q115 154 181.5 253.5t99 160.5t41 93t8.5 50q0 47 -26.5 75t-76.5 28q-104 0 -190 -129l-21 147q23 43 87.5 78 t156.5 35q59 0 102.5 -17.5t71 -46t41 -65.5t13.5 -78q0 -133 -201 -420h227v-164h-514z" />
<glyph unicode="&#xbe;" horiz-adv-x="1824" d="M66 700l41 152q6 -10 24.5 -18.5t43 -15.5t52 -11t52.5 -4q152 0 151 84q0 59 -27.5 93t-103.5 34h-114l12 125h59q139 0 140 86q0 84 -113 84q-106 0 -139 -31l-25 117q20 20 73.5 35.5t110.5 15.5q74 0 123.5 -17.5t80 -47t44 -67.5t13.5 -79q0 -109 -66 -150 q96 -78 96 -188q0 -61 -24.5 -109.5t-66.5 -81t-98.5 -50t-117.5 -17.5q-33 0 -68.5 6t-66.5 15.5t-54.5 19.5t-31.5 20zM467 -174l764 1608h229l-766 -1608h-227zM1128 213l383 564h144v-437h100v-127h-100v-211h-168v211h-359zM1349 340h138v201z" />
<glyph unicode="&#xbf;" horiz-adv-x="905" d="M111 -127q0 63 24.5 123.5t62.5 117t82 112t81.5 111.5t62.5 113.5t25 118.5v45h139q6 -90 6 -98q0 -96 -45 -173t-99.5 -148.5t-99.5 -147.5t-45 -170q0 -113 70.5 -172t171.5 -59q88 0 160.5 43t103.5 94l53 -156q-41 -63 -130 -101t-195 -38q-98 0 -177 34t-134.5 88 t-86 122.5t-30.5 140.5zM412 821v203h209v-203h-209z" />
<glyph unicode="&#xc0;" horiz-adv-x="1269" d="M12 0l512 1434h219l514 -1434h-229l-131 373h-524l-133 -373h-228zM444 575h381l-190 537zM445 1765v170l383 -190v-109z" />
<glyph unicode="&#xc1;" horiz-adv-x="1269" d="M12 0l512 1434h219l514 -1434h-229l-131 373h-524l-133 -373h-228zM444 575h381l-190 537zM445 1636v109l383 190v-170z" />
<glyph unicode="&#xc2;" horiz-adv-x="1269" d="M12 0l512 1434h219l514 -1434h-229l-131 373h-524l-133 -373h-228zM332 1647v100l301 207l301 -207v-100l-301 159zM444 575h381l-190 537z" />
<glyph unicode="&#xc3;" horiz-adv-x="1269" d="M12 0l512 1434h219l514 -1434h-229l-131 373h-524l-133 -373h-228zM270 1675q18 94 86 144.5t141 50.5q20 0 60.5 -15.5t82.5 -33t79 -32.5t49 -15q90 0 133 102l100 -27q-20 -86 -80.5 -142t-146.5 -56q-18 0 -58 15t-82 33.5t-78 34t-48 15.5q-98 0 -129 -98zM444 575 h381l-190 537z" />
<glyph unicode="&#xc4;" horiz-adv-x="1269" d="M12 0l512 1434h219l514 -1434h-229l-131 373h-524l-133 -373h-228zM381 1649v209h162v-209h-162zM444 575h381l-190 537zM727 1649v209h162v-209h-162z" />
<glyph unicode="&#xc5;" horiz-adv-x="1269" d="M12 0l512 1434h219l514 -1434h-229l-131 373h-524l-133 -373h-228zM422 1786q0 76 57.5 130t155.5 54q100 0 156.5 -54t56.5 -130t-56.5 -129t-156.5 -53q-98 0 -155.5 53t-57.5 129zM444 575h381l-190 537zM524 1778q0 -49 35 -74t76 -25t76 25t35 74q0 51 -29 83.5 t-82 32.5q-47 0 -79 -30.5t-32 -77.5v-8z" />
<glyph unicode="&#xc6;" horiz-adv-x="1773" d="M-16 0l700 1434h995v-205h-626v-379h483v-203h-483v-444h647v-203h-893v360h-424l-180 -360h-219zM481 571h326v654z" />
<glyph unicode="&#xc7;" horiz-adv-x="1257" d="M76 717q0 166 52 303t147.5 235.5t225.5 152.5t287 54q227 0 402 -84l-23 -204q-231 86 -379 86q-113 0 -200.5 -40t-149 -113t-93.5 -172t-32 -218t32 -218.5t93.5 -172t150.5 -112.5t204 -40q147 0 374 84l23 -205q-178 -82 -399 -82q-158 0 -289 54.5t-225.5 152.5 t-147.5 235.5t-53 303.5zM475 -395l141 272l162 14l-191 -272z" />
<glyph unicode="&#xc8;" horiz-adv-x="1144" d="M162 0v1434h889v-203h-670v-381h528v-203h-528v-444h690v-203h-909zM375 1765v170l383 -190v-109z" />
<glyph unicode="&#xc9;" horiz-adv-x="1144" d="M162 0v1434h889v-203h-670v-381h528v-203h-528v-444h690v-203h-909zM375 1636v109l383 190v-170z" />
<glyph unicode="&#xca;" horiz-adv-x="1144" d="M162 0v1434h889v-203h-670v-381h528v-203h-528v-444h690v-203h-909zM262 1647v100l301 207l301 -207v-100l-301 159z" />
<glyph unicode="&#xcb;" horiz-adv-x="1144" d="M162 0v1434h889v-203h-670v-381h528v-203h-528v-444h690v-203h-909zM309 1649v209h162v-209h-162zM655 1649v209h162v-209h-162z" />
<glyph unicode="&#xcc;" horiz-adv-x="542" d="M84 1765v170l383 -190v-109zM162 0v1434h219v-1434h-219z" />
<glyph unicode="&#xcd;" horiz-adv-x="542" d="M84 1636v109l383 190v-170zM162 0v1434h219v-1434h-219z" />
<glyph unicode="&#xce;" horiz-adv-x="542" d="M-26 1647v100l301 207l301 -207v-100l-301 159zM162 0v1434h219v-1434h-219z" />
<glyph unicode="&#xcf;" horiz-adv-x="542" d="M20 1649v209h162v-209h-162zM162 0v1434h219v-1434h-219zM366 1649v209h162v-209h-162z" />
<glyph unicode="&#xd0;" horiz-adv-x="1495" d="M-14 631v153h194v650h529q156 0 285.5 -50.5t224 -142.5t145.5 -225t51 -299t-51 -298t-143.5 -225.5t-222 -143.5t-289.5 -50h-529v631h-194zM391 203h318q229 0 350 136t121 378t-121 378t-350 136h-318v-447h264v-153h-264v-428z" />
<glyph unicode="&#xd1;" horiz-adv-x="1443" d="M162 0v1434h227l674 -1022v1022h219v-1434h-182l-721 1081v-1081h-217zM356 1675q18 94 86 144.5t141 50.5q20 0 60.5 -15.5t82.5 -33t79 -32.5t49 -15q90 0 133 102l100 -27q-20 -86 -80.5 -142t-146.5 -56q-18 0 -58 15t-82 33.5t-78 34t-48 15.5q-98 0 -129 -98z" />
<glyph unicode="&#xd2;" horiz-adv-x="1568" d="M78 717q0 168 52 305t146.5 235.5t224.5 151.5t283 53q156 0 285 -54t223 -152.5t146.5 -235.5t52.5 -303q0 -336 -199 -541q-197 -205 -508 -205q-154 0 -283.5 53.5t-224 151.5t-146.5 235.5t-52 305.5zM315 717q0 -121 31 -220.5t91.5 -171t147.5 -111.5t199 -40 q113 0 201 41t147.5 112.5t90 172t30.5 217.5q0 239 -123 391q-121 152 -346 152q-113 0 -199.5 -40t-147 -113t-91.5 -172t-31 -218zM592 1765v170l383 -190v-109z" />
<glyph unicode="&#xd3;" horiz-adv-x="1568" d="M78 717q0 168 52 305t146.5 235.5t224.5 151.5t283 53q156 0 285 -54t223 -152.5t146.5 -235.5t52.5 -303q0 -336 -199 -541q-197 -205 -508 -205q-154 0 -283.5 53.5t-224 151.5t-146.5 235.5t-52 305.5zM315 717q0 -121 31 -220.5t91.5 -171t147.5 -111.5t199 -40 q113 0 201 41t147.5 112.5t90 172t30.5 217.5q0 239 -123 391q-121 152 -346 152q-113 0 -199.5 -40t-147 -113t-91.5 -172t-31 -218zM592 1636v109l383 190v-170z" />
<glyph unicode="&#xd4;" horiz-adv-x="1568" d="M78 717q0 168 52 305t146.5 235.5t224.5 151.5t283 53q156 0 285 -54t223 -152.5t146.5 -235.5t52.5 -303q0 -336 -199 -541q-197 -205 -508 -205q-154 0 -283.5 53.5t-224 151.5t-146.5 235.5t-52 305.5zM315 717q0 -121 31 -220.5t91.5 -171t147.5 -111.5t199 -40 q113 0 201 41t147.5 112.5t90 172t30.5 217.5q0 239 -123 391q-121 152 -346 152q-113 0 -199.5 -40t-147 -113t-91.5 -172t-31 -218zM484 1647v100l301 207l301 -207v-100l-301 159z" />
<glyph unicode="&#xd5;" horiz-adv-x="1568" d="M78 717q0 168 52 305t146.5 235.5t224.5 151.5t283 53q156 0 285 -54t223 -152.5t146.5 -235.5t52.5 -303q0 -336 -199 -541q-197 -205 -508 -205q-154 0 -283.5 53.5t-224 151.5t-146.5 235.5t-52 305.5zM315 717q0 -121 31 -220.5t91.5 -171t147.5 -111.5t199 -40 q113 0 201 41t147.5 112.5t90 172t30.5 217.5q0 239 -123 391q-121 152 -346 152q-113 0 -199.5 -40t-147 -113t-91.5 -172t-31 -218zM418 1675q18 94 86 144.5t141 50.5q20 0 60.5 -15.5t82.5 -33t79 -32.5t49 -15q90 0 133 102l100 -27q-20 -86 -80.5 -142t-146.5 -56 q-18 0 -58 15t-82 33.5t-78 34t-48 15.5q-98 0 -129 -98z" />
<glyph unicode="&#xd6;" horiz-adv-x="1568" d="M78 717q0 168 52 305t146.5 235.5t224.5 151.5t283 53q156 0 285 -54t223 -152.5t146.5 -235.5t52.5 -303q0 -336 -199 -541q-197 -205 -508 -205q-154 0 -283.5 53.5t-224 151.5t-146.5 235.5t-52 305.5zM315 717q0 -121 31 -220.5t91.5 -171t147.5 -111.5t199 -40 q113 0 201 41t147.5 112.5t90 172t30.5 217.5q0 239 -123 391q-121 152 -346 152q-113 0 -199.5 -40t-147 -113t-91.5 -172t-31 -218zM530 1649v209h162v-209h-162zM876 1649v209h162v-209h-162z" />
<glyph unicode="&#xd7;" horiz-adv-x="903" d="M121 328l239 239l-239 240l90 90l240 -240l239 240l92 -90l-241 -240l241 -239l-92 -90l-239 239l-240 -239z" />
<glyph unicode="&#xd8;" horiz-adv-x="1566" d="M78 717q0 168 52 305t146.5 235.5t224.5 151.5t283 53q176 0 340 -80l60 84h219l-131 -190q219 -225 219 -561q0 -166 -52.5 -302.5t-146.5 -234.5t-224 -151.5t-286 -53.5q-176 0 -348 84l-82 -118h-221l156 223q-209 223 -209 555zM322 715q0 -190 98 -363l584 854 q-116 49 -222 49q-113 0 -198.5 -39.5t-144 -111.5t-88 -171t-29.5 -218zM555 229q117 -51 229 -51q113 0 200 40t145.5 112.5t88 172t29.5 216.5q0 232 -104 371z" />
<glyph unicode="&#xd9;" horiz-adv-x="1478" d="M145 610v824h217v-732q0 -109 15.5 -205t56.5 -167.5t115 -113.5t190 -42q117 0 191 43t114.5 114.5t56 168t15.5 202.5v732h217v-824q0 -301 -149.5 -470t-444.5 -169t-444.5 169t-149.5 470zM547 1765v170l383 -190v-109z" />
<glyph unicode="&#xda;" horiz-adv-x="1478" d="M145 610v824h217v-732q0 -109 15.5 -205t56.5 -167.5t115 -113.5t190 -42q117 0 191 43t114.5 114.5t56 168t15.5 202.5v732h217v-824q0 -301 -149.5 -470t-444.5 -169t-444.5 169t-149.5 470zM547 1636v109l383 190v-170z" />
<glyph unicode="&#xdb;" horiz-adv-x="1478" d="M145 610v824h217v-732q0 -109 15.5 -205t56.5 -167.5t115 -113.5t190 -42q117 0 191 43t114.5 114.5t56 168t15.5 202.5v732h217v-824q0 -301 -149.5 -470t-444.5 -169t-444.5 169t-149.5 470zM439 1647v100l301 207l301 -207v-100l-301 159z" />
<glyph unicode="&#xdc;" horiz-adv-x="1478" d="M145 610v824h217v-732q0 -109 15.5 -205t56.5 -167.5t115 -113.5t190 -42q117 0 191 43t114.5 114.5t56 168t15.5 202.5v732h217v-824q0 -301 -149.5 -470t-444.5 -169t-444.5 169t-149.5 470zM485 1649v209h162v-209h-162zM831 1649v209h162v-209h-162z" />
<glyph unicode="&#xdd;" horiz-adv-x="1181" d="M-10 1434h231l369 -586l368 586h232l-488 -781v-653h-223v653zM418 1636v109l383 190v-170z" />
<glyph unicode="&#xde;" horiz-adv-x="1163" d="M162 0v1434h225v-244h217q117 0 215.5 -15.5t171 -63.5t112.5 -136t40 -234q0 -145 -45 -240t-114 -151.5t-149.5 -79t-154.5 -22.5h-293v-248h-225zM387 446h256q147 0 211 72t64 217q0 72 -15.5 122t-51.5 83t-96.5 47t-150.5 14h-217v-555z" />
<glyph unicode="&#xdf;" horiz-adv-x="1140" d="M27 844l22 166h141v155q0 88 33 157t88.5 117t129 72.5t157.5 24.5q74 0 143.5 -19.5t125 -61.5t89 -109.5t33.5 -161.5q0 -90 -28.5 -158t-64.5 -119t-64.5 -86t-28.5 -55q0 -18 23.5 -39.5t58.5 -50.5t74.5 -65t74.5 -81t58.5 -102t23.5 -127q0 -88 -38 -149.5 t-101.5 -99.5t-145 -55t-169.5 -17q-35 0 -58.5 2t-52.5 6v172q84 0 149.5 2t110.5 15t68.5 42t23.5 82q0 55 -24.5 101.5t-60.5 86t-78 73.5t-77.5 65.5t-60 61.5t-24.5 63q0 39 31.5 80.5t70.5 92t70.5 112t31.5 139.5q0 51 -15 85.5t-41 56t-60.5 30t-71.5 8.5 q-98 0 -146.5 -51.5t-48.5 -174.5v-1409h-209v1123h-163z" />
<glyph unicode="&#xe0;" horiz-adv-x="997" d="M49 276q0 102 57.5 171t145.5 111t191.5 59.5t195.5 19.5q-2 121 -50 165t-157 44q-131 0 -270 -84l-25 168q152 100 352 100q188 0 273.5 -104.5t85.5 -354.5v-229q0 -57 4 -95t15.5 -59.5t32 -31t54.5 -9.5h25l-27 -167h-41q-111 0 -163 32.5t-86 104.5 q-117 -137 -310 -137q-68 0 -124 21.5t-96 60t-61.5 93t-21.5 121.5zM264 287q0 -143 150 -144q135 0 227 115v238q-377 -14 -377 -209zM307 1341v170l383 -190v-109z" />
<glyph unicode="&#xe1;" horiz-adv-x="997" d="M49 276q0 102 57.5 171t145.5 111t191.5 59.5t195.5 19.5q-2 121 -50 165t-157 44q-131 0 -270 -84l-25 168q152 100 352 100q188 0 273.5 -104.5t85.5 -354.5v-229q0 -57 4 -95t15.5 -59.5t32 -31t54.5 -9.5h25l-27 -167h-41q-111 0 -163 32.5t-86 104.5 q-117 -137 -310 -137q-68 0 -124 21.5t-96 60t-61.5 93t-21.5 121.5zM264 287q0 -143 150 -144q135 0 227 115v238q-377 -14 -377 -209zM307 1212v109l383 190v-170z" />
<glyph unicode="&#xe2;" horiz-adv-x="997" d="M49 276q0 102 57.5 171t145.5 111t191.5 59.5t195.5 19.5q-2 121 -50 165t-157 44q-131 0 -270 -84l-25 168q152 100 352 100q188 0 273.5 -104.5t85.5 -354.5v-229q0 -57 4 -95t15.5 -59.5t32 -31t54.5 -9.5h25l-27 -167h-41q-111 0 -163 32.5t-86 104.5 q-117 -137 -310 -137q-68 0 -124 21.5t-96 60t-61.5 93t-21.5 121.5zM199 1223v100l301 207l301 -207v-100l-301 159zM264 287q0 -143 150 -144q135 0 227 115v238q-377 -14 -377 -209z" />
<glyph unicode="&#xe3;" horiz-adv-x="997" d="M49 276q0 102 57.5 171t145.5 111t191.5 59.5t195.5 19.5q-2 121 -50 165t-157 44q-131 0 -270 -84l-25 168q152 100 352 100q188 0 273.5 -104.5t85.5 -354.5v-229q0 -57 4 -95t15.5 -59.5t32 -31t54.5 -9.5h25l-27 -167h-41q-111 0 -163 32.5t-86 104.5 q-117 -137 -310 -137q-68 0 -124 21.5t-96 60t-61.5 93t-21.5 121.5zM129 1251q18 94 86 144.5t141 50.5q20 0 60.5 -15.5t82.5 -33t79 -32.5t49 -15q90 0 133 102l100 -27q-20 -86 -80.5 -142t-146.5 -56q-18 0 -58 15t-82 33.5t-78 34t-48 15.5q-98 0 -129 -98zM264 287 q0 -143 150 -144q135 0 227 115v238q-377 -14 -377 -209z" />
<glyph unicode="&#xe4;" horiz-adv-x="997" d="M49 276q0 102 57.5 171t145.5 111t191.5 59.5t195.5 19.5q-2 121 -50 165t-157 44q-131 0 -270 -84l-25 168q152 100 352 100q188 0 273.5 -104.5t85.5 -354.5v-229q0 -57 4 -95t15.5 -59.5t32 -31t54.5 -9.5h25l-27 -167h-41q-111 0 -163 32.5t-86 104.5 q-117 -137 -310 -137q-68 0 -124 21.5t-96 60t-61.5 93t-21.5 121.5zM246 1225v209h162v-209h-162zM264 287q0 -143 150 -144q135 0 227 115v238q-377 -14 -377 -209zM592 1225v209h162v-209h-162z" />
<glyph unicode="&#xe5;" horiz-adv-x="997" d="M49 276q0 102 57.5 171t145.5 111t191.5 59.5t195.5 19.5q-2 121 -50 165t-157 44q-131 0 -270 -84l-25 168q152 100 352 100q188 0 273.5 -104.5t85.5 -354.5v-229q0 -57 4 -95t15.5 -59.5t32 -31t54.5 -9.5h25l-27 -167h-41q-111 0 -163 32.5t-86 104.5 q-117 -137 -310 -137q-68 0 -124 21.5t-96 60t-61.5 93t-21.5 121.5zM264 287q0 -143 150 -144q135 0 227 115v238q-377 -14 -377 -209zM287 1362q0 76 57.5 130t155.5 54q100 0 156.5 -54t56.5 -130t-56.5 -129t-156.5 -53q-98 0 -155.5 53t-57.5 129zM389 1354 q0 -49 35 -74t76 -25t76 25t35 74q0 51 -29 83.5t-82 32.5q-47 0 -79 -30.5t-32 -77.5v-8z" />
<glyph unicode="&#xe6;" horiz-adv-x="1634" d="M45 248q0 119 62.5 192.5t154.5 114.5t196.5 57.5t188.5 20.5q-12 117 -61 165t-160 48q-119 0 -260 -66l-19 166q180 84 336 84q43 0 93.5 -9t95.5 -34.5t80.5 -70t50.5 -111.5q37 111 141.5 168t233.5 57q88 0 161.5 -28.5t125 -83t80 -132t28.5 -176.5q0 -29 -3 -60.5 t-7 -64.5h-676q8 -166 95 -252t228 -86q117 0 287 80l29 -168q-176 -80 -336 -79q-305 0 -412 217q-59 -111 -166.5 -168.5t-249.5 -57.5q-156 0 -236.5 74t-80.5 203zM260 266q0 -63 41 -94t107 -31q49 0 96 16.5t83 50.5t58.5 84t22.5 116q0 27 -1 47.5t-3 36.5 q-63 -2 -134 -13.5t-131.5 -38t-99.5 -68.5t-39 -106zM899 629h479q0 104 -52.5 162.5t-156.5 58.5q-215 0 -270 -221z" />
<glyph unicode="&#xe7;" horiz-adv-x="925" d="M63 506q0 113 33 209t96.5 166.5t155.5 109.5t213 39q195 0 309 -65l-26 -185q-125 70 -262 70q-150 0 -228 -91t-78 -253t78 -255t228 -93q141 0 262 69l24 -172q-119 -75 -305 -75q-119 0 -212 39.5t-156.5 110.5t-97.5 167t-34 209zM373 -395l141 272l162 14 l-191 -272z" />
<glyph unicode="&#xe8;" d="M63 510q0 109 35 204t98.5 165.5t154.5 110.5t204 40q96 0 177 -30.5t139.5 -87t90 -136.5t31.5 -178q0 -31 -3 -58.5t-7 -54.5h-704q33 -326 352 -325q158 0 297 67l20 -170q-166 -78 -338 -77q-129 0 -231.5 40.5t-172 111.5t-106.5 168t-37 210zM291 629h489 q0 100 -56 160.5t-169 60.5q-213 0 -264 -221zM336 1341v170l383 -190v-109z" />
<glyph unicode="&#xe9;" d="M63 510q0 109 35 204t98.5 165.5t154.5 110.5t204 40q96 0 177 -30.5t139.5 -87t90 -136.5t31.5 -178q0 -31 -3 -58.5t-7 -54.5h-704q33 -326 352 -325q158 0 297 67l20 -170q-166 -78 -338 -77q-129 0 -231.5 40.5t-172 111.5t-106.5 168t-37 210zM291 629h489 q0 100 -56 160.5t-169 60.5q-213 0 -264 -221zM336 1212v109l383 190v-170z" />
<glyph unicode="&#xea;" d="M63 510q0 109 35 204t98.5 165.5t154.5 110.5t204 40q96 0 177 -30.5t139.5 -87t90 -136.5t31.5 -178q0 -31 -3 -58.5t-7 -54.5h-704q33 -326 352 -325q158 0 297 67l20 -170q-166 -78 -338 -77q-129 0 -231.5 40.5t-172 111.5t-106.5 168t-37 210zM226 1223v100l301 207 l301 -207v-100l-301 159zM291 629h489q0 100 -56 160.5t-169 60.5q-213 0 -264 -221z" />
<glyph unicode="&#xeb;" d="M63 510q0 109 35 204t98.5 165.5t154.5 110.5t204 40q96 0 177 -30.5t139.5 -87t90 -136.5t31.5 -178q0 -31 -3 -58.5t-7 -54.5h-704q33 -326 352 -325q158 0 297 67l20 -170q-166 -78 -338 -77q-129 0 -231.5 40.5t-172 111.5t-106.5 168t-37 210zM272 1225v209h162 v-209h-162zM291 629h489q0 100 -56 160.5t-169 60.5q-213 0 -264 -221zM618 1225v209h162v-209h-162z" />
<glyph unicode="&#xec;" horiz-adv-x="454" d="M39 1341v170l383 -190v-109zM123 0v1010h209v-1010h-209z" />
<glyph unicode="&#xed;" horiz-adv-x="454" d="M41 1212v109l383 190v-170zM123 0v1010h209v-1010h-209z" />
<glyph unicode="&#xee;" horiz-adv-x="454" d="M-71 1223v100l301 207l301 -207v-100l-301 159zM123 0v1010h209v-1010h-209z" />
<glyph unicode="&#xef;" horiz-adv-x="454" d="M-25 1225v209h162v-209h-162zM123 0v1010h209v-1010h-209zM321 1225v209h162v-209h-162z" />
<glyph unicode="&#xf0;" horiz-adv-x="1062" d="M45 414q0 88 28.5 171t84 146.5t136.5 102t185 38.5q160 0 262 -100q-4 41 -19 94.5t-37.5 105.5t-50.5 95t-54 63q-152 -104 -287 -122l-68 125q127 16 256 102q-121 106 -245 106l71 95q145 0 303 -111q72 61 119 129l109 -27q-66 -96 -142 -178q63 -63 115.5 -145 t89.5 -175t57.5 -195.5t20.5 -207.5q0 -164 -46 -270t-115.5 -168.5t-154.5 -87.5t-161 -25q-98 0 -181 33t-144.5 91.5t-96.5 138t-35 176.5zM264 436q0 -59 17.5 -109.5t49 -88t77 -59t100.5 -21.5q104 0 170.5 72.5t66.5 195.5t-63 194.5t-174 71.5q-55 0 -100.5 -20.5 t-77 -55t-49 -82t-17.5 -98.5z" />
<glyph unicode="&#xf1;" horiz-adv-x="1140" d="M123 0v1010h176l14 -90q129 111 295 110q420 0 420 -477v-553h-209v553q0 156 -56 226.5t-185 70.5q-176 0 -246 -117v-733h-209zM201 1251q18 94 86 144.5t141 50.5q20 0 60.5 -15.5t82.5 -33t79 -32.5t49 -15q90 0 133 102l100 -27q-20 -86 -80.5 -142t-146.5 -56 q-18 0 -58 15t-82 33.5t-78 34t-48 15.5q-98 0 -129 -98z" />
<glyph unicode="&#xf2;" horiz-adv-x="1136" d="M63 504q0 111 35 207t100.5 166.5t159 111.5t209.5 41q117 0 210 -41t160 -112.5t101.5 -167t34.5 -205.5q0 -111 -34.5 -206t-100.5 -166t-160 -111.5t-211 -40.5q-115 0 -208 39.5t-158.5 110.5t-101.5 166t-36 208zM276 504q0 -162 75 -253t216 -91t217 92t76 252 t-78 254q-78 92 -215 92q-139 0 -215 -92t-76 -254zM373 1341v170l383 -190v-109z" />
<glyph unicode="&#xf3;" horiz-adv-x="1136" d="M63 504q0 111 35 207t100.5 166.5t159 111.5t209.5 41q117 0 210 -41t160 -112.5t101.5 -167t34.5 -205.5q0 -111 -34.5 -206t-100.5 -166t-160 -111.5t-211 -40.5q-115 0 -208 39.5t-158.5 110.5t-101.5 166t-36 208zM276 504q0 -162 75 -253t216 -91t217 92t76 252 t-78 254q-78 92 -215 92q-139 0 -215 -92t-76 -254zM375 1212v109l383 190v-170z" />
<glyph unicode="&#xf4;" horiz-adv-x="1136" d="M63 504q0 111 35 207t100.5 166.5t159 111.5t209.5 41q117 0 210 -41t160 -112.5t101.5 -167t34.5 -205.5q0 -111 -34.5 -206t-100.5 -166t-160 -111.5t-211 -40.5q-115 0 -208 39.5t-158.5 110.5t-101.5 166t-36 208zM267 1223v100l301 207l301 -207v-100l-301 159z M276 504q0 -162 75 -253t216 -91t217 92t76 252t-78 254q-78 92 -215 92q-139 0 -215 -92t-76 -254z" />
<glyph unicode="&#xf5;" horiz-adv-x="1136" d="M63 504q0 111 35 207t100.5 166.5t159 111.5t209.5 41q117 0 210 -41t160 -112.5t101.5 -167t34.5 -205.5q0 -111 -34.5 -206t-100.5 -166t-160 -111.5t-211 -40.5q-115 0 -208 39.5t-158.5 110.5t-101.5 166t-36 208zM203 1251q18 94 86 144.5t141 50.5q20 0 60.5 -15.5 t82.5 -33t79 -32.5t49 -15q90 0 133 102l100 -27q-20 -86 -80.5 -142t-146.5 -56q-18 0 -58 15t-82 33.5t-78 34t-48 15.5q-98 0 -129 -98zM276 504q0 -162 75 -253t216 -91t217 92t76 252t-78 254q-78 92 -215 92q-139 0 -215 -92t-76 -254z" />
<glyph unicode="&#xf6;" horiz-adv-x="1136" d="M63 504q0 111 35 207t100.5 166.5t159 111.5t209.5 41q117 0 210 -41t160 -112.5t101.5 -167t34.5 -205.5q0 -111 -34.5 -206t-100.5 -166t-160 -111.5t-211 -40.5q-115 0 -208 39.5t-158.5 110.5t-101.5 166t-36 208zM276 504q0 -162 75 -253t216 -91t217 92t76 252 t-78 254q-78 92 -215 92q-139 0 -215 -92t-76 -254zM313 1225v209h162v-209h-162zM659 1225v209h162v-209h-162z" />
<glyph unicode="&#xf7;" horiz-adv-x="1200" d="M129 492v165h942v-165h-942zM487 41v217h207v-217h-207zM487 877v217h207v-217h-207z" />
<glyph unicode="&#xf8;" horiz-adv-x="1161" d="M63 510q0 113 37 209t104.5 166.5t163 111.5t212.5 41q74 0 159 -22l37 78h178l-73 -142q219 -166 219 -444q0 -111 -36 -206t-103.5 -167t-163.5 -112.5t-215 -40.5q-37 0 -78 5t-86 15l-37 -74h-172l70 142q-215 160 -216 440zM283 508q0 -129 77 -268l304 620 q-59 12 -84 12q-141 0 -219 -101t-78 -263zM494 158q33 -4 54 -7.5t36 -3.5q70 0 125 27t93 75t58.5 113.5t20.5 145.5q0 39 -5.5 80t-15.5 77.5t-25.5 66.5t-33.5 48z" />
<glyph unicode="&#xf9;" horiz-adv-x="1093" d="M113 438v572h209v-539q0 -160 53 -235.5t170 -75.5q143 0 217 104v746h209v-1010h-191l-14 94q-96 -115 -260 -114q-393 0 -393 458zM379 1341v170l383 -190v-109z" />
<glyph unicode="&#xfa;" horiz-adv-x="1093" d="M113 438v572h209v-539q0 -160 53 -235.5t170 -75.5q143 0 217 104v746h209v-1010h-191l-14 94q-96 -115 -260 -114q-393 0 -393 458zM379 1212v109l383 190v-170z" />
<glyph unicode="&#xfb;" horiz-adv-x="1093" d="M113 438v572h209v-539q0 -160 53 -235.5t170 -75.5q143 0 217 104v746h209v-1010h-191l-14 94q-96 -115 -260 -114q-393 0 -393 458zM269 1223v100l301 207l301 -207v-100l-301 159z" />
<glyph unicode="&#xfc;" horiz-adv-x="1093" d="M113 438v572h209v-539q0 -160 53 -235.5t170 -75.5q143 0 217 104v746h209v-1010h-191l-14 94q-96 -115 -260 -114q-393 0 -393 458zM315 1225v209h162v-209h-162zM661 1225v209h162v-209h-162z" />
<glyph unicode="&#xfd;" d="M8 1010h232l297 -715l276 715h231l-624 -1506h-221l229 549zM334 1212v109l383 190v-170z" />
<glyph unicode="&#xfe;" horiz-adv-x="1183" d="M123 -494v2030h209v-612q119 106 295 106q113 0 205 -41t155.5 -111.5t98 -167t34.5 -206.5q0 -111 -33.5 -207t-98 -167t-158 -110.5t-212.5 -39.5q-186 0 -286 112v-586h-209zM317 504q0 -162 69 -259.5t216 -97.5t227 98.5t80 258.5t-79.5 253t-227.5 93 q-147 0 -216 -93t-69 -253z" />
<glyph unicode="&#xff;" d="M8 1010h232l297 -715l276 715h231l-624 -1506h-221l229 549zM270 1225v209h162v-209h-162zM616 1225v209h162v-209h-162z" />
<glyph unicode="&#x152;" horiz-adv-x="2187" d="M78 717q0 168 52 305t144.5 235.5t220.5 151.5t279 53q244 0 481 -178v148h840v-201h-625v-381h480v-203h-480v-444h644v-203h-859v150q-238 -178 -481 -179q-152 0 -279.5 53.5t-220 151.5t-144.5 235.5t-52 305.5zM311 717q0 -121 30 -220.5t88 -171t144 -111.5 t201 -40q113 0 199 40t144.5 112.5t89 172t30.5 218.5q0 239 -121 391t-342 152q-113 0 -200 -40t-145 -113t-88 -172t-30 -218z" />
<glyph unicode="&#x153;" horiz-adv-x="1843" d="M61 512q0 111 36 206t102.5 164.5t162 108.5t213.5 39q123 0 230.5 -50t159.5 -142q57 92 160.5 142t215.5 50q96 0 177 -29.5t139.5 -86t91.5 -135.5t33 -177q0 -25 -3 -53.5t-7 -63.5h-689q2 -104 35 -169.5t80 -102.5t101.5 -51.5t99.5 -14.5q166 0 317 80l19 -178 q-145 -70 -324 -69q-330 0 -440 200q-51 -94 -161 -147t-241 -53q-117 0 -211 40.5t-160.5 112.5t-101.5 169t-35 210zM274 504q0 -162 78 -253t221 -91q141 0 217 96t76 252q0 154 -77 248t-214 94q-147 0 -224 -90t-77 -256zM1087 629h482q-6 100 -65 160.5t-163 60.5 q-209 0 -254 -221z" />
<glyph unicode="&#x178;" horiz-adv-x="1181" d="M-10 1434h231l369 -586l368 586h232l-488 -781v-653h-223v653zM354 1649v209h162v-209h-162zM700 1649v209h162v-209h-162z" />
<glyph unicode="&#x2c6;" horiz-adv-x="913" d="M156 1223v100l301 207l301 -207v-100l-301 159z" />
<glyph unicode="&#x2dc;" horiz-adv-x="1081" d="M176 1251q18 94 86 144.5t141 50.5q20 0 60.5 -15.5t82.5 -33t79 -32.5t49 -15q90 0 133 102l100 -27q-20 -86 -80.5 -142t-146.5 -56q-18 0 -58 15t-82 33.5t-78 34t-48 15.5q-98 0 -129 -98z" />
<glyph unicode="&#x2000;" horiz-adv-x="985" />
<glyph unicode="&#x2001;" horiz-adv-x="1970" />
<glyph unicode="&#x2002;" horiz-adv-x="985" />
<glyph unicode="&#x2003;" horiz-adv-x="1970" />
<glyph unicode="&#x2004;" horiz-adv-x="656" />
<glyph unicode="&#x2005;" horiz-adv-x="492" />
<glyph unicode="&#x2006;" horiz-adv-x="328" />
<glyph unicode="&#x2007;" horiz-adv-x="328" />
<glyph unicode="&#x2008;" horiz-adv-x="246" />
<glyph unicode="&#x2009;" horiz-adv-x="394" />
<glyph unicode="&#x200a;" horiz-adv-x="109" />
<glyph unicode="&#x2010;" horiz-adv-x="864" d="M115 481v183h635v-183h-635z" />
<glyph unicode="&#x2011;" horiz-adv-x="864" d="M115 481v183h635v-183h-635z" />
<glyph unicode="&#x2012;" horiz-adv-x="864" d="M115 481v183h635v-183h-635z" />
<glyph unicode="&#x2013;" horiz-adv-x="1024" d="M115 481v183h794v-183h-794z" />
<glyph unicode="&#x2014;" horiz-adv-x="1212" d="M115 481v183h983v-183h-983z" />
<glyph unicode="&#x2018;" horiz-adv-x="399" d="M88 1106v207l174 223l49 -27l-71 -178l69 -18v-207h-221z" />
<glyph unicode="&#x2019;" horiz-adv-x="362" d="M84 1133l70 178l-68 18v207h221v-207l-174 -223z" />
<glyph unicode="&#x201a;" horiz-adv-x="452" d="M115 -197l69 179l-67 18v207h221v-207l-174 -223z" />
<glyph unicode="&#x201c;" horiz-adv-x="829" d="M88 1106v207l174 223l49 -27l-71 -178l69 -18v-207h-221zM518 1106v207l174 223l49 -27l-71 -178l69 -18v-207h-221z" />
<glyph unicode="&#x201d;" horiz-adv-x="792" d="M84 1133l70 178l-68 18v207h221v-207l-174 -223zM514 1133l70 178l-68 18v207h221v-207l-174 -223z" />
<glyph unicode="&#x201e;" horiz-adv-x="923" d="M115 -197l69 179l-67 18v207h221v-207l-174 -223zM586 -197l69 179l-67 18v207h221v-207l-174 -223z" />
<glyph unicode="&#x2022;" horiz-adv-x="622" d="M88 569q0 45 18.5 85t49 71t70.5 49.5t85 18.5t85 -18.5t71 -49.5t49.5 -71t18.5 -85q0 -43 -16.5 -83.5t-49.5 -73.5q-35 -35 -75 -50.5t-83 -15.5q-45 0 -85 18.5t-70.5 49t-49 70.5t-18.5 85z" />
<glyph unicode="&#x2026;" horiz-adv-x="1404" d="M115 0v207h209v-207h-209zM598 0v207h209v-207h-209zM1081 0v207h209v-207h-209z" />
<glyph unicode="&#x202f;" horiz-adv-x="394" />
<glyph unicode="&#x2039;" horiz-adv-x="679" d="M27 582l321 422h250l-322 -422l322 -422h-250z" />
<glyph unicode="&#x203a;" horiz-adv-x="679" d="M82 160l321 422l-321 422h250l321 -422l-321 -422h-250z" />
<glyph unicode="&#x205f;" horiz-adv-x="492" />
<glyph unicode="&#x20ac;" horiz-adv-x="1435" d="M63 436l54 154h196q-4 37 -5 73.5t-1 84.5h-188l53 153h154q29 117 88 209t141 156.5t184.5 98.5t218.5 34q96 0 190.5 -17.5t172.5 -54.5l-25 -211q-82 35 -160.5 56.5t-177.5 21.5q-154 0 -247 -77t-133 -216h522l-58 -153h-487q0 -35 1 -85.5t7 -72.5h498l-53 -154 h-396q57 -100 141.5 -148t204.5 -48q98 0 177 21.5t161 55.5l25 -211q-78 -37 -172.5 -54t-190.5 -17q-209 0 -367.5 104.5t-236.5 296.5h-291z" />
<glyph unicode="&#x2122;" horiz-adv-x="1492" d="M63 1311v123h545l-14 -123h-201v-621h-125v621h-205zM625 690l98 744h74l204 -344l205 344h74l98 -744h-131l-59 510l-180 -305h-15l-176 305l-63 -510h-129z" />
<glyph unicode="&#x25fc;" horiz-adv-x="1013" d="M0 0v1014h1014v-1014h-1014z" />
</font>
</defs>
</svg>
