<?xml version="1.0" standalone="no"?>
<!DOCTYPE svg PUBLIC "-//W3C//DTD SVG 1.1//EN" "http://www.w3.org/Graphics/SVG/1.1/DTD/svg11.dtd" >
<svg xmlns="http://www.w3.org/2000/svg">
<metadata></metadata>
<defs>
<font id="bolsterregular" horiz-adv-x="1638" >
<font-face units-per-em="2048" ascent="1638" descent="-410" />
<missing-glyph horiz-adv-x="758" />
<glyph horiz-adv-x="2048" />
<glyph horiz-adv-x="2048" />
<glyph unicode="&#xd;" horiz-adv-x="758" />
<glyph unicode=" "  horiz-adv-x="758" />
<glyph unicode="&#x09;" horiz-adv-x="758" />
<glyph unicode="&#xa0;" horiz-adv-x="758" />
<glyph unicode="!" horiz-adv-x="707" d="M569 1198l-115 -674h-197l-118 674v324h430v-324zM569 0h-430v414h430v-414z" />
<glyph unicode="&#x22;" horiz-adv-x="748" d="M686 874h-259v563h259v-563zM321 874h-254v563h254v-563z" />
<glyph unicode="#" horiz-adv-x="1566" d="M1570 1100l-98 -271h-252l-76 -210h258l-97 -269h-257l-132 -365h-282l130 365h-228l-132 -365h-282l130 365h-256l97 269h253l71 210h-256l102 271h255l124 369h290l-129 -369h228l127 369h288l-133 -369h257zM942 833h-238l-81 -218h241z" />
<glyph unicode="$" horiz-adv-x="1568" d="M1506 276q0 -131 -92 -203.5t-246 -72.5h-209v-323h-95v323h-137v-323h-93v323h-578v414h578v191h-135q-204 0 -300 48q-132 67 -132 242v331q0 146 102 222t304 76l161 -2v256h93v-256h137v256h95v-256h450v-408h-450v-188h205q172 0 247 -52q95 -64 95 -230v-368z M864 926v188h-346v-188h346zM1015 414v191h-288v-191h288z" />
<glyph unicode="%" horiz-adv-x="1769" d="M1707 217q0 -93 -58 -155t-158 -62h-345q-83 0 -138 62t-55 155v263q0 91 47.5 145t141.5 54h360q91 0 148 -51.5t57 -147.5v-263zM1417 1522l-859 -1522h-217l868 1522h208zM816 1059q0 -93 -57 -154.5t-158 -61.5h-344q-83 0 -138.5 61.5t-55.5 154.5v263 q0 91 48 145.5t141 54.5h361q91 0 147 -52.5t56 -147.5v-263zM1444 238v209h-228v-209h228zM553 1081v209h-228v-209h228z" />
<glyph unicode="&#x26;" horiz-adv-x="1901" d="M1904 0h-657l-97 87q-48 -48 -107 -67.5t-153 -19.5h-449q-193 0 -269 100q-63 82 -64 258v226q0 170 155 245l-68 68q-35 35 -45.5 76.5t-10.5 101.5l-2 145q0 110 43 184q70 118 243 118h824v-408h-644l513 -443l206 317h465l-374 -574zM833 350l-346 290v-290h346z " />
<glyph unicode="'" horiz-adv-x="433" d="M341 874h-254v563h254v-563z" />
<glyph unicode="(" horiz-adv-x="837" d="M754 -478h-283q-183 0 -282 89q-111 97 -111 291v1318q0 152 102 227t286 75h283v-200h-231v-1618h236v-182z" />
<glyph unicode=")" horiz-adv-x="837" d="M754 -98q0 -215 -124 -308q-96 -72 -263 -72h-289v182h243v1618h-234v200h286q178 0 269 -61q111 -75 112 -241v-1318z" />
<glyph unicode="*" horiz-adv-x="1363" d="M1191 827l-112 -191l-286 172v-339h-224v339l-291 -172l-111 191l295 167l-295 172l111 191l291 -174v339h224v-339l286 174l112 -191l-290 -172zM793 930v134l-114 61l-110 -61v-134l106 -60z" />
<glyph unicode="+" horiz-adv-x="1692" d="M1442 473h-458v-473h-276v473h-456v271h456v472h276v-472h458v-271z" />
<glyph unicode="," horiz-adv-x="781" d="M630 -48q0 -219 -226 -219h-243v189h274v78h-244v421h439v-469z" />
<glyph unicode="-" horiz-adv-x="685" d="M607 371h-533v378h533v-378z" />
<glyph unicode="." horiz-adv-x="781" d="M613 0h-437v421h437v-421z" />
<glyph unicode="/" horiz-adv-x="717" d="M734 1522l-578 -1711h-219l567 1711h230z" />
<glyph unicode="0" horiz-adv-x="1573" d="M1502 414q0 -182 -87 -288q-95 -118 -278 -118h-702q-174 0 -270 96q-101 104 -102 310v702q0 205 72 295q87 110 300 111h702q191 0 278 -100t87 -306v-702zM1031 410v704h-490v-704h490z" />
<glyph unicode="1" horiz-adv-x="1573" d="M1064 0h-467v966h-150v232l413 324h204v-1522z" />
<glyph unicode="2" horiz-adv-x="1573" d="M1494 996q0 -173 -183 -242l-762 -261v-72h934v-421h-1411v421q0 207 93 306q61 65 239 135l634 191v47h-858v422h997q169 0 236 -53q81 -60 81 -225v-248z" />
<glyph unicode="3" horiz-adv-x="1573" d="M1454 1009q0 -93 -32 -147t-117 -100q145 -67 145 -240v-255q0 -130 -95.5 -198.5t-260.5 -68.5h-976v421h866v163h-702v360h706v156h-870v422h978q180 0 263 -53q95 -60 95 -214v-246z" />
<glyph unicode="4" horiz-adv-x="1573" d="M1550 343h-167v-343h-467v343h-897v473l947 706h417v-812h167v-367zM916 706v342l-458 -342h458z" />
<glyph unicode="5" horiz-adv-x="1573" d="M1454 302q0 -143 -85.5 -222.5t-239.5 -79.5h-1007v421h877v184h-877v917h1276v-422h-818v-174h570q156 0 224 -54q80 -64 80 -240v-330z" />
<glyph unicode="6" horiz-adv-x="1573" d="M1498 354q0 -197 -96 -280q-84 -74 -265 -74h-661q-232 0 -318 86t-86 296v776q0 188 83 276t282 88h994v-422h-897v-188h576q228 0 299 -50q89 -61 89 -259v-249zM1046 421v194h-512v-194h512z" />
<glyph unicode="7" horiz-adv-x="1573" d="M1472 1100l-546 -1100h-555l593 1100h-875v422h1383v-422z" />
<glyph unicode="8" horiz-adv-x="1573" d="M1491 1009q0 -95 -35 -151.5t-120 -95.5q84 -37 117.5 -89t33.5 -151v-255q0 -130 -97.5 -198.5t-260.5 -68.5h-688q-156 0 -252 65q-106 72 -106 202v255q0 93 31 147t114 93q-76 39 -113 95.5t-37 151.5v246q0 135 99 201t258 66h702q156 0 248 -59q106 -67 106 -208 v-246zM1034 912v188h-498v-188h498zM1034 421v194h-498v-194h498z" />
<glyph unicode="9" horiz-adv-x="1573" d="M1487 343q0 -215 -68.5 -279t-285.5 -64h-994v421h899v194h-628h-72q-161 28 -173 36q-93 58 -93 275v242q0 172 80 259q89 95 283 95h659q238 0 315.5 -73t77.5 -303v-803zM1038 912v188h-512v-188h512z" />
<glyph unicode=":" horiz-adv-x="796" d="M617 555h-437v406h437v-406zM617 0h-437v421h437v-421z" />
<glyph unicode=";" horiz-adv-x="796" d="M617 555h-437v406h437v-406zM617 -48q0 -112 -53.5 -165.5t-170.5 -53.5h-244v189h270v78h-239v421h437v-469z" />
<glyph unicode="&#x3c;" horiz-adv-x="1692" d="M1431 -15l-1168 484v280l1168 486v-301l-795 -324l795 -328v-297z" />
<glyph unicode="=" horiz-adv-x="1692" d="M1442 710h-1190v269h1190v-269zM1442 241h-1190v269h1190v-269z" />
<glyph unicode="&#x3e;" horiz-adv-x="1692" d="M1431 469l-1168 -484v297l796 328l-796 324v301l1168 -486v-280z" />
<glyph unicode="?" horiz-adv-x="1367" d="M1290 1114q0 -172 -39 -235t-178 -125l-242 -110v-116h-438q0 15 -2 55t-2 42q0 89 34 150q48 85 174 141l267 118v80h-363v-153h-423v274q0 137 107.5 212t266.5 75h480q223 0 294 -105q40 -56 64 -247v-56zM831 0h-438v414h438v-414z" />
<glyph unicode="@" horiz-adv-x="2036" d="M1969 756q0 -298 -187 -487q-176 -178 -421 -178q-187 0 -217 156q-52 -76 -118.5 -115t-161.5 -39q-143 0 -232 70q-113 89 -114 274q0 206 83 353q128 228 414 229q137 0 216 -110l52 79h239l-155 -621q-4 -19 -4 -29q0 -26 13.5 -39t34.5 -13q132 0 229.5 134.5 t97.5 337.5q0 282 -247 425q-176 102 -381 102q-363 0 -596 -230q-219 -218 -218 -531q0 -247 147 -420q191 -222 570 -222q159 0 316.5 47t283.5 138l115 -154q-330 -241 -717 -241q-421 0 -681 237.5t-260 612.5q0 412 278 687q290 289 762 289q315 0 547 -145 q312 -195 312 -597zM1166 679q0 55 -20 89q-33 61 -115 61q-112 0 -180 -145q-52 -116 -52 -232q0 -79 32.5 -123.5t84.5 -44.5q78 0 159 107q91 121 91 288z" />
<glyph unicode="A" d="M1550 0h-473v615h-524v-615h-466v1214q0 143 89 225.5t247 82.5h789q153 0 245.5 -79.5t92.5 -228.5v-1214zM1077 920v194h-524v-194h524z" />
<glyph unicode="B" horiz-adv-x="1645" d="M1564 343q0 -149 -58 -231q-78 -112 -267 -112h-1146v1522h1151q154 0 230 -61q90 -72 90 -235v-217q0 -72 -23 -113t-106 -101q79 -33 104 -83t25 -157v-212zM1094 920v194h-525v-194h525zM1094 414v201h-525v-201h525z" />
<glyph unicode="C" horiz-adv-x="1541" d="M1472 1114h-908v-700h901v-414h-964q-414 0 -414 414v700q0 180 112 294t288 114h985v-408z" />
<glyph unicode="D" horiz-adv-x="1675" d="M1591 417q0 -198 -92 -307.5t-287 -109.5h-1123v1522h1131q180 0 275.5 -106.5t95.5 -299.5v-699zM1110 414v700h-546v-700h546z" />
<glyph unicode="E" horiz-adv-x="1438" d="M1361 1114h-792v-176h788v-348h-793v-176h786v-414h-1261v1522h1272v-408z" />
<glyph unicode="F" horiz-adv-x="1454" d="M1372 590h-792v-590h-474v1522h1266v-408h-792v-176h792v-348z" />
<glyph unicode="G" horiz-adv-x="1640" d="M1564 410q0 -184 -87 -290q-98 -120 -286 -120h-739q-183 0 -278.5 104.5t-95.5 305.5v704q0 207 76 299q89 108 308 109h1083v-408h-992v-697h541v499h470v-506z" />
<glyph unicode="H" horiz-adv-x="1666" d="M1576 0h-480v610h-525v-610h-482v1522h482v-563h525v563h480v-1522z" />
<glyph unicode="I" horiz-adv-x="667" d="M571 0h-473v1522h473v-1522z" />
<glyph unicode="J" horiz-adv-x="1423" d="M1326 410q0 -193 -87 -298q-93 -112 -275 -112h-523q-369 0 -369 410v300h454v-296h353v1108h447v-1112z" />
<glyph unicode="K" horiz-adv-x="1653" d="M1693 0h-588l-436 584h-111v-584h-465v1522h465v-580h113l429 580h559l-580 -745z" />
<glyph unicode="L" horiz-adv-x="1390" d="M1326 0h-1233v1522h508v-1108h725v-414z" />
<glyph unicode="M" horiz-adv-x="1953" d="M1854 0h-447v754q0 178 24 314h-14l-255 -1068h-369l-259 1068h-12q10 -66 16.5 -146.5t6.5 -167.5v-754h-452v1522h656l185 -778q21 -78 41 -243q9 85 17 131q2 17 23 112l186 778h653v-1522z" />
<glyph unicode="N" horiz-adv-x="1657" d="M1570 0h-454l-497 799q-24 42 -46 85q-30 58 -51 112q10 -60 16.5 -135.5t6.5 -146.5v-714h-456v1522h582l375 -596q13 -21 42 -81q12 -31 56 -120q-11 67 -17.5 141t-6.5 143v513h450v-1522z" />
<glyph unicode="O" horiz-adv-x="1595" d="M1518 410q0 -188 -89 -294q-96 -116 -283 -116h-694q-183 0 -278.5 104.5t-95.5 305.5v704q0 195 83 295q93 112 291 113h694q371 0 372 -408v-704zM1046 414v700h-493v-700h493z" />
<glyph unicode="P" horiz-adv-x="1558" d="M1506 795q0 -302 -297 -302h-640v-493h-476v1522h1103q161 0 231 -61q80 -70 79 -247v-419zM1031 845v269h-467v-269h467z" />
<glyph unicode="Q" horiz-adv-x="1595" d="M1624 -195h-346q-106 0 -158 36q-58 43 -82 159h-586q-183 0 -278.5 104.5t-95.5 305.5v704q0 195 83 295q93 112 291 113h694q371 0 372 -408v-730v-26q0 -52 -8 -78t-38 -63h152v-412zM1046 414v700h-493v-700h493z" />
<glyph unicode="R" horiz-adv-x="1599" d="M1520 1040q4 -41 4 -67q0 -56 -30 -99q-44 -58 -154 -103q87 -31 123 -72q54 -61 55 -177v-522h-465v567h-489v-567h-471v1522h1069q201 0 284 -85q74 -76 74 -234v-163zM1053 912v202h-489v-202h489z" />
<glyph unicode="S" horiz-adv-x="1595" d="M1518 276q0 -133 -91 -204.5t-244 -71.5h-1111v414h987v170h-525q-252 0 -325 31q-126 52 -126 247v364q0 185 132 251q93 45 319 45h890v-408h-875v-170h628q341 0 341 -300v-368z" />
<glyph unicode="T" horiz-adv-x="1493" d="M1454 1114h-439v-1114h-507v1114h-465v408h1411v-408z" />
<glyph unicode="U" d="M1550 317q0 -147 -89 -232t-249 -85h-789q-150 0 -243 82.5t-93 234.5v1205h471v-1108h519v1108h473v-1205z" />
<glyph unicode="V" horiz-adv-x="1673" d="M1663 1522l-567 -1522h-525l-567 1522h493l282 -812q24 -70 35 -116.5t19 -92.5q13 52 27 106q6 27 35 103l277 812h491z" />
<glyph unicode="W" horiz-adv-x="2003" d="M1986 1522l-319 -1522h-458l-171 808l-37 234l-31 -234l-171 -808h-465l-315 1522h457l112 -656l29 -222v33q0 35 2 52q13 67 23 137l137 656h450l134 -656l29 -222l25 222l112 656h457z" />
<glyph unicode="X" horiz-adv-x="1742" d="M1748 0h-569l-253 578h-110l-252 -578h-568l402 777l-383 745h538l263 -584h110l257 584h545l-382 -745z" />
<glyph unicode="Y" horiz-adv-x="1673" d="M1667 1522l-590 -971v-551h-501v551l-568 971h543l280 -569l281 569h555z" />
<glyph unicode="Z" horiz-adv-x="1558" d="M1483 1114l-781 -700h777v-414h-1405v391l821 723h-789v408h1377v-408z" />
<glyph unicode="[" horiz-adv-x="837" d="M754 -452h-671v1974h671v-209h-236v-1541h236v-224z" />
<glyph unicode="\" horiz-adv-x="717" d="M734 -189h-230l-567 1711h219z" />
<glyph unicode="]" horiz-adv-x="837" d="M754 -452h-671v224h238v1541h-238v209h671v-1974z" />
<glyph unicode="^" horiz-adv-x="2036" d="M1626 895h-304l-307 310l-303 -310h-304l441 564h334z" />
<glyph unicode="_" horiz-adv-x="1015" d="M1015 -478h-1015v279h1015v-279z" />
<glyph unicode="`" horiz-adv-x="758" d="M669 1198h-139l-350 279h291z" />
<glyph unicode="a" horiz-adv-x="1417" d="M1392 0h-267h-42q-62 0 -95 19q-46 29 -102 120q-31 -76 -84 -107.5t-155 -31.5h-260q-145 0 -227 82.5t-82 240.5v476q0 154 79 237.5t230 83.5h278q72 0 121 -20.5t100 -84.5v105h432v-733h74v-387zM886 387v347h-368v-347h368z" />
<glyph unicode="b" horiz-adv-x="1417" d="M1340 323q0 -151 -77.5 -237t-224.5 -86h-267q-94 0 -141 24q-61 31 -94 115q-45 -79 -93 -109t-150 -30h-267v387h80v1135h430v-507q48 63 93.5 84t124.5 21h284q143 0 222.5 -83.5t79.5 -237.5v-476zM901 387v347h-365v-347h365z" />
<glyph unicode="c" horiz-adv-x="1178" d="M1112 0h-719q-147 0 -231 81.5t-84 241.5v465q0 132 85 227q94 104 241 105h708v-386h-586v-347h586v-387z" />
<glyph unicode="d" horiz-adv-x="1417" d="M1392 0h-267h-42q-62 0 -95 19q-46 29 -102 120q-31 -76 -84 -107.5t-155 -31.5h-260q-145 0 -227 82.5t-82 240.5v476q0 154 79 237.5t230 83.5h278q72 0 121 -20.5t100 -84.5v507h432v-1135h74v-387zM886 387v347h-368v-347h368z" />
<glyph unicode="e" horiz-adv-x="1367" d="M1305 469h-787v-104h582v-365h-707q-315 0 -315 323v458q0 152 91.5 245.5t242.5 93.5h622q271 0 271 -339v-312zM899 644v110h-381v-110h381z" />
<glyph unicode="f" horiz-adv-x="854" d="M831 1137h-262v-455h258v-213h-258v-575q0 -213 -130 -300q-96 -63 -272 -63h-136v371h104v567h-104v213h104v468q0 165 92 268.5t260 103.5h344v-385z" />
<glyph unicode="g" horiz-adv-x="1408" d="M1318 -43q0 -224 -77 -320q-85 -106 -294 -106h-463v347h402v261q-31 -76 -84 -107.5t-155 -31.5h-260q-145 0 -227 82.5t-82 240.5v476q0 154 79 237.5t230 83.5h278q72 0 121 -20.5t100 -84.5v105h432v-1163zM886 387v347h-368v-347h368z" />
<glyph unicode="h" horiz-adv-x="1454" d="M1446 0h-274q-106 0 -181 66t-75 175v493h-390v-734h-437v1522h437v-511q67 70 142.5 91t201.5 21h161q143 0 226 -85q104 -106 104 -339v-312h85v-387z" />
<glyph unicode="i" horiz-adv-x="622" d="M530 1255h-437v267h437v-267zM530 0h-437v1120h437v-1120z" />
<glyph unicode="j" horiz-adv-x="628" d="M534 1255h-436v267h436v-267zM534 -118q0 -193 -61 -264q-74 -87 -295 -87h-170v363h90v1226h436v-1238z" />
<glyph unicode="k" horiz-adv-x="1303" d="M1313 0h-497l-228 435h-62v-435h-437v1522h437v-828h62l232 426h493l-334 -560z" />
<glyph unicode="l" horiz-adv-x="622" d="M530 0h-437v1522h437v-1522z" />
<glyph unicode="m" horiz-adv-x="1985" d="M1972 0h-236q-282 0 -282 319v415h-245v-734h-430v734h-253v-734h-437v1120h437v-86q72 86 205 86h233q138 0 194 -89q28 46 83 67.5t135 21.5h237q178 0 232 -67q48 -61 48 -245v-421h79v-387z" />
<glyph unicode="n" horiz-adv-x="1454" d="M1446 0h-274q-106 0 -181 66t-75 175v493h-390v-734h-437v1120h437v-109q67 70 142.5 91t201.5 21h161q104 0 198.5 -66.5t114.5 -182.5q6 -30 11.5 -82t5.5 -93v-312h85v-387z" />
<glyph unicode="o" horiz-adv-x="1392" d="M1313 358q0 -159 -82 -252q-94 -106 -278 -106h-564q-116 0 -202 78q-109 98 -109 280v435q0 139 76 228q84 99 233 99h588q152 0 245 -86.5t93 -240.5v-435zM881 387v347h-367v-347h367z" />
<glyph unicode="p" horiz-adv-x="1417" d="M1340 323q0 -151 -77.5 -237t-224.5 -86h-284q-98 0 -132 17.5t-86 88.5v-575h-430v1203h-80v386h267q91 0 145.5 -29.5t97.5 -111.5q31 81 84 111t151 30h267q143 0 222.5 -83.5t79.5 -237.5v-476zM901 387v347h-365v-347h365z" />
<glyph unicode="q" horiz-adv-x="1417" d="M1392 734h-74v-1203h-432v575q-45 -58 -91 -82t-130 -24h-278q-145 0 -227 82.5t-82 240.5v476q0 154 79 237.5t230 83.5h260q101 0 152.5 -27t86.5 -114q42 81 93.5 111t145.5 30h267v-386zM886 387v347h-368v-347h368z" />
<glyph unicode="r" horiz-adv-x="1260" d="M1205 506h-417v228h-254v-734h-445v1120h445v-82q25 45 67.5 63.5t125.5 18.5h232q133 0 189.5 -58.5t56.5 -195.5v-360z" />
<glyph unicode="s" horiz-adv-x="1361" d="M1301 286q0 -151 -52 -214q-59 -72 -211 -72h-960v387h801v95h-554q-126 0 -182 54q-65 63 -65 226v87q0 135 61.5 203t185.5 68h839v-386h-667v-94h541q128 0 188 -58q75 -70 75 -236v-60z" />
<glyph unicode="t" horiz-adv-x="1046" d="M984 0h-549q-181 0 -249 91t-68 296v390h-107v224h107v521h440v-521h419v-224h-419v-390h426v-387z" />
<glyph unicode="u" horiz-adv-x="1454" d="M1363 0h-431v110q-129 -110 -290 -110h-258q-148 0 -217 92t-69 262v380h-90v386h263q263 0 263 -260v-473h398v733h431v-1120z" />
<glyph unicode="v" horiz-adv-x="1356" d="M1363 1120l-447 -1120h-479l-445 1120h462l165 -462q4 -12 10.5 -35.5t17.5 -55.5l28 -115l29 115l27 91l170 462h462z" />
<glyph unicode="w" horiz-adv-x="1732" d="M1736 1120l-286 -1120h-462l-93 484l-29 202l-28 -202l-96 -484h-456l-290 1120h441l99 -453q11 -52 18.5 -95.5t16.5 -115.5l32 206l93 458h346l91 -458l29 -206q0 50 14.5 118t19.5 93l105 453h435z" />
<glyph unicode="x" horiz-adv-x="1497" d="M1465 0h-471l-178 452h-141l-171 -452h-473l247 590l-247 530h483l172 -414h124l174 414h481l-245 -530z" />
<glyph unicode="y" horiz-adv-x="1408" d="M1424 1120l-591 -1402q-48 -122 -99.5 -154.5t-197.5 -32.5h-337v359h272l-479 1230h466l193 -547q19 -58 32 -105t25 -114q13 72 28 143q8 33 28 76l206 547h454z" />
<glyph unicode="z" horiz-adv-x="1349" d="M1272 0h-1185v226q0 91 44.5 151t156.5 133l363 224h-533v386h1154v-208q0 -70 -25 -131q-33 -78 -107 -123l-432 -271h564v-387z" />
<glyph unicode="{" horiz-adv-x="868" d="M814 -410l-147 -2q-195 0 -274 58q-93 72 -93 261v252q0 126 -55.5 177t-188.5 51v284q133 0 188.5 46.5t55.5 179.5v261q0 169 46 225q74 91 325 91h143v-287q-124 0 -155 -23.5t-31 -129.5v-239q0 -130 -42.5 -182.5t-179.5 -80.5q141 -31 181.5 -77.5t40.5 -187.5 v-241q0 -97 39 -125.5t147 -28.5v-282z" />
<glyph unicode="|" horiz-adv-x="758" d="M514 -478h-276v2039h276v-2039z" />
<glyph unicode="}" horiz-adv-x="868" d="M818 387q-134 0 -188 -50.5t-54 -177.5v-252q0 -189 -92 -259q-80 -60 -275 -60l-149 2v282q111 0 145 24q43 31 42 130v241q0 143 39 188.5t183 76.5q-133 29 -177.5 82t-44.5 181v239q0 108 -30 130.5t-157 22.5v287h145q250 0 323 -91q48 -58 48 -225v-261 q0 -135 53 -180.5t189 -45.5v-284z" />
<glyph unicode="~" horiz-adv-x="1518" d="M1398 1431q0 -252 -91 -369.5t-288 -117.5q-133 0 -296 111t-197 111q-74 0 -107 -70q-21 -48 -21 -119v-26q0 -2 2 -9h-259q0 224 70 338q89 150 297 151q115 0 234 -70q132 -78 267 -156q74 0 107 69q21 48 21 122v23q0 5 -2 12h263z" />
<glyph unicode="&#xa1;" horiz-adv-x="707" d="M569 1110h-430v412h430v-412zM569 0h-430v332l118 669h197l115 -669v-332z" />
<glyph unicode="&#xa2;" horiz-adv-x="1568" d="M1378 1353l-469 -969h270v-384h-452l-201 -432h-180l205 432q-176 21 -236 63q-124 82 -124 314v322q0 252 93 339q83 78 252 78h552l113 237h177zM909 749h-286v-365h111z" />
<glyph unicode="&#xa3;" horiz-adv-x="1568" d="M1487 391q0 -165 -91 -273q-100 -118 -271 -118h-1062v421h113v237h-104v208h104v265q0 391 332 391h486q164 0 272 -89q117 -97 117 -267v-328h-430v262h-323v-234h169v-208h-169v-237h408v241h449v-271z" />
<glyph unicode="&#xa4;" horiz-adv-x="1230" d="M1183 452l-130 -135l-198 205q-106 -70 -238 -70q-63 0 -118.5 15t-111.5 55l-198 -205l-137 135l195 203q-63 106 -63 226q0 72 12.5 124t50.5 109l-195 204l137 130l198 -199q115 70 232 69q124 0 236 -69l198 199l130 -130l-199 -204q33 -52 48.5 -107.5t15.5 -122.5 t-13.5 -119.5t-50.5 -109.5zM858 895q0 91 -81 160.5t-167 69.5q-85 0 -156.5 -74t-71.5 -179q0 -93 57 -158q65 -76 182 -76q104 0 170.5 73t66.5 184z" />
<glyph unicode="&#xa5;" horiz-adv-x="1732" d="M1676 1522l-249 -408h236v-184h-350l-141 -236h491v-184h-580v-510h-460v510h-560v184h478l-139 236h-339v184h230l-241 408h499l228 -422q37 -72 85 -214q24 128 78 214l230 422h504z" />
<glyph unicode="&#xa6;" horiz-adv-x="1015" d="M647 671h-276v758h276v-758zM647 -348h-276v754h276v-754z" />
<glyph unicode="&#xa7;" horiz-adv-x="1464" d="M1381 484q0 -204 -37 -265q-48 -80 -239 -126q115 -19 146 -76q17 -31 17 -115v-147q0 -118 -41.5 -161t-162.5 -43h-842v339h673v203h-424q-216 0 -289 59q-93 74 -93 297v156q0 191 55 269.5t223 109.5q-113 10 -148 69q-21 37 -22 130l2 111q-2 44 -2 67q0 78 31 111 q45 50 174 50h829v-335h-673v-203h473q185 0 259 -64q91 -78 91 -295v-141zM977 432v208h-501v-208h501z" />
<glyph unicode="&#xa8;" horiz-adv-x="758" d="M684 1361h-241v265h241v-265zM332 1361h-243v265h243v-265z" />
<glyph unicode="&#xa9;" horiz-adv-x="1692" d="M1591 736q0 -296 -219.5 -519t-524.5 -223q-319 0 -541 244q-204 226 -204 504q0 263 148 449q118 148 317 233q159 66 288 67q330 0 541 -234q195 -217 195 -521zM1442 734q0 242 -173 422t-420 180t-419.5 -175t-172.5 -417q0 -234 170 -417.5t418 -183.5 q232 0 414.5 174t182.5 417zM1231 625q0 -147 -119 -248q-100 -82 -257 -81q-197 0 -307.5 117t-110.5 336q0 168 71 276q104 156 339 156q178 0 282 -96q91 -84 91 -204h-241q0 54 -37 93t-84 39q-77 0 -119.5 -87.5t-42.5 -185.5q0 -116 36 -187t115 -71q120 0 137 143 h247z" />
<glyph unicode="&#xaa;" horiz-adv-x="1063" d="M1046 738h-203q-70 0 -107 18.5t-71 76.5q-27 -54 -65 -74.5t-116 -20.5h-196q-108 0 -169 61t-61 167v332q0 100 60 162t170 62h213q59 0 89.5 -13t74.5 -57v70h323v-513h58v-271zM665 1009v242h-276v-242h276z" />
<glyph unicode="&#xab;" horiz-adv-x="1176" d="M1120 161h-349l-183 256v287l183 255h349l-215 -308v-167zM588 161h-347l-185 256v287l185 255h347l-215 -308v-167z" />
<glyph unicode="&#xac;" horiz-adv-x="2604" d="M2523 -180h-2438v1661h2438v-1661zM2316 553v40h-41q-48 0 -60.5 16t-12.5 58v25v513q0 122 10.5 145.5t60.5 23.5h43v39h-347v-39h46q48 0 58.5 -25t10.5 -140v-517q0 -58 -6 -71q-15 -28 -72 -28h-37v-40h347zM2477 58q0 74 -54 107q-35 22 -116.5 37t-116.5 32 q-52 27 -52 77q0 47 33 73t83 26q35 0 68 -18.5t58 -43.5q4 -15 7 -31.5t3 -45.5h37q0 44 3.5 75t7.5 73q-95 28 -172 28q-108 0 -165.5 -48.5t-57.5 -129.5q0 -78 65 -115q48 -27 165 -46q106 -24 107 -97q0 -48 -37 -80.5t-98 -32.5q-45 0 -87.5 15t-60.5 41q-9 13 -9 59 v39h-35v-26l-6 -93q-2 -17 -2 -24q0 -27 10 -29q100 -24 168 -23q104 0 179 54t75 147zM2043 400h-187q0 56 2 111.5t9 95.5q130 106 130 234q0 199 -261 199q-134 0 -186 38t-52 123q0 81 55.5 127t148.5 46q57 0 107.5 -19t70.5 -35q11 -22 11 -69v-50h39q0 102 19 173 q-119 45 -240 45q-143 0 -231 -70.5t-88 -193.5q0 -126 95 -178q67 -37 191 -37q122 0 174 -52q41 -41 41 -109q0 -80 -64 -133t-170 -53q-67 0 -128.5 22.5t-76.5 57.5l-2 74v30h-41v-56q0 -81 -7 -133q57 -24 116.5 -34.5t113.5 -10.5q65 0 112 15q10 -94 10 -158 q-41 -25 -97 -42v-26h97v-340q0 -75 36.5 -105t102.5 -30q17 0 33 2q31 9 46 11l58 74l-18 23q-31 -33 -69 -32q-46 0 -63 26q-24 37 -24 147v233l150 2l24 -2zM1741 -130v37h-46q-33 0 -41.5 14t-8.5 58v60v199q0 122 -67 172q-49 37 -134 37q-70 0 -143 -56 q-25 -17 -60 -59v78q0 9 -4 25q0 4 -4 12q-110 -47 -202 -47v-37h44q58 0 58 -35v-374q0 -30 -14 -38.5t-44 -8.5h-44v-37h313v37h-41q-61 0 -62 47v70v80v106.5t8 79.5t51.5 53t97.5 26q85 0 113 -46.5t28 -135.5v-58v-38v-33v-27q0 -100 -8 -161h210zM1477 1374v39h-259 v-39q37 0 72.5 -4.5t35.5 -23.5l-6 -26q-17 -81 -19 -91q-13 -50 -33 -119l-113 -381l-150 411l-100 279h-31l-127 -334l-140 -349l-85 387l-42 197q-8 17 -9 22q0 33 72 32h37v39h-311v-39h24q35 0 47 -14t27 -77l104 -452l13 -65q-35 0 -65 -18.5t-85.5 -74.5t-76.5 -100 q-15 -39 -16 -95v-78l-87 -46v-22l87 9v-229v-52.5t2 -48.5q0 -59 -13 -81.5t-54 -22.5h-41v-37h336v37h-50q-48 0 -61.5 18.5t-13.5 72.5v53.5t2 60.5v229l79 2l74 -2l11 54l-4 5h-160v78q0 133 19.5 167t75.5 34q37 0 63 -19l24 -117h63q54 161 147 404l118 271l99 -271 l126 -340l17 -64h66q54 223 158 567q70 230 89 255q6 2 14 7q6 2 17 2h33zM1057 174q0 122 -76 197.5t-204 75.5q-137 0 -224 -80.5t-87 -207.5q0 -135 75.5 -218.5t198.5 -83.5q137 0 227 88t90 229zM942 122q0 -108 -43.5 -166t-119.5 -58q-87 0 -140 86t-53 215 q0 96 44.5 153.5t118.5 57.5q85 0 139 -74.5t54 -213.5z" />
<glyph unicode="&#xad;" horiz-adv-x="685" d="M607 371h-533v378h533v-378z" />
<glyph unicode="&#xae;" horiz-adv-x="1692" d="M1591 736q0 -296 -219.5 -519t-524.5 -223q-356 0 -567 256q-178 217 -178 492q0 261 148 447q120 150 317 235q159 66 288 67q322 0 535 -234q201 -221 201 -521zM1442 734q0 244 -171 423t-422 179q-254 0 -423 -174t-169 -418q0 -234 170 -417.5t418 -183.5 q232 0 414.5 174t182.5 417zM1226 350h-277l-146 312h-24v-312h-253v812h334q149 0 251.5 -64t102.5 -172q0 -74 -41.5 -132t-124.5 -88zM949 909q0 57 -40.5 75.5t-94.5 18.5h-24q-5 0 -11 -2v-193q89 0 122 15q48 22 48 86z" />
<glyph unicode="&#xaf;" horiz-adv-x="1015" d="M1015 1280h-1015v281h1015v-281z" />
<glyph unicode="&#xb0;" horiz-adv-x="814" d="M677 1212q0 -116 -79.5 -197t-193.5 -81q-110 0 -194 81t-84 197q0 112 78 194.5t200 82.5q110 0 191.5 -79t81.5 -198zM569 1212q0 64 -49 115t-116 51q-70 0 -119 -46.5t-49 -119.5q0 -72 47 -121t121 -49q67 0 116 46.5t49 123.5z" />
<glyph unicode="&#xb1;" horiz-adv-x="1692" d="M1442 677h-458v-306h-276v306h-456v272h456v306h276v-306h458v-272zM1442 -43h-1190v271h1190v-271z" />
<glyph unicode="&#xb2;" horiz-adv-x="1036" d="M979 1205q0 -47 -28.5 -84.5t-86.5 -56.5l-504 -159v-39h615v-256h-927v256q0 112 58 174q50 52 161 85l412 114v29h-561v254h657q110 0 157 -37t47 -132v-148z" />
<glyph unicode="&#xb3;" horiz-adv-x="1036" d="M953 1214q0 -54 -19.5 -89t-78.5 -61q46 -19 70 -52t24 -92v-149q0 -161 -228 -161h-647v256h573v93h-458v213h462v96h-577v254h647q130 0 186 -48q46 -39 46 -113v-147z" />
<glyph unicode="&#xb4;" horiz-adv-x="758" d="M630 1641l-352 -278h-137l195 278h294z" />
<glyph unicode="&#xb5;" horiz-adv-x="1363" d="M1318 1083l-156 -1083h-365l17 130q-67 -130 -189 -130q-54 0 -97.5 29t-73.5 93l-70 -539h-410l206 1500h421l-83 -614q-2 -13 -2 -39q0 -66 34 -105t84 -39q62 0 110 50q56 58 72 163l85 584h417z" />
<glyph unicode="&#xb6;" horiz-adv-x="1015" d="M1005 1332h-100v-1332h-197v1332h-139v-1332h-202v781q-191 21 -278 116q-78 85 -78 234q0 154 108.5 250t278.5 96h607v-145z" />
<glyph unicode="&#xb7;" horiz-adv-x="607" d="M443 694q0 -56 -39 -95t-96 -39q-56 0 -95 39t-39 95t39 95.5t95 39.5q57 0 96 -39.5t39 -95.5z" />
<glyph unicode="&#xb8;" horiz-adv-x="758" d="M644 -254q0 -83 -51 -133q-63 -60 -195 -60q-109 0 -270 45v122q98 -21 153 -31t86 -10q41 0 71.5 16.5t30.5 47.5q0 33 -82 48q-27 4 -83 10v199h106v-78q96 0 157 -34q77 -47 77 -142z" />
<glyph unicode="&#xb9;" horiz-adv-x="1036" d="M704 610h-311v573h-100v139l276 200h135v-912z" />
<glyph unicode="&#xba;" horiz-adv-x="1046" d="M984 988q0 -106 -74.5 -178t-190.5 -72h-431q-97 0 -163.5 70.5t-66.5 179.5v306q0 98 61 163t169 65h443q109 0 181 -61t72 -167v-306zM660 1009v242h-273v-242h273z" />
<glyph unicode="&#xbb;" horiz-adv-x="1176" d="M1120 417l-182 -256h-350l215 323v167l-215 308h350l182 -255v-287zM588 417l-184 -256h-348l217 323v167l-217 308h348l184 -255v-287z" />
<glyph unicode="&#xbc;" horiz-adv-x="2350" d="M2334 193h-101v-193h-296v193h-561v263l596 399h261v-460h101v-202zM1736 1522l-903 -1522h-220l905 1522h218zM671 671h-292v538h-97v129l259 184h130v-851zM1937 395v193l-288 -193h288z" />
<glyph unicode="&#xbd;" horiz-adv-x="2350" d="M2306 555q0 -45 -26 -78.5t-92 -55.5l-479 -145v-42h586v-234h-886v234q0 104 48.5 157.5t162.5 86.5l397 112v25h-543v240h627q104 0 154.5 -37t50.5 -124v-139zM1736 1522l-903 -1522h-220l905 1522h218zM671 671h-292v538h-97v129l259 184h130v-851z" />
<glyph unicode="&#xbe;" horiz-adv-x="2350" d="M2334 193h-101v-193h-296v193h-561v263l596 399h261v-460h101v-202zM1736 1522l-903 -1522h-220l905 1522h218zM914 1235q0 -54 -11 -73q-19 -37 -87 -64q52 -28 72.5 -56.5t20.5 -80.5v-145q0 -145 -223 -145h-614v234h547v91h-439v202h443v87h-551v237h618 q110 0 167 -31.5t57 -118.5v-137zM1937 395v193l-288 -193h288z" />
<glyph unicode="&#xbf;" horiz-adv-x="1367" d="M975 1110h-439v414h439v-414zM1290 288q0 -136 -113 -214q-102 -72 -261 -72h-479q-224 0 -296 104q-39 56 -63 248v56q0 172 39 235t179 126l240 108v117h439q0 -17 2 -56t2 -41q0 -89 -35 -150q-47 -84 -173 -142l-267 -116v-81h362v152h424v-274z" />
<glyph unicode="&#xc0;" d="M1550 0h-473v615h-524v-615h-466v1214q0 143 89 225.5t247 82.5h789q153 0 245.5 -79.5t92.5 -228.5v-1214zM1077 920v194h-524v-194h524zM845 1615h-139l-350 279h291z" />
<glyph unicode="&#xc1;" d="M1550 0h-473v615h-524v-615h-466v1214q0 143 89 225.5t247 82.5h789q153 0 245.5 -79.5t92.5 -228.5v-1214zM1077 920v194h-524v-194h524zM1270 1871l-352 -278h-137l195 278h294z" />
<glyph unicode="&#xc2;" d="M1550 0h-473v615h-524v-615h-466v1214q0 143 89 225.5t247 82.5h789q153 0 245.5 -79.5t92.5 -228.5v-1214zM1077 920v194h-524v-194h524zM1135 1606h-137l-176 141l-172 -141h-140l194 277h240z" />
<glyph unicode="&#xc3;" d="M1550 0h-473v615h-524v-615h-466v1214q0 143 89 225.5t247 82.5h789q153 0 245.5 -79.5t92.5 -228.5v-1214zM1077 920v194h-524v-194h524zM1143 1873q-30 -126 -66 -174q-48 -60 -143 -60q-9 0 -149 28q-62 13 -88 13q-67 0 -91 -67h-99q31 131 80 180.5t129 49.5 l235 -47q69 0 93 77h99z" />
<glyph unicode="&#xc4;" d="M1550 0h-473v615h-524v-615h-466v1214q0 143 89 225.5t247 82.5h789q153 0 245.5 -79.5t92.5 -228.5v-1214zM1077 920v194h-524v-194h524zM1111 1608h-241v265h241v-265zM759 1608h-243v265h243v-265z" />
<glyph unicode="&#xc5;" d="M1550 0h-473v615h-524v-615h-466v1214q0 143 89 225.5t247 82.5h789q153 0 245.5 -79.5t92.5 -228.5v-1214zM1077 920v194h-524v-194h524zM983 1740q0 -62 -47.5 -105.5t-109.5 -43.5t-109.5 41t-47.5 108q0 70 43 113.5t112 43.5q67 0 113 -41.5t46 -115.5zM866 1744 q-2 20 -14 32t-32 10q-41 -4 -41 -44q0 -43 45 -43q46 0 42 45z" />
<glyph unicode="&#xc6;" horiz-adv-x="2365" d="M2299 1114h-793v-176h789v-348h-793v-176h787v-414h-1262v615h-404l-130 -615h-467l258 1214q29 143 136.5 225.5t265.5 82.5h1613v-408zM1027 920v194h-298l-41 -194h339z" />
<glyph unicode="&#xc7;" horiz-adv-x="1541" d="M1472 1114h-908v-700h901v-414h-595v-70q89 0 153 -34q83 -45 82 -141q0 -80 -50 -130q-63 -63 -197 -64q-109 0 -270 46v122q96 -22 146.5 -32t92.5 -10q52 0 78.5 21t26.5 45q-2 33 -43.5 45.5t-91.5 12.5h-29q-2 0 -4 -2v191h-263q-414 0 -414 414v700q0 180 112 294 t288 114h985v-408z" />
<glyph unicode="&#xc8;" horiz-adv-x="1438" d="M1361 1114h-792v-176h788v-348h-793v-176h786v-414h-1261v1522h1272v-408zM984 1606h-139l-350 279h291z" />
<glyph unicode="&#xc9;" horiz-adv-x="1438" d="M1361 1114h-792v-176h788v-348h-793v-176h786v-414h-1261v1522h1272v-408zM1040 1886l-352 -278h-137l195 278h294z" />
<glyph unicode="&#xca;" horiz-adv-x="1438" d="M1361 1114h-792v-176h788v-348h-793v-176h786v-414h-1261v1522h1272v-408zM1127 1612h-137l-176 141l-172 -141h-140l194 277h240z" />
<glyph unicode="&#xcb;" horiz-adv-x="1438" d="M1361 1114h-792v-176h788v-348h-793v-176h786v-414h-1261v1522h1272v-408zM1103 1626h-241v265h241v-265zM751 1626h-243v265h243v-265z" />
<glyph unicode="&#xcc;" horiz-adv-x="667" d="M571 0h-473v1522h473v-1522zM582 1619h-139l-350 279h291z" />
<glyph unicode="&#xcd;" horiz-adv-x="667" d="M571 0h-473v1522h473v-1522zM617 1895l-352 -278h-137l195 278h294z" />
<glyph unicode="&#xce;" horiz-adv-x="667" d="M571 0h-473v1522h473v-1522zM640 1596h-137l-176 141l-172 -141h-140l194 277h240z" />
<glyph unicode="&#xcf;" horiz-adv-x="667" d="M571 0h-473v1522h473v-1522zM636 1620h-241v265h241v-265zM284 1620h-243v265h243v-265z" />
<glyph unicode="&#xd0;" horiz-adv-x="1675" d="M1607 417q0 -195 -91 -301q-100 -116 -296 -116h-1114v640h-95v286h95v596h1125q171 0 273.5 -105.5t102.5 -300.5v-699zM1116 414v700h-545v-188h272v-286h-272v-226h545z" />
<glyph unicode="&#xd1;" horiz-adv-x="1657" d="M1570 0h-454l-497 799q-24 42 -46 85q-30 58 -51 112q10 -60 16.5 -135.5t6.5 -146.5v-714h-456v1522h582l375 -596q13 -21 42 -81q12 -31 56 -120q-11 67 -17.5 141t-6.5 143v513h450v-1522zM1226 1869q-30 -126 -66 -174q-48 -60 -143 -60q-9 0 -149 28q-62 13 -88 13 q-67 0 -91 -67h-99q31 131 80 180.5t129 49.5l235 -47q69 0 93 77h99z" />
<glyph unicode="&#xd2;" horiz-adv-x="1595" d="M1518 410q0 -188 -89 -294q-96 -116 -283 -116h-694q-183 0 -278.5 104.5t-95.5 305.5v704q0 195 83 295q93 112 291 113h694q371 0 372 -408v-704zM1046 414v700h-493v-700h493zM1023 1600h-139l-350 279h291z" />
<glyph unicode="&#xd3;" horiz-adv-x="1595" d="M1518 410q0 -188 -89 -294q-96 -116 -283 -116h-694q-183 0 -278.5 104.5t-95.5 305.5v704q0 195 83 295q93 112 291 113h694q371 0 372 -408v-704zM1046 414v700h-493v-700h493zM1086 1865l-352 -278h-137l195 278h294z" />
<glyph unicode="&#xd4;" horiz-adv-x="1595" d="M1518 410q0 -188 -89 -294q-96 -116 -283 -116h-694q-183 0 -278.5 104.5t-95.5 305.5v704q0 195 83 295q93 112 291 113h694q371 0 372 -408v-704zM1046 414v700h-493v-700h493zM1107 1626h-137l-176 141l-172 -141h-140l194 277h240z" />
<glyph unicode="&#xd5;" horiz-adv-x="1595" d="M1518 410q0 -188 -89 -294q-96 -116 -283 -116h-694q-183 0 -278.5 104.5t-95.5 305.5v704q0 195 83 295q93 112 291 113h694q371 0 372 -408v-704zM1046 414v700h-493v-700h493zM1128 1873q-30 -126 -66 -174q-48 -60 -143 -60q-9 0 -149 28q-62 13 -88 13 q-67 0 -91 -67h-99q31 131 80 180.5t129 49.5l235 -47q69 0 93 77h99z" />
<glyph unicode="&#xd6;" horiz-adv-x="1595" d="M1518 410q0 -188 -89 -294q-96 -116 -283 -116h-694q-183 0 -278.5 104.5t-95.5 305.5v704q0 195 83 295q93 112 291 113h694q371 0 372 -408v-704zM1046 414v700h-493v-700h493zM1086 1620h-241v265h241v-265zM734 1620h-243v265h243v-265z" />
<glyph unicode="&#xd7;" horiz-adv-x="1692" d="M1374 273l-195 -195l-334 336l-323 -327l-192 193l323 325l-332 335l195 195l333 -332l323 326l191 -193l-323 -329z" />
<glyph unicode="&#xd8;" horiz-adv-x="1595" d="M1635 1554l-161 -178q11 -24 27.5 -111.5t16.5 -154.5v-700q0 -197 -87 -300q-93 -110 -285 -110h-694q-104 0 -174 31l-154 -176l-124 102l154 171q-50 74 -63 131.5t-13 150.5v700q0 193 92.5 302.5t281.5 109.5h694q78 0 117.5 -4.5t97.5 -36.5l147 172zM1059 1114 h-523v-582zM1073 414v545l-472 -545h472z" />
<glyph unicode="&#xd9;" d="M1550 317q0 -147 -89 -232t-249 -85h-789q-150 0 -243 82.5t-93 234.5v1205h471v-1108h519v1108h473v-1205zM1069 1630h-139l-350 279h291z" />
<glyph unicode="&#xda;" d="M1550 317q0 -147 -89 -232t-249 -85h-789q-150 0 -243 82.5t-93 234.5v1205h471v-1108h519v1108h473v-1205zM1152 1869l-352 -278h-137l195 278h294z" />
<glyph unicode="&#xdb;" d="M1550 317q0 -147 -89 -232t-249 -85h-789q-150 0 -243 82.5t-93 234.5v1205h471v-1108h519v1108h473v-1205zM1139 1618h-137l-176 141l-172 -141h-140l194 277h240z" />
<glyph unicode="&#xdc;" d="M1550 317q0 -147 -89 -232t-249 -85h-789q-150 0 -243 82.5t-93 234.5v1205h471v-1108h519v1108h473v-1205zM1127 1611h-241v265h241v-265zM775 1611h-243v265h243v-265z" />
<glyph unicode="&#xdd;" horiz-adv-x="1673" d="M1667 1522l-590 -971v-551h-501v551l-568 971h543l280 -569l281 569h555zM1194 1871l-352 -278h-137l195 278h294z" />
<glyph unicode="&#xde;" horiz-adv-x="1558" d="M1506 560q0 -293 -297 -293h-640v-267h-476v1522h476v-224h627q143 0 221 -72q89 -82 89 -247v-419zM1031 619v267h-467v-267h467z" />
<glyph unicode="&#xdf;" horiz-adv-x="1434" d="M1361 838q0 -101 -56 -157t-193 -91q76 -10 123.5 -53.5t47.5 -115.5v-208q0 -122 -66.5 -167.5t-215.5 -45.5h-280v205h205v264h-368v-595q0 -185 -59 -258q-67 -85 -242 -85h-238v371h109v567h-102v213h102v476q0 149 97.5 256.5t254.5 107.5h469q206 0 309 -73 t103 -251v-360zM926 682v438h-368v-438h368z" />
<glyph unicode="&#xe0;" horiz-adv-x="1417" d="M1392 0h-267h-42q-62 0 -95 19q-46 29 -102 120q-31 -76 -84 -107.5t-155 -31.5h-260q-145 0 -227 82.5t-82 240.5v476q0 154 79 237.5t230 83.5h278q72 0 121 -20.5t100 -84.5v105h432v-733h74v-387zM886 387v347h-368v-347h368zM891 1229h-139l-350 279h291z" />
<glyph unicode="&#xe1;" horiz-adv-x="1417" d="M1392 0h-267h-42q-62 0 -95 19q-46 29 -102 120q-31 -76 -84 -107.5t-155 -31.5h-260q-145 0 -227 82.5t-82 240.5v476q0 154 79 237.5t230 83.5h278q72 0 121 -20.5t100 -84.5v105h432v-733h74v-387zM886 387v347h-368v-347h368zM1055 1521l-352 -278h-137l195 278h294z " />
<glyph unicode="&#xe2;" horiz-adv-x="1417" d="M1392 0h-267h-42q-62 0 -95 19q-46 29 -102 120q-31 -76 -84 -107.5t-155 -31.5h-260q-145 0 -227 82.5t-82 240.5v476q0 154 79 237.5t230 83.5h278q72 0 121 -20.5t100 -84.5v105h432v-733h74v-387zM886 387v347h-368v-347h368zM1011 1235h-137l-176 141l-172 -141 h-140l194 277h240z" />
<glyph unicode="&#xe3;" horiz-adv-x="1417" d="M1392 0h-267h-42q-62 0 -95 19q-46 29 -102 120q-31 -76 -84 -107.5t-155 -31.5h-260q-145 0 -227 82.5t-82 240.5v476q0 154 79 237.5t230 83.5h278q72 0 121 -20.5t100 -84.5v105h432v-733h74v-387zM886 387v347h-368v-347h368zM1039 1500q-30 -126 -66 -174 q-48 -60 -143 -60q-9 0 -149 28q-62 13 -88 13q-67 0 -91 -67h-99q31 131 80 180.5t129 49.5l235 -47q69 0 93 77h99z" />
<glyph unicode="&#xe4;" horiz-adv-x="1417" d="M1392 0h-267h-42q-62 0 -95 19q-46 29 -102 120q-31 -76 -84 -107.5t-155 -31.5h-260q-145 0 -227 82.5t-82 240.5v476q0 154 79 237.5t230 83.5h278q72 0 121 -20.5t100 -84.5v105h432v-733h74v-387zM886 387v347h-368v-347h368zM995 1243h-241v265h241v-265zM643 1243 h-243v265h243v-265z" />
<glyph unicode="&#xe5;" horiz-adv-x="1417" d="M1392 0h-267h-42q-62 0 -95 19q-46 29 -102 120q-31 -76 -84 -107.5t-155 -31.5h-260q-145 0 -227 82.5t-82 240.5v476q0 154 79 237.5t230 83.5h278q72 0 121 -20.5t100 -84.5v105h432v-733h74v-387zM886 387v347h-368v-347h368zM857 1352q0 -62 -47.5 -105.5 t-109.5 -43.5t-109.5 41t-47.5 108q0 70 43 113.5t112 43.5q67 0 113 -41.5t46 -115.5zM740 1356q-2 20 -14 32t-32 10q-41 -4 -41 -44q0 -43 45 -43q46 0 42 45z" />
<glyph unicode="&#xe6;" horiz-adv-x="2115" d="M2038 478h-787v-107h586v-371h-634h-34t-32 -2q-56 0 -93 21q-52 31 -97 111q-42 -74 -103 -102t-179 -28h-331q-116 0 -180 39q-81 48 -80 154v239q0 92 56.5 150t162.5 58h562v109h-588v371h534q106 0 159 -24.5t99 -107.5q39 80 97 106t180 26h433q139 0 200 -67 q70 -79 69 -272v-303zM1635 640v109h-384v-109h384zM855 371v107h-384v-107h384z" />
<glyph unicode="&#xe7;" horiz-adv-x="1178" d="M1112 0h-422v-74q98 0 157 -32q83 -46 83 -146q0 -77 -51 -125q-65 -65 -202 -66q-106 0 -269 45v122q102 -21 153.5 -31t85.5 -10q58 0 75.5 14.5t26.5 52.5q7 33 -35.5 44t-98.5 11h-25h-4v195h-193q-147 0 -231 81.5t-84 241.5v465q0 132 85 227q94 104 241 105h708 v-386h-586v-347h586v-387z" />
<glyph unicode="&#xe8;" horiz-adv-x="1367" d="M1305 469h-787v-104h582v-365h-707q-315 0 -315 323v458q0 152 91.5 245.5t242.5 93.5h622q271 0 271 -339v-312zM899 644v110h-381v-110h381zM882 1224h-139l-350 279h291z" />
<glyph unicode="&#xe9;" horiz-adv-x="1367" d="M1305 469h-787v-104h582v-365h-707q-315 0 -315 323v458q0 152 91.5 245.5t242.5 93.5h622q271 0 271 -339v-312zM899 644v110h-381v-110h381zM947 1531l-352 -278h-137l195 278h294z" />
<glyph unicode="&#xea;" horiz-adv-x="1367" d="M1305 469h-787v-104h582v-365h-707q-315 0 -315 323v458q0 152 91.5 245.5t242.5 93.5h622q271 0 271 -339v-312zM899 644v110h-381v-110h381zM1009 1240h-137l-176 141l-172 -141h-140l194 277h240z" />
<glyph unicode="&#xeb;" horiz-adv-x="1367" d="M1305 469h-787v-104h582v-365h-707q-315 0 -315 323v458q0 152 91.5 245.5t242.5 93.5h622q271 0 271 -339v-312zM899 644v110h-381v-110h381zM970 1235h-241v265h241v-265zM618 1235h-243v265h243v-265z" />
<glyph unicode="&#xec;" horiz-adv-x="622" d="M530 0h-437v1120h437v-1120zM557 1241h-139l-350 279h291z" />
<glyph unicode="&#xed;" horiz-adv-x="622" d="M530 0h-437v1120h437v-1120zM558 1506l-352 -278h-137l195 278h294z" />
<glyph unicode="&#xee;" horiz-adv-x="622" d="M530 0h-437v1120h437v-1120zM614 1258h-137l-176 141l-172 -141h-140l194 277h240z" />
<glyph unicode="&#xef;" horiz-adv-x="622" d="M530 0h-437v1120h437v-1120zM608 1255h-241v265h241v-265zM256 1255h-243v265h243v-265z" />
<glyph unicode="&#xf0;" horiz-adv-x="1392" d="M1313 358q0 -159 -82 -252q-94 -106 -278 -106h-564q-116 0 -192 58q-120 91 -119 300v324q0 136 84.5 231.5t224.5 95.5h479l-124 163l-245 -89l-60 166l199 69l-152 204h365l67 -89l217 73l68 -158l-170 -58l200 -281q82 -112 82 -255v-396zM881 367v347h-367v-347h367 z" />
<glyph unicode="&#xf1;" horiz-adv-x="1454" d="M1446 0h-274q-106 0 -181 66t-75 175v493h-390v-734h-437v1120h437v-109q67 70 142.5 91t201.5 21h161q104 0 198.5 -66.5t114.5 -182.5q6 -30 11.5 -82t5.5 -93v-312h85v-387zM1065 1517q-30 -126 -66 -174q-48 -60 -143 -60q-9 0 -149 28q-62 13 -88 13q-67 0 -91 -67 h-99q31 131 80 180.5t129 49.5l235 -47q69 0 93 77h99z" />
<glyph unicode="&#xf2;" horiz-adv-x="1392" d="M1313 358q0 -159 -82 -252q-94 -106 -278 -106h-564q-116 0 -202 78q-109 98 -109 280v435q0 139 76 228q84 99 233 99h588q152 0 245 -86.5t93 -240.5v-435zM881 387v347h-367v-347h367zM905 1217h-139l-350 279h291z" />
<glyph unicode="&#xf3;" horiz-adv-x="1392" d="M1313 358q0 -159 -82 -252q-94 -106 -278 -106h-564q-116 0 -202 78q-109 98 -109 280v435q0 139 76 228q84 99 233 99h588q152 0 245 -86.5t93 -240.5v-435zM881 387v347h-367v-347h367zM953 1521l-352 -278h-137l195 278h294z" />
<glyph unicode="&#xf4;" horiz-adv-x="1392" d="M1313 358q0 -159 -82 -252q-94 -106 -278 -106h-564q-116 0 -202 78q-109 98 -109 280v435q0 139 76 228q84 99 233 99h588q152 0 245 -86.5t93 -240.5v-435zM881 387v347h-367v-347h367zM1024 1258h-137l-176 141l-172 -141h-140l194 277h240z" />
<glyph unicode="&#xf5;" horiz-adv-x="1392" d="M1313 358q0 -159 -82 -252q-94 -106 -278 -106h-564q-116 0 -202 78q-109 98 -109 280v435q0 139 76 228q84 99 233 99h588q152 0 245 -86.5t93 -240.5v-435zM881 387v347h-367v-347h367zM1000 1504q-30 -126 -66 -174q-48 -60 -143 -60q-9 0 -149 28q-62 13 -88 13 q-67 0 -91 -67h-99q31 131 80 180.5t129 49.5l235 -47q69 0 93 77h99z" />
<glyph unicode="&#xf6;" horiz-adv-x="1392" d="M1313 358q0 -159 -82 -252q-94 -106 -278 -106h-564q-116 0 -202 78q-109 98 -109 280v435q0 139 76 228q84 99 233 99h588q152 0 245 -86.5t93 -240.5v-435zM881 387v347h-367v-347h367zM999 1257h-241v265h241v-265zM647 1257h-243v265h243v-265z" />
<glyph unicode="&#xf7;" horiz-adv-x="1692" d="M992 979q0 -58 -41.5 -102t-103.5 -44q-60 0 -102.5 38t-42.5 108q0 61 39.5 103.5t105.5 42.5q58 0 101.5 -41.5t43.5 -104.5zM1442 473h-1190v271h1190v-271zM994 236q0 -60 -41 -103.5t-104 -43.5q-60 0 -102.5 42.5t-42.5 104.5q0 65 40.5 106.5t104.5 41.5 q60 0 102.5 -42.5t42.5 -105.5z" />
<glyph unicode="&#xf8;" horiz-adv-x="1392" d="M1313 358q0 -159 -82 -252q-94 -106 -278 -106h-512l-62 4l-155 -193l-116 91l116 154q-87 65 -120 157q-15 46 -26 145v435q0 141 76 230q84 97 230 97h575q21 0 48 -2t46 -4l130 171l126 -94l-108 -132q60 -48 86 -111.5t26 -154.5v-435zM909 358v371l-290 -371h290z M806 762h-309v-404z" />
<glyph unicode="&#xf9;" horiz-adv-x="1454" d="M1363 0h-431v110q-129 -110 -290 -110h-258q-148 0 -217 92t-69 262v380h-90v386h263q263 0 263 -260v-473h398v733h431v-1120zM895 1224h-139l-350 279h291z" />
<glyph unicode="&#xfa;" horiz-adv-x="1454" d="M1363 0h-431v110q-129 -110 -290 -110h-258q-148 0 -217 92t-69 262v380h-90v386h263q263 0 263 -260v-473h398v733h431v-1120zM960 1531l-352 -278h-137l195 278h294z" />
<glyph unicode="&#xfb;" horiz-adv-x="1454" d="M1363 0h-431v110q-129 -110 -290 -110h-258q-148 0 -217 92t-69 262v380h-90v386h263q263 0 263 -260v-473h398v733h431v-1120zM1005 1244h-137l-176 141l-172 -141h-140l194 277h240z" />
<glyph unicode="&#xfc;" horiz-adv-x="1454" d="M1363 0h-431v110q-129 -110 -290 -110h-258q-148 0 -217 92t-69 262v380h-90v386h263q263 0 263 -260v-473h398v733h431v-1120zM1007 1253h-241v265h241v-265zM655 1253h-243v265h243v-265z" />
<glyph unicode="&#xfd;" horiz-adv-x="1408" d="M1424 1120l-591 -1402q-48 -122 -99.5 -154.5t-197.5 -32.5h-337v359h272l-479 1230h466l193 -547q19 -58 32 -105t25 -114q13 72 28 143q8 33 28 76l206 547h454zM982 1517l-352 -278h-137l195 278h294z" />
<glyph unicode="&#xfe;" horiz-adv-x="1408" d="M1328 323q0 -151 -74.5 -237t-222.5 -86h-284q-66 0 -126 24q-28 19 -45 32q-25 19 -46 50v-575h-437v1991h437v-543q33 81 87 113q54 28 147 28h267q146 0 220 -86q78 -81 77 -235v-476zM895 387v347h-365v-347h365z" />
<glyph unicode="&#xff;" horiz-adv-x="1408" d="M1424 1120l-591 -1402q-48 -122 -99.5 -154.5t-197.5 -32.5h-337v359h272l-479 1230h466l193 -547q19 -58 32 -105t25 -114q13 72 28 143q8 33 28 76l206 547h454zM1030 1255h-241v265h241v-265zM678 1255h-243v265h243v-265z" />
<glyph unicode="&#x131;" horiz-adv-x="622" d="M530 0h-437v1120h437v-1120z" />
<glyph unicode="&#x152;" horiz-adv-x="2233" d="M2146 0h-1688q-185 0 -282.5 106.5t-97.5 307.5v700q0 195 71 290q89 118 303 118h1694v-408h-667v-176h667v-348h-667v-176h667v-414zM1064 414v700h-550v-700h550z" />
<glyph unicode="&#x153;" horiz-adv-x="2068" d="M1993 469h-764v-104h567v-365h-524h-33.5t-31.5 -2q-58 0 -95 21q-52 31 -99 111q-41 -82 -94 -106t-153 -24h-416q-135 0 -203.5 88t-68.5 250v443q0 166 64.5 252.5t207.5 86.5h412q100 0 141 -18q61 -26 110 -114q42 78 101.5 105t181.5 27h432q145 0 209 -89 q56 -80 56 -250v-312zM1609 644v110h-380v-110h380zM838 371v373h-351v-373h351z" />
<glyph unicode="&#x178;" horiz-adv-x="1673" d="M1667 1522l-590 -971v-551h-501v551l-568 971h543l280 -569l281 569h555zM1114 1624h-228v249h228v-249zM781 1624h-232v249h232v-249z" />
<glyph unicode="&#x2c6;" horiz-adv-x="758" d="M690 1407h-137l-176 141l-172 -141h-140l194 277h240z" />
<glyph unicode="&#x2da;" horiz-adv-x="758" d="M536 1452q0 -62 -47.5 -105.5t-109.5 -43.5t-109.5 41t-47.5 108q0 70 43 113.5t112 43.5q67 0 113 -41.5t46 -115.5zM419 1456q-2 20 -14 32t-32 10q-41 -4 -41 -44q0 -43 45 -43q46 0 42 45z" />
<glyph unicode="&#x2dc;" horiz-adv-x="758" d="M696 1643q-30 -126 -66 -174q-48 -60 -143 -60q-9 0 -149 28q-62 13 -88 13q-67 0 -91 -67h-99q31 131 80 180.5t129 49.5l235 -47q69 0 93 77h99z" />
<glyph unicode="&#x2000;" horiz-adv-x="954" />
<glyph unicode="&#x2001;" horiz-adv-x="1909" />
<glyph unicode="&#x2002;" horiz-adv-x="954" />
<glyph unicode="&#x2003;" horiz-adv-x="1909" />
<glyph unicode="&#x2004;" horiz-adv-x="636" />
<glyph unicode="&#x2005;" horiz-adv-x="477" />
<glyph unicode="&#x2006;" horiz-adv-x="318" />
<glyph unicode="&#x2007;" horiz-adv-x="318" />
<glyph unicode="&#x2008;" horiz-adv-x="238" />
<glyph unicode="&#x2009;" horiz-adv-x="381" />
<glyph unicode="&#x200a;" horiz-adv-x="106" />
<glyph unicode="&#x2010;" horiz-adv-x="685" d="M607 371h-533v378h533v-378z" />
<glyph unicode="&#x2011;" horiz-adv-x="685" d="M607 371h-533v378h533v-378z" />
<glyph unicode="&#x2012;" horiz-adv-x="685" d="M607 371h-533v378h533v-378z" />
<glyph unicode="&#x2013;" horiz-adv-x="1015" d="M994 414h-973v292h973v-292z" />
<glyph unicode="&#x2014;" horiz-adv-x="2036" d="M2015 414h-1989v292h1989v-292z" />
<glyph unicode="&#x2018;" horiz-adv-x="650" d="M558 1340h-270v-85h248v-426h-443v480q0 213 226 213h239v-182z" />
<glyph unicode="&#x2019;" horiz-adv-x="650" d="M545 1048q0 -219 -224 -219h-243v182h272v87h-242v424h437v-474z" />
<glyph unicode="&#x201a;" horiz-adv-x="683" d="M551 -48q0 -219 -221 -219h-241v189h267v78h-244v421h439v-469z" />
<glyph unicode="&#x201c;" horiz-adv-x="1243" d="M1150 1340h-269v-85h248v-426h-439v480q0 213 219 213h241v-182zM571 1340h-269v-85h247v-426h-437v480q0 213 218 213h241v-182z" />
<glyph unicode="&#x201d;" horiz-adv-x="1243" d="M1133 1048q0 -219 -224 -219h-240v182h273v87h-246v424h437v-474zM551 1048q0 -219 -221 -219h-241v182h271v87h-242v424h433v-474z" />
<glyph unicode="&#x201e;" horiz-adv-x="1243" d="M1133 -48q0 -219 -224 -219h-240v189h269v78h-248v421h443v-469zM551 -48q0 -219 -221 -219h-241v189h267v78h-244v421h439v-469z" />
<glyph unicode="&#x2022;" horiz-adv-x="1199" d="M895 764q0 -122 -87 -208.5t-209 -86.5t-208.5 86.5t-86.5 208.5t87 208.5t208 86.5q122 0 209 -86.5t87 -208.5z" />
<glyph unicode="&#x2026;" horiz-adv-x="2036" d="M1914 0h-435v421h435v-421zM1235 0h-436v421h436v-421zM558 0h-434v421h434v-421z" />
<glyph unicode="&#x202f;" horiz-adv-x="381" />
<glyph unicode="&#x2039;" horiz-adv-x="642" d="M588 161h-347l-185 256v287l185 255h347l-215 -308v-167z" />
<glyph unicode="&#x203a;" horiz-adv-x="642" d="M588 417l-184 -256h-348l217 323v167l-217 308h348l184 -255v-287z" />
<glyph unicode="&#x205f;" horiz-adv-x="477" />
<glyph unicode="&#x2122;" horiz-adv-x="1692" d="M1487 905h-178v367l-141 -367h-68l-134 367v-367h-185v558h257l99 -262l94 262h256v-558zM686 1313h-160v-408h-205v408h-160v150h525v-150z" />
<glyph unicode="&#xe000;" horiz-adv-x="1117" d="M0 1118h1118v-1118h-1118v1118z" />
</font>
</defs>
</svg>
